#TITLE:U.N Owen was Her + Love-Coloured Master Spark;
#SUBTITLE:-Trance Mix-;
#ARTIST:ION;
#TITLETRANSLIT:;
#SUBTITLETRANSLIT:;
#ARTISTTRANSLIT:;
#CREDIT:;
#BANNER:;
#BACKGROUND:;
#LYRICSPATH:;
#CDTITLE:;
#MUSIC:U.N Owen was Her + Love-Coloured Master Spark -Trance Mix-.ogg;
#OFFSET:-1.780;
#SAMPLESTART:35.840;
#SAMPLELENGTH:11.960;
#SELECTABLE:YES;
#BPMS:0.000=148.000;
#STOPS:32.000=1.220
;
#BGCHANGES:;

//---------------dance-single - ----------------
#NOTES:
     dance-single:
     :
     Challenge:
     12:
     0.875,0.895,0.019,0.019,1.000:
0000
0000
0000
0000
,
0000
0000
0000
0000
,
0000
0000
0000
0000
,
0000
0000
0000
0000
,
1000
0100
0000
0010
0001
0000
1000
0010
0000
0100
0001
0000
1000
0001
0000
1000
,
0001
1000
0000
0001
0010
0000
0100
1000
0000
0001
0100
0000
0010
1000
0000
1000
,
0001
0100
0000
0010
1000
0000
0001
0010
0000
0100
1000
0000
0001
0010
0000
0010
,
0001
0100
0001
0100
0001
0100
0001
0100
0010
1000
0010
1000
0010
1000
0010
1000
,
0002
0003
000M
0000
1001
0000
0010
0000
1000
0000
0010
0000
1000
0000
0100
0000
,
1000
0100
1000
0001
1000
0001
1000
0010
,
1000
0010
1000
0010
1000
0010
1000
0100
,
1000
0100
1000
0001
1000
0001
1000
0010
,
1000
0010
1000
0010
1000
0010
1000
0100
,
1000
0100
1000
0001
1000
0001
1000
0010
,
1000
0010
1000
0010
1000
0010
1000
0100
,
1000
0100
1000
0001
1000
0001
1000
0010
,
1000
0010
1000
0100
0010
0010
0001
0100
,
0001
0001
0100
0100
0010
0010
1000
1000
,
0001
0001
1000
0100
0010
0010
0001
0010
,
0100
0100
1000
1000
0001
0001
0100
0010
,
00M0
0000
1000
0100
1000
0000
0010
0000
0100
0000
0100
0000
0001
0000
0010
0000
,
0001
0001
0100
0100
0010
0010
1000
1000
,
0001
0000
0001
0000
1000
0100
1000
0100
1000
0100
1000
0100
0010
0001
0010
0001
,
0010
0001
0010
0001
1000
0100
0010
0001
0100
0010
0100
0001
0010
0001
0100
0010
,
1000
0000
0001
1000
0001
0000
0100
0000
0010
0000
1000
0100
0000
0100
1000
0000
,
0001
0000
0000
0000
0000
0000
1000
0000
0000
0100
0000
0000
1000
0000
0000
0100
0000
0000
0010
0000
0000
0000
0000
0000
0001
0000
0000
0000
0000
0000
1000
0000
0000
0010
0000
0000
0000
0000
0000
0010
0000
0000
1000
0000
0001
0000
1000
0000
,
0001
0000
0100
0000
0001
0000
0010
0000
0001
0000
1000
0001
0000
0001
1000
0000
,
0010
0000
0000
0000
0000
0000
1000
0000
0000
0001
0000
0000
1000
0000
0000
0100
0000
0000
0010
0000
0000
0001
0000
0000
1000
0000
0000
0000
0000
0000
0001
0000
0000
0100
0000
0000
0000
0000
0000
0100
0000
0000
0010
0000
1000
0000
0010
0000
,
1000
0000
0000
0000
0000
0000
0001
0000
0100
0000
0001
0000
0100
0000
0000
0000
0000
0000
0001
0000
0000
0000
0000
0000
1000
0000
0000
0000
0000
0000
0001
0000
0000
0100
0000
0000
0000
0000
0000
0100
0000
0000
0010
0000
0000
0000
0000
0000
,
1000
0000
0000
0000
0000
0000
0001
0000
0000
0100
0000
0000
0001
0000
0000
0100
0000
0000
0010
0000
0000
0000
0000
0000
1000
0000
0000
0000
0000
0000
0001
0000
0000
0010
0000
0000
0000
0000
0000
0010
0000
0000
0100
0000
1000
0000
0100
0000
,
1000
0000
0001
0000
1000
0000
0100
0000
0010
0000
0001
0100
0001
0100
0010
1000
,
0010
0000
1000
0100
1000
0000
0001
0000
0100
0000
0001
0000
0010
0000
0001
0010
,
0001
0010
0100
1000
0001
0000
0100
0000
0010
0000
1000
0100
0000
0100
0010
0000
,
0001
0000
0000
0000
0000
0000
1000
0000
0000
0001
0000
0000
1000
0000
0000
0100
0000
0000
0010
0000
0000
0000
0000
0000
0001
0000
0000
0000
0000
0000
0100
0000
0000
0010
0000
0000
0000
0000
0000
0010
0000
0000
1000
0000
0001
0000
1000
0000
,
0001
0000
1000
0000
0001
0000
0100
0000
0010
0000
1000
0100
0000
0010
0001
0000
,
1000
0000
0000
0000
0000
0000
0001
0000
0000
0100
0000
0000
0001
0000
0000
1000
0000
0000
0100
0000
0000
0010
0000
0000
0001
0000
0000
0000
0000
0000
1000
0000
0000
0100
0000
0000
0000
0000
0000
0010
0000
0000
0001
0000
1000
0000
0001
0000
,
1000
0000
0000
0000
0000
0000
0001
0000
1000
0000
0001
0000
1000
0000
0000
0000
0000
0000
0001
0000
0000
0000
0000
0000
0100
0000
0000
0000
0000
0000
0010
0000
0000
1000
0000
0000
0000
0000
0000
0001
0000
0000
0100
0000
0000
0000
0000
0000
,
0010
0000
0000
0000
0000
0000
1000
0000
0000
0100
0000
0000
1000
0000
0000
0100
0000
0000
0010
0000
0000
0000
0000
0000
0001
0000
0000
0000
0000
0000
1000
0000
0000
0010
0000
0000
0000
0000
0000
0100
0000
0000
0001
0000
0100
0000
0001
0000
,
0100
0000
0010
0000
1000
0100
1000
0100
1000
0100
1000
0100
0010
0001
0010
0001
,
0010
0001
0010
0001
1000
0100
0010
0001
0010
0100
1000
0010
0100
0001
0010
0001
,
0100
0010
1000
0100
100M
0100
0000
1000
01M0
0000
1000
0100
000M
1000
0100
0000
,
1000
0100
0010
0001
M100
0001
0000
0100
00M1
0000
0100
0001
M000
0100
0001
0100
,
0010
0000
1000
0001
0M00
1000
0000
0001
10M0
0000
0001
1000
0M00
0001
1000
0010
,
0100
0001
0000
1000
0M10
1000
0000
0010
100M
0000
0010
1000
0M00
0010
1000
0000
,
0001
0100
0010
1000
0M01
0010
0000
0001
M010
0000
0001
0010
0M00
0001
0010
0000
,
0001
0010
0100
1000
00M1
1000
0000
0001
1M00
0000
0001
1000
00M0
0001
1000
0000
,
0001
1000
0100
0010
010M
0010
0000
0100
M010
0000
0100
0010
010M
0000
0010
0100
,
0010
0100
0000
0010
0001
0100
0001
0100
0010
1000
0010
1000
0001
0010
0100
1000
,
0010
0100
0001
0100
0001
1000
0000
0100
0010
0000
0001
0010
0000
0100
1000
0100
,
0010
0001
0100
0000
0001
0100
0000
0010
1000
0000
0100
0010
0000
0001
0010
0000
,
0100
1000
0100
0010
0001
0100
0000
0010
1000
0000
1000
0001
0000
0001
0100
0010
,
1000
0010
0100
0000
0001
0100
0000
0100
0001
0000
0001
1000
0000
1000
0100
0000
,
0010
0001
0100
0001
1000
0100
0000
0010
0001
0000
0100
0010
0000
1000
0100
0010
,
0001
0100
0002
0000
0000
0000
0013
0000
0010
0001
0010
0001
1000
0000
0010
0100
,
0000
0010
0100
0001
1000
0100
0000
0010
0001
0000
0100
0010
0000
1000
0100
1000
,
0010
0100
0001
0000
1000
0100
0000
0100
0010
0000
0010
0001
0000
0001
1000
0000
,
0001
0100
0010
1000
0001
0100
0000
0010
1000
0000
0001
0010
0000
0100
1000
0100
,
1000
0010
0100
0000
0001
1000
0000
1000
0001
0000
0001
0010
0000
0010
0100
0000
,
1000
0100
0010
0001
1000
0100
0000
0100
0010
0000
0010
0001
0000
0001
1000
0100
,
0010
0001
1000
0100
1000
0100
0010
0001
0010
0100
1000
0100
0010
0100
0010
0001
,
1000
0010
0100
0001
1000
0000
0001
0100
0001
0100
0010
1000
0M01
0000
1000
0000
,
00M1
0000
1000
0000
00M1
0100
0000
0001
1M00
0000
0001
0010
0M00
0001
1000
0000
,
00M1
0000
1000
0001
1MM1
0000
0000
0000
0000
0000
0000
0000
0000
0000
0000
0000
;

//---------------dance-single - ----------------
#NOTES:
     dance-single:
     :
     Hard:
     9:
     0.627,0.607,0.074,0.046,0.529:
0000
0000
0000
0000
,
0000
0000
0000
0000
,
0000
0000
0000
0000
,
0000
0000
0000
0000
,
1000
0100
0000
0000
0010
0000
0010
0001
0000
0000
1000
0000
0010
0100
0000
0100
,
0000
0001
0000
0000
1000
0000
1000
0001
0000
0000
0100
0000
0100
0001
0000
0001
,
0000
1000
0000
0000
0010
0000
0010
0100
0000
0000
0001
0000
0001
1000
0000
1000
,
0000
0001
0000
0000
0100
0000
0100
0010
0000
0000
1000
0000
1000
0001
0000
0001
,
2000
3000
0000
0000
0001
0000
0100
0000
0010
0000
0010
0000
0000
0000
1000
0000
,
0100
0100
0000
0010
0001
0001
0000
0100
,
0010
0010
0000
1100
0100
0001
0000
0100
,
0100
0010
0000
1000
0100
0100
0000
0010
,
0010
0001
0000
1010
1000
0100
0000
0001
,
0100
0100
0000
0010
1000
1000
0000
0100
,
0001
0001
0000
0110
0010
1000
0000
0010
,
0100
0100
0000
0011
0001
1000
0000
0010
,
0100
0100
0001
0100
0010
0000
1000
0100
,
0010
0000
0001
0100
0001
0010
0001
0010
,
0100
0000
1000
0100
0010
0000
0001
0100
,
0010
0000
1000
0100
0010
0100
1000
0001
,
0000
1000
0001
0100
0010
0000
1000
0100
,
1000
0000
0010
0100
0001
0100
0010
1000
,
0001
0000
1000
0100
0001
0000
0100
1000
,
0010
0000
0100
0001
0100
0010
2000
0000
,
3001
0000
0000
0000
1000
0000
0100
0000
0010
0000
0001
0100
0000
0001
0100
0000
,
0010
0000
0000
0000
1000
0100
1000
0000
0001
0000
1000
0100
0000
1000
0100
0000
,
0010
0000
0001
0000
1000
0000
0010
0000
0100
0000
0001
1000
0000
0001
1000
0000
,
0001
0000
0000
0000
1000
0100
1000
0000
0001
0000
1000
0100
0000
1000
0100
0000
,
1000
0000
0010
0000
0100
0000
0001
0000
0100
0000
0010
1000
0000
0010
1000
0000
,
0001
0000
0000
0000
1000
0100
1000
0000
0010
0000
0100
0001
0000
0100
0001
0000
,
1000
0000
0001
0000
1000
0000
0100
0000
0010
0000
0001
0100
0001
0000
1000
0100
,
1000
0001
0100
0001
0100
0001
1000
0000
,
0001
0000
1000
0000
1001
0000
0001
0000
0100
0000
0010
1000
0000
0010
1000
0000
,
0001
0000
0000
0000
1000
0001
1000
0000
0010
0000
0100
0001
0000
0100
0001
0000
,
0100
0000
0010
0000
1000
0000
0100
0000
1000
0000
0010
0100
0000
0010
0100
0000
,
0001
0000
0000
0000
0100
0001
0100
0000
0010
0000
1000
0001
0000
1000
0001
0000
,
0100
0000
0010
0000
1000
0000
0001
0000
0010
0000
0100
1000
0000
0100
1000
0000
,
0001
0000
0000
0000
0100
0010
0100
0000
0001
0000
0100
0010
0000
0100
0010
0000
,
1000
0000
0010
0000
0100
0000
0001
0000
1000
0000
0001
0100
0001
0000
1000
0100
,
1000
0001
0100
0010
0100
0010
0100
0000
,
0001
0000
0100
0000
0001
0100
0000
0000
0010
0000
0000
1000
0000
0000
0001
0000
,
1000
0100
1000
0000
0010
0100
0000
0000
0001
0000
0000
0100
0000
0000
0010
1000
,
0010
0000
0100
0000
0001
1000
0000
0000
1000
0000
0000
0100
0000
0000
0010
0000
,
0001
0000
0010
0000
0100
1000
0000
0000
0001
0000
0000
0100
0000
0000
0010
0000
,
1000
0100
1000
0000
0010
0100
0000
0000
0001
0000
0000
0100
0000
0000
0010
0000
,
1000
0100
1000
0000
0001
0100
0000
0000
0010
0000
0000
1000
0000
0000
0010
0000
,
0100
0001
0100
0000
0001
1000
0000
0001
1000
0000
0001
0100
0001
0000
1000
0100
,
1000
0000
0001
1000
0002
0000
0000
0000
0000
0000
0000
0000
1003
0000
0000
1001
,
0000
0000
1001
0000
1000
0100
0000
0100
1000
0000
1000
0010
0000
0010
0100
0000
,
0001
0000
1000
0000
0000
0010
0000
0000
0100
0000
0000
0001
0000
0000
0100
0000
,
0010
0000
1000
0000
0001
0100
0000
0100
0010
0000
0010
1000
0000
1000
0001
0000
,
1000
0000
0010
0000
0000
0100
0000
0000
0001
0000
0000
1000
0000
0000
0100
0000
,
1000
0000
0010
0000
0100
0001
0000
0001
1000
0000
1000
0100
0000
0100
0010
0000
,
0001
0000
2000
0000
0000
0000
3001
0000
0100
0010
0100
0000
0001
0000
1000
0100
,
0000
0010
0001
0000
1000
0100
0000
0100
1000
0000
1000
0010
0000
0010
0100
0000
,
0001
0000
1000
0000
0000
0100
0000
0000
0010
0000
0000
0001
0000
0000
0100
0000
,
0010
0000
1000
0000
0001
0100
0000
0100
0010
0000
0010
1000
0000
1000
0001
0000
,
0100
0000
0010
0000
0000
1000
0000
0000
0001
0000
0000
0010
0000
0000
0100
0000
,
1000
0000
0100
0000
0010
0001
0000
0001
1000
0000
1000
0010
0000
0010
0100
0000
,
0001
2000
0000
3001
0100
0010
1000
0001
,
0100
0000
0001
0000
1000
0000
0100
0000
0010
0001
0010
0001
0010
0000
0100
0000
,
1000
0000
0001
0000
1000
0001
0000
1000
0001
0000
1000
0001
0000
1000
0001
0000
,
1000
0001
1001
0000
0000
0000
0000
0000
;

//---------------dance-single - ----------------
#NOTES:
     dance-single:
     :
     Medium:
     7:
     0.418,0.404,0.056,0.028,0.079:
0000
0000
0000
0000
,
0000
0000
0000
0000
,
0000
0000
0000
0000
,
0000
0000
0000
0000
,
0000
1000
0000
0000
1000
0000
0000
1000
0000
0000
1000
0000
1000
0000
1000
0000
,
0000
0001
0000
0000
0001
0000
0000
0001
0000
0000
0001
0000
0001
0000
0001
0000
,
0000
0100
0000
0000
0100
0000
0000
0100
0000
0000
0100
0000
0100
0000
0100
0000
,
0000
0010
0000
0000
0010
0000
0000
0010
0000
0000
0010
0000
0010
0000
0010
0000
,
1001
0000
1000
1000
0000
0010
0000
0100
,
0000
0001
0000
0100
0000
0010
0000
1000
,
0000
0100
0000
1000
0000
0010
0000
0100
,
0000
0001
0000
0010
0000
0100
0000
1000
,
0000
0100
0000
0010
0000
0001
0000
0010
,
0000
0100
0000
1000
0000
0001
0000
1000
,
0000
0001
0000
0100
0000
0010
0000
1000
,
0000
0010
0000
0100
0000
0100
0000
0001
,
0000
1000
0001
0100
0001
0000
1000
0100
,
1000
0000
0001
0010
0100
0000
1000
0100
,
0010
0000
0001
0010
0001
0000
1000
0010
,
1000
0000
0001
0100
0010
0000
1000
0100
,
0000
1000
0100
1000
0100
0000
0010
0001
,
0010
0000
1000
0010
0100
0000
0001
0100
,
0010
0000
1000
0100
0100
0000
0001
0100
,
0100
0000
0010
1000
0010
0100
0002
0000
,
0000
0000
1003
0100
1000
0000
0001
0100
,
0001
0000
1000
0100
0010
0000
0001
0000
,
0100
0000
0010
1000
0010
0000
0100
0001
,
0100
0000
0010
1000
0001
0000
1000
0000
,
0100
0000
0010
0001
0010
0000
0100
1000
,
0001
0000
0100
0010
1000
0000
0001
0000
,
0100
0000
0001
0010
0100
0000
1000
0000
,
0010
1000
1000
1000
,
0001
0000
1001
1000
0100
0000
0001
0100
,
0010
0000
1000
0100
1000
0000
0010
0000
,
0100
0000
0001
0010
0001
0000
1000
0100
,
1000
0000
0010
0100
0001
0000
1000
0000
,
0001
0000
1000
0100
0010
0000
0001
0100
,
1000
0000
0100
0001
1000
0000
0001
0000
,
0010
0000
0100
1000
0100
0000
0010
0000
,
0001
0100
0100
0100
,
0001
0000
1000
0000
1001
0000
0000
0000
0001
0000
0000
0001
0000
0000
0001
0000
,
1000
0000
0100
0000
1000
0000
0000
0000
1000
0000
0000
1000
0000
0000
1000
0000
,
0001
0000
1000
0000
0001
0000
0000
0000
0001
0000
0000
0001
0000
0000
0001
0000
,
0100
0000
0010
0000
0100
0000
0000
0000
0100
0000
0000
0100
0000
0000
0100
0000
,
0010
0000
1000
0000
0001
0000
0000
0000
0001
0000
0000
0001
0000
0000
0001
0000
,
0100
0000
0010
0000
1000
0000
0000
0000
1000
0000
0000
1000
0000
0000
1000
0000
,
0100
1000
0010
0000
0010
0000
1000
0000
,
0001
0000
0000
0000
2002
0000
0000
0000
0003
0000
0000
0000
0001
0000
0000
0001
,
0000
0001
3001
0000
0100
0000
0010
1000
,
0001
0001
0000
0000
1000
0000
0100
0000
,
0010
0001
0010
0000
0100
0000
1000
0010
,
0100
0001
0000
0000
1000
0000
0100
0000
,
0010
0100
1000
0000
0010
0000
0100
0001
,
0100
0010
0000
1000
1000
0000
0001
0000
,
1000
0000
1001
0000
0001
0000
0100
0010
,
1000
0001
0000
0000
0100
0000
0010
0000
,
0010
0100
0001
0000
1000
0000
0100
0010
,
0100
1000
0000
0000
0010
0000
0100
0000
,
0001
0010
0001
0000
0100
0000
0010
1000
,
0010
0100
0000
0000
0001
0000
0100
0000
,
0010
0000
1000
0100
1000
0000
0001
0000
,
1000
0000
0001
0000
0000
0001
0000
0000
0001
0000
0000
0001
0000
0000
0001
0000
,
1000
0001
1001
0000
0000
0000
0000
0000
;

//---------------dance-single - ----------------
#NOTES:
     dance-single:
     :
     Easy:
     3:
     0.253,0.260,0.019,0.009,0.000:
0000
0000
0000
0000
,
0000
0000
0000
0000
,
0000
0000
0000
0000
,
0000
0000
0000
0000
,
1000
0000
0000
0000
,
0100
0000
0000
0000
,
0010
0000
0000
0000
,
0001
0000
0000
0000
,
1001
1000
0000
1000
,
0000
0010
0000
0100
,
0000
0001
0000
0100
,
0000
0010
0000
1000
,
0000
0100
0000
0010
,
0000
0001
0000
0010
,
0000
0100
0000
1000
,
0000
0010
0000
0100
,
0000
0001
0001
0100
,
0100
0010
1000
0001
,
0001
0100
0100
0010
,
0010
1000
0001
1000
,
0000
0001
0001
0100
,
0100
0010
1000
0010
,
0010
0100
0100
0001
,
0001
1000
0100
2000
,
0000
3001
0001
0100
,
0100
0010
1000
0001
,
0001
1000
0100
1000
,
0010
0100
0001
0100
,
0100
0010
1000
0010
,
0010
0100
0001
0100
,
0100
0010
1000
0001
,
0001
0001
0001
0001
,
0000
1000
0100
1000
,
0100
0010
0001
0100
,
0010
1000
0010
1000
,
0010
0100
0001
0100
,
0010
1000
0001
1000
,
0001
0010
0100
1000
,
0100
0010
0001
0100
,
0100
0100
0100
0100
,
0010
1000
0000
1000
,
0000
0001
0000
0001
,
0000
0100
0000
0100
,
0000
0010
0000
0010
,
0000
1000
0000
1000
,
0000
0100
0000
0100
,
0000
0010
0000
0010
,
0000
0001
0000
0001
,
0001
0001
0100
0010
,
1000
0001
0001
0001
,
0001
0100
0010
1000
,
0010
0100
0100
0100
,
0100
0001
0010
0100
,
1000
0010
1000
0010
,
0100
0001
0010
0100
,
1000
0001
0001
0001
,
0001
0100
0010
1000
,
0010
1000
1000
1000
,
1000
0010
0100
0001
,
0100
0010
0010
1000
,
0001
1000
1000
0001
,
0100
0001
0001
0001
,
0001
1001
0000
0000
;

//---------------dance-single - ----------------
#NOTES:
     dance-single:
     :
     Beginner:
     1:
     0.123,0.202,0.037,0.000,0.000: // measure 1
0000
0000
0000
0000
,  // measure 2
0000
0000
0000
0000
,  // measure 3
0000
0000
0000
0000
,  // measure 4
0000
0000
0000
0000
,  // measure 5
1000
0000
0000
0000
,  // measure 6
0000
0000
0000
0000
,  // measure 7
0001
0000
0000
0000
,  // measure 8
0000
0000
0000
0000
,  // measure 9
1001
1001
0000
1000
,  // measure 10
0000
1000
0000
1000
,  // measure 11
0000
0001
0000
0001
,  // measure 12
0000
0001
0000
0001
,  // measure 13
0000
0100
0000
0100
,  // measure 14
0000
0100
0000
0100
,  // measure 15
0000
0010
0000
0010
,  // measure 16
0000
0010
0000
0010
,  // measure 17
0000
1000
0000
1000
,  // measure 18
0000
1000
0000
1000
,  // measure 19
0000
0001
0000
0001
,  // measure 20
0000
0001
0000
0001
,  // measure 21
0000
0100
0000
0100
,  // measure 22
0000
0100
0000
0100
,  // measure 23
0000
0010
0000
0010
,  // measure 24
0000
0010
0000
0010
,  // measure 25
0000
1000
0000
0000
,  // measure 26
0000
1000
0000
0000
,  // measure 27
0000
0001
0000
0000
,  // measure 28
0000
0001
0000
0000
,  // measure 29
0000
0100
0000
0000
,  // measure 30
0000
0100
0000
0000
,  // measure 31
0000
0010
0000
0000
,  // measure 32
0000
0010
0000
0000
,  // measure 33
0000
1000
0000
0000
,  // measure 34
0000
1000
0000
0000
,  // measure 35
0000
0100
0000
0000
,  // measure 36
0000
0100
0000
0000
,  // measure 37
0000
0010
0000
0000
,  // measure 38
0000
0010
0000
0000
,  // measure 39
0000
0001
0000
0000
,  // measure 40
0000
0001
0000
0000
,  // measure 41
0000
1000
0000
0000
,  // measure 42
0000
1000
0000
0000
,  // measure 43
0000
1000
0000
0000
,  // measure 44
0000
1000
0000
0000
,  // measure 45
0000
0001
0000
0000
,  // measure 46
0000
0001
0000
0000
,  // measure 47
0000
0001
0000
0000
,  // measure 48
0000
0001
0000
0001
,  // measure 49
0001
0001
0000
0001
,  // measure 50
0000
0100
0000
0100
,  // measure 51
0000
0010
0000
0010
,  // measure 52
0000
1000
0000
1000
,  // measure 53
0000
0100
0000
0100
,  // measure 54
0000
0010
0000
0010
,  // measure 55
0000
0001
0000
0001
,  // measure 56
0000
0100
0000
0100
,  // measure 57
0000
0010
0000
0010
,  // measure 58
0000
1000
0000
1000
,  // measure 59
0000
0001
0000
0001
,  // measure 60
0000
1000
0000
1000
,  // measure 61
0000
0001
0000
0001
,  // measure 62
0000
0110
0000
0000
,  // measure 63
0000
1001
0000
0000
;
