#TITLE:The Grimoire For Alice;
#SUBTITLE:;
#ARTIST:dBu music;
#TITLETRANSLIT:;
#SUBTITLETRANSLIT:;
#ARTISTTRANSLIT:;
#CREDIT:;
#BANNER:tgfa.png;
#BACKGROUND:tgfa-bg.png;
#LYRICSPATH:;
#CDTITLE:cdtitlegpop.png;
#MUSIC:the grimoire for alice.ogg;
#OFFSET:-0.006;
#SAMPLESTART:37.430;
#SAMPLELENGTH:12.000;
#SELECTABLE:YES;
#DISPLAYBPM:*;
#BPMS:0.000=308.000,128.000=154.000,160.000=308.000,288.000=77.000,304.000=154.000,340.000=308.000;
#STOPS:;
#BGCHANGES:;

//---------------dance-single - ----------------
#NOTES:
     dance-single:
     :
     Hard:
     9:
     0.705,1.000,0.430,0.262,0.152:
0000
0000
0000
0000
,
0000
0000
0000
0000
,
0000
0000
0000
0000
,
0000
0000
0000
0000
,
0000
0000
0000
0000
,
0000
0000
0000
0000
,
0000
0000
0000
0000
,
0000
0000
0000
0000
,
1000
0100
0010
0001
,
0100
0000
0010
0000
0010
0000
1000
0100
,
0000
0010
0001
0100
,
0010
0000
1000
0000
1000
0000
0001
0010
,
0000
0100
1000
0010
,
0100
0000
0001
0000
0001
0000
1000
0100
,
0020
0000
0000
0000
0000
0000
0031
0100
,
0001
0000
0000
0101
0000
0000
0110
0000
,
1010
1000
0100
0010
,
0001
0000
0100
0000
0100
0000
0010
1000
,
0000
0001
0010
0100
,
1000
0000
0010
0000
0010
0000
0100
0001
,
0000
1000
0100
0010
,
0100
0000
1000
0000
1000
0000
0010
0100
,
0000
0001
0010
0100
,
1100
0000
0000
0110
0000
0000
0011
0000
,
1001
1000
0010
0100
,
0001
0000
0010
0000
0010
0000
0100
1000
,
0000
0010
0100
0001
,
0100
0000
0010
0000
0010
0000
1000
0001
,
0000
0010
0100
1000
,
0100
0000
1000
0000
1000
0000
0001
0010
,
0200
0000
0000
0000
0000
0000
1300
0001
,
1000
0000
0000
1100
0000
0000
0101
0000
,
2001
0000
0000
0000
3200
0000
0000
0320
,
0000
0000
0001
0000
0031
0000
0000
0000
0100
0000
0000
0010
0000
0000
1000
0000
,
1002
0000
0000
0000
0203
0000
0000
0320
,
0000
1000
1030
0000
0001
0001
0100
0010
,
2000
0100
3100
0010
0002
0100
0103
0020
,
1000
1030
0002
1000
1003
0100
0020
0001
,
0032
1000
1003
0100
0020
0001
0031
0200
,
0010
0310
2000
0001
3001
0100
0101
0000
,
1001
1000
0100
0010
,
0001
0000
0100
0000
0010
0000
1000
0002
,
0000
0000
0023
0230
,
0000
0000
2000
0300
0000
0000
0001
0000
,
3001
0100
0010
1000
,
0010
0000
0100
0001
1000
0000
0000
0000
,
1100
0000
0000
0000
0110
0000
0000
0000
0011
0000
0000
0000
,
1001
0000
0000
0000
1100
0000
0000
0000
0101
0000
0000
0000
,
1001
1000
0010
0100
,
0001
0010
0010
0010
,
0010
0100
0100
0100
,
0100
1000
1000
0001
,
0001
0100
0010
1000
,
0010
0000
0100
0000
0001
0000
0010
0100
,
1000
0000
0000
0000
1100
0000
0000
0000
0110
0000
0000
0000
,
0011
0000
0000
0000
0101
0000
0000
0000
1100
0000
0000
0000
,
1001
1000
0100
0010
,
0001
0100
0020
0000
,
1030
0000
0000
1100
0000
0000
0110
0000
,
0011
0000
0000
1001
0000
0000
0101
0000
,
1001
1000
0100
0010
,
0001
0000
0100
0000
0010
0000
1000
0100
,
0020
0001
0032
1000
,
2003
0001
3002
1000
,
1003
0100
1000
0100
1000
0100
1000
0100
,
0010
0001
0010
0001
0010
0001
0010
0001
,
1000
0000
0000
1100
0000
0000
0110
0000
,
0011
0000
0000
0101
0000
0000
1010
0000
,
1001
1000
0100
0010
,
0001
0000
0100
0000
0001
0100
0001
0000
,
1001
0000
0000
1100
0000
0000
0101
0000
,
0001
1000
0001
1000
0001
1000
0001
1000
,
0002
0000
0000
0000
0000
1000
1000
1000
1000
0000
0000
0000
0000
1000
1000
1000
,
1003
0000
0000
0000
0000
0000
0000
0000
0000
0000
0001
0000
0010
0000
0100
0000
1000
0000
0000
0000
0000
0000
0000
0000
0001
0000
0000
0001
0000
0000
0001
0000
,
1000
0000
0000
0000
0000
0010
0100
0001
1000
0000
0000
0000
0000
0100
0010
0001
,
1000
0000
0000
0000
0000
0000
0000
0000
0000
0000
1000
0000
0100
0000
0010
0000
0001
0000
0000
0000
0000
0000
1000
0100
1000
0000
0000
0001
0000
0000
0001
0000
,
1000
0000
0100
0000
0010
0001
0100
0010
,
1000
0000
0001
0000
0100
0010
1000
0010
,
0100
0000
0001
0000
1000
0100
0010
0100
,
1000
0000
0000
0000
0010
0000
0000
0000
0100
0000
0000
0001
1000
0000
0001
0000
,
1001
0000
1000
0000
0100
0010
0001
0100
,
1000
0000
0100
0000
0001
0010
1000
0010
,
0100
0000
1000
0000
0010
0100
1000
0100
,
0001
0000
0000
0000
1000
0000
0001
0010
0100
0000
0000
1000
0000
0000
0001
0000
,
1000
0001
1000
0001
1000
0000
0001
1000
0000
0001
1000
0000
0001
1000
0001
1000
,
0001
0100
0010
1000
,
0010
0000
0100
0000
0100
0000
0001
0010
,
0000
0100
1000
0010
,
0100
0000
0001
0000
0001
0000
1000
0100
,
0000
0010
0001
0010
,
0100
0000
1000
0000
1000
0000
0010
0100
,
0000
0001
0010
0100
,
1100
0000
0000
0110
0000
0000
0011
0000
,
1001
1000
0010
0100
,
0001
0000
0010
0000
0010
0000
0100
1000
,
0000
0001
0100
1000
,
0100
0000
0001
0000
0001
0000
1000
0100
,
0000
0010
0001
0010
,
0100
0000
1000
0000
1000
0000
0001
0100
,
0020
0000
0000
0000
0000
0000
1030
0100
,
1000
0000
0000
1100
0000
0000
0101
0000
,
1001
1000
0100
0010
,
0001
0000
0100
0000
0100
0000
0010
1000
,
0001
0010
0100
1000
,
0100
0000
0010
0000
0010
0000
0001
0010
,
0100
1000
0010
0100
,
0001
0000
1000
0000
1000
0000
0100
0010
,
0001
0100
0010
1000
,
0001
0100
0001
0100
0001
0100
0010
1000
,
0001
0010
0100
1000
,
0001
0000
0100
0000
0100
0000
0010
1000
,
0001
0010
0100
1000
,
0100
0000
0010
0000
0010
0000
0001
0100
,
0010
1000
0100
1000
,
0010
0000
0100
0000
0100
0000
0001
0010
,
0200
0000
0000
0000
0000
0000
1300
0001
,
1000
0000
0000
0110
0000
0000
1000
0001
,
2002
0000
0000
0000
,
0000
0000
0000
0000
,
0000
0000
0000
0000
,
0000
0000
0000
0000
,
3003
0000
0000
0000
;

//---------------dance-single - ----------------
#NOTES:
     dance-single:
     :
     Challenge:
     13:
     0.908,1.000,0.405,0.219,0.439:
0000
0000
0000
0000
,
0000
0000
0000
0000
,
0000
0000
0000
0000
,
0000
0000
0000
0000
,
0000
0000
0000
0000
,
0000
0000
0000
0000
,
0000
0000
0000
0000
,
0001
0010
0100
1000
0010
0100
0001
0100
,
0001
0010
0100
1000
,
0100
0000
0010
0000
0010
0000
0100
1000
,
0001
0100
0010
1000
,
0010
0000
0100
0000
0100
0000
0001
0010
,
0100
1000
0100
0010
,
0001
0000
1000
0000
1000
0000
0100
0010
,
0002
0000
0000
0000
0000
0000
1003
0100
,
1000
0100
0010
0001
0000
1000
0001
0100
,
0001
0100
0010
1000
,
0001
0000
0010
0000
0010
0000
0100
1000
,
0010
0100
0010
1000
,
0001
0000
1000
0000
1000
0000
0010
0100
,
0001
0010
0100
0010
,
0001
0000
1000
0000
1000
0000
0100
0010
,
0001
0100
0010
1000
,
0001
1000
0001
1000
0001
0010
0100
1000
,
0001
0100
0010
1000
,
0010
0000
0100
0000
0100
0000
0001
0010
,
0100
1000
0100
0010
,
0001
0000
0100
0000
0100
0000
0010
1000
,
0001
0100
0010
1000
,
0100
0000
0010
0000
0010
0000
0001
0010
,
0200
0000
0000
0000
0000
0000
1300
0001
,
1001
0000
0000
1100
0000
0000
0101
0000
,
2MM2
0000
3003
0000
22MM
0000
3300
0011
,
0000
0000
1000
0000
0010
0100
0000
0000
0001
0000
0000
0001
0000
0000
0001
0000
,
2MM2
0000
3003
0000
M2M2
0000
0303
1010
,
0000
0001
0010
0100
1000
0010
0010
0010
,
0110
0100
0001
0010
0110
0100
1100
1100
,
1000
1001
1001
0001
0100
0010
1010
1000
,
1001
0001
0100
0010
1010
1000
1001
1001
,
0001
0000
0101
0000
0101
0000
0100
0000
0001
1000
0001
1000
0001
1000
0001
1000
,
0001
0100
0010
1000
,
0100
0000
0010
0000
0010
0000
0001
1000
,
02M0
0000
M320
0032
,
0M00
0203
M000
0320
,
103M
0100
0010
0001
,
0100
0000
0010
1000
0001
0000
0000
0000
,
110M
0000
0000
0000
0110
0000
M000
0000
0011
0000
0000
0000
,
M001
0100
0010
1000
0100
0010
0001
0100
,
0001
1000
0010
0100
,
00M1
2000
0M10
0010
,
301M
0200
M001
0001
,
03M2
1000
2M03
0001
,
30M1
0100
0010
1000
,
0010
0000
0100
0000
0001
0000
1000
0100
,
110M
0000
0000
0000
0110
0000
M000
0000
0011
0000
0000
0000
,
10M1
0000
0000
0000
0011
0000
0M00
0000
1010
0000
0000
0000
,
10M1
1000
0010
0100
,
0001
0010
0200
1000
,
13M0
0000
0000
1100
000M
0000
0110
0000
,
M011
0000
0000
1001
0M00
0000
1100
0000
,
10M1
0001
0100
0010
,
1000
0000
0010
0000
0100
0000
0001
0010
,
0200
1000
2300
0001
,
3001
0010
0100
1000
0010
0100
0001
0100
,
0001
0100
1000
0100
0001
0100
1000
0100
,
0001
0100
1000
0100
0001
0100
1000
0100
,
00M1
0000
0000
MM11
0000
0000
M11M
0000
,
11MM
0000
0000
1MM1
0000
0000
M1M1
0000
,
1MM1
1000
0100
0010
,
0001
0000
0100
0001
0010
0100
1000
0000
,
0001
0100
0010
1000
0100
0010
0001
0100
,
0001
1000
0001
1000
0001
1000
0001
1000
,
0002
0000
0000
0000
0000
0000
0000
0000
0000
0000
0000
0000
0000
0000
0000
0000
0000
0000
0000
0000
1000
0000
0000
0000
1000
0000
0000
0000
1000
0000
0000
0000
1000
0000
0000
0000
0000
0000
0000
0000
0000
0000
0000
0000
0000
0000
0000
0000
0000
0000
0000
0000
1000
0000
0000
0000
1000
0000
0000
0000
1000
0100
0000
0000
,
1003
0000
0000
0000
0000
0000
0000
0000
0000
0000
0000
0000
0000
0000
0000
0000
0000
0000
0000
0000
0001
0000
0000
0000
0010
0000
0000
0000
0100
1000
0000
0000
0001
0000
0000
0000
0000
0000
0000
0000
0000
0000
0000
0000
0000
0000
0000
0000
0100
0000
0000
0000
0000
0000
0010
0000
0000
0000
0000
0000
1000
0000
0000
0000
,
0001
0000
0000
0000
0000
0000
0000
0000
0000
0000
0000
0000
0000
0000
0000
0000
0000
0000
0000
0000
1000
0000
0000
0000
0100
0000
0000
0000
0010
0001
0000
0000
1000
0000
0000
0000
0000
0000
0000
0000
0000
0000
0000
0000
0000
0000
0000
0000
0000
0000
0000
0000
0001
0000
0000
0000
0010
0000
0000
0000
0100
1000
0000
0000
,
0001
0000
0000
0000
0000
0000
0000
0000
0000
0000
1000
0000
0010
0000
0100
0000
0001
0000
0000
0000
0000
0000
1000
0100
1000
0000
0000
0010
0000
0000
0100
0000
,
0001
1000
0001
1000
0001
1000
0001
1000
0010
0100
0010
0100
0010
0100
0010
0100
,
0001
0100
0001
0100
0001
0100
0001
0100
0010
1000
0010
1000
0010
1000
0010
1000
,
0001
0010
0001
0010
0001
0010
0001
0010
0100
1000
0100
1000
0100
1000
0100
1000
,
0001
1000
0001
1000
0001
1000
0001
1000
0010
0100
0010
0100
0010
0100
0010
0100
,
0001
0100
1000
0100
0001
0100
1000
0100
0001
0010
1000
0010
0001
0010
1000
0010
,
0001
0010
0100
1000
0001
0010
0100
1000
0001
0100
0010
1000
0001
0100
0010
1000
,
0001
0010
0100
1000
0001
0010
0100
1000
0001
0100
0001
1000
0001
1000
0001
1000
,
0001
0100
0010
1000
0001
0010
0100
1000
0001
0000
0000
0001
0000
0000
0001
0000
,
1000
0001
1000
0001
1000
0000
0001
0100
0000
0010
1000
0100
1000
0001
1000
0001
,
1000
0100
0010
0001
,
0100
0000
0010
0000
0010
0000
1000
0100
,
0010
0001
0100
0010
,
1000
0000
0001
0000
0001
0000
0010
0100
,
1000
0001
0100
0010
,
1000
0000
0001
0000
0001
0000
0010
0100
,
0010
0001
0100
0010
,
1000
0100
0010
0001
0100
0010
1000
0100
,
1000
0010
0100
0001
,
0100
0000
0010
0000
0010
0000
1000
0100
,
1000
0001
0010
0100
,
1000
0000
0100
0000
0100
0000
0010
0001
,
0010
0100
1000
0010
,
0100
0000
0001
0000
0001
0000
0010
0100
,
2000
0000
0000
0000
0000
0000
3001
0100
,
0001
0010
0100
1000
0000
0001
0100
0010
,
1000
0000
0001
0100
0010
1000
0010
0100
,
0001
0000
1M00
0000
10M0
0000
010M
0010
,
M001
0000
0010
0100
1000
0010
0100
0001
,
0010
0000
M100
0000
01M0
0000
100M
0010
,
M100
0000
0001
0010
0100
1000
0010
0100
,
0001
0000
10M0
0000
1M00
0000
001M
0100
,
M001
0000
1000
0100
0010
0001
0100
0010
,
1000
0001
1000
0001
1000
0100
0010
0001
,
1000
0100
1000
0100
0010
0001
0010
0001
,
1000
0010
010M
0000
01M0
0000
M001
0010
,
M001
0100
0010
1000
0010
0100
0001
0010
,
0100
1000
00M1
0000
00M1
0000
M100
0010
,
M100
0001
0010
0100
1000
0100
0010
0001
,
0100
0010
1M00
0000
10M0
0000
00M1
0100
,
M001
0010
0100
0010
0001
0100
0010
1000
,
1MM1
0000
0000
MM11
0000
0000
M11M
0000
,
22MM
0000
0000
0000
,
0000
0000
0000
0000
,
0000
0000
0000
0000
,
0000
0000
0000
0000
0000
0000
0000
0000
0000
0000
0000
0000
0000
0010
0001
0010
,
3301
0000
0000
0000
;

//---------------dance-single - ----------------
#NOTES:
     dance-single:
     :
     Medium:
     7:
     0.493,0.817,0.127,0.211,0.042:
0000
0000
0000
0000
,
0000
0000
0000
0000
,
0000
0000
0000
0000
,
0000
0000
0000
0000
,
0000
0000
0000
0000
,
0000
0000
0000
0000
,
0000
0000
0000
0000
,
0000
0000
0000
0000
,
1000
0000
0100
0000
,
0010
0001
0100
0010
,
1000
0000
0001
0000
,
0010
0100
1000
0100
,
0010
0000
0001
0000
,
0100
0010
1000
0010
,
0200
0000
0000
0001
,
0301
0000
0000
0010
0000
0000
0100
0000
,
1000
0000
0010
0000
,
0100
0001
0100
0010
,
1000
0000
0001
0000
,
0100
0010
0100
0001
,
0100
0000
0010
0000
,
1000
0100
0010
0001
,
1000
0000
0001
0000
,
1000
0000
0000
0100
0000
0000
0010
0000
,
0001
0000
0100
0000
,
0010
0100
0010
0100
,
0001
0000
1000
0000
,
0100
0010
0100
0010
,
0001
0000
0100
0000
,
0010
0100
0010
1000
,
0002
0000
0000
1000
,
1003
0000
0000
0100
0000
0000
0010
0000
,
0002
0000
0000
0000
0203
0000
0000
0320
,
0000
1000
1030
0000
0001
0000
0100
0000
,
0020
0000
0000
0000
2030
0000
0000
3002
,
0000
0100
0103
0000
0000
0001
0100
0001
,
0100
0000
0010
0000
1100
0000
0001
0101
,
0000
0100
0110
0000
1000
0000
0110
0000
,
1001
0000
1000
0000
0101
0000
0100
0110
,
0000
0010
1010
0000
1000
0000
0101
0000
,
0101
0000
0100
0000
,
0010
0000
1000
0000
0100
0000
0010
0002
,
0000
0000
0100
0203
,
0000
0320
0000
1000
,
1030
0000
0100
0000
,
0010
0000
0001
1000
0001
0000
0000
0000
,
1000
0000
0000
0000
0100
0000
0000
0000
0010
0000
0000
0000
,
0001
0000
0000
0000
0100
0000
0000
0000
0010
0000
0000
0000
,
1000
0000
0010
0000
,
1000
0100
1000
0100
,
0010
0001
0010
0001
,
1000
0010
0100
0001
,
0001
0000
0100
0000
,
0010
0000
0000
0000
1000
0000
0001
1000
,
0001
0000
0000
0000
0100
0000
0000
0000
0010
0000
0000
0000
,
1000
0000
0000
0000
0100
0000
0000
0000
0010
0000
0000
0000
,
0001
0000
0100
0000
,
0010
1000
0002
0000
,
1003
0000
0000
0100
0000
0000
0010
0000
,
0010
0000
0000
0001
0000
0000
0100
0000
,
0100
0000
0010
0000
,
1000
0000
0000
0000
0001
0000
1000
0001
,
2000
0000
3002
0000
,
0203
0000
0320
0000
,
1030
0100
0010
0001
,
0010
0100
1000
0100
,
1000
0000
0000
0010
0000
0000
0100
0000
,
0100
0000
0000
0001
0000
0000
0010
0000
,
0010
0000
0100
0000
,
1000
0000
0000
0000
0001
0100
0001
0000
,
1000
0000
0000
0100
0000
0000
0010
0000
,
0002
0000
0000
0000
,
2003
0000
0000
0001
0001
0000
0000
0001
,
3001
0000
0000
0100
0100
0000
0010
1000
,
0001
0000
0000
1000
1000
0000
0000
0100
,
0100
0000
0000
0010
0010
0000
0001
0100
,
0010
0000
0010
0000
0010
1000
0010
1000
,
0001
0000
0001
0000
0001
1000
0001
1000
,
0100
0000
0100
0000
0100
0010
0100
0010
,
0001
0000
0000
0000
0001
0000
0000
0000
0001
0000
0000
0001
0000
0000
0001
0000
,
1000
0000
1000
0000
1000
0100
1000
0100
,
0010
0000
0010
0000
0010
0001
0010
0001
,
1000
0000
1000
0000
1000
0100
0010
0001
,
2000
0000
0000
0000
0000
0000
0001
0000
3001
0000
0000
0001
0000
0000
0001
0000
,
2002
0000
0000
3003
,
1001
0000
1000
0000
,
0100
0010
0001
0100
,
0010
0000
1000
0000
,
0010
0100
0001
0010
,
0100
0000
1000
0000
,
0100
0010
0001
0100
,
0010
0000
1000
0000
,
0001
0000
0000
0010
0000
0000
0100
0000
,
1000
0000
0010
0000
,
0100
0001
0010
0001
,
1000
0000
0010
0000
,
0100
0010
0100
0001
,
1000
0000
0100
0000
,
0010
0001
0010
0100
,
2000
0000
0000
0001
,
3001
0000
0000
0100
0000
0000
0010
0000
,
1000
0100
1000
0100
,
0010
0000
0001
0000
0001
0000
0100
0010
,
0000
1000
0100
0010
,
0001
0000
0100
0000
0100
0000
0010
1000
,
0000
0001
0010
0100
,
1000
0000
0010
0000
0010
0000
0100
0001
,
0000
1000
0100
0010
,
0001
0000
0000
0010
0000
0000
0100
0000
,
1000
0010
0100
0001
,
0100
0000
0010
0000
0010
0000
1000
0100
,
0000
0010
0001
0010
,
0100
0000
1000
0000
1000
0000
0010
0100
,
0000
0001
0100
0010
,
1000
0000
0001
0000
0001
0000
1000
0100
,
2000
0000
0000
0001
,
3001
0000
0000
0101
0000
0000
1100
0000
,
2002
0000
0000
0000
,
0000
0000
0000
0000
,
0000
0000
0000
0000
,
0000
0000
0000
0000
,
3003
0000
0000
0000
;

//---------------dance-single - Trick Master Mint----------------
#NOTES:
     dance-single:
     Trick Master Mint:
     Easy:
     5:
     0.359,0.715,0.186,0.118,0.000:
0000
0000
0000
0000
,
0000
0000
0000
0000
,
0000
0000
0000
0000
,
0000
0000
0000
0000
,
0000
0000
0000
0000
,
0000
0000
0000
0000
,
0000
0000
0000
0000
,
0000
0000
0000
0000
,
1000
0000
0100
0000
,
1000
0000
0100
0000
,
0010
0000
0001
0000
,
0010
0000
0001
0000
,
1000
0000
0010
0000
,
1000
0000
0010
0000
,
0200
0000
0000
0001
,
0301
0000
0010
0000
,
0100
0000
1000
0000
,
0010
0000
0100
0001
,
0100
0000
0010
0000
,
1000
0000
0001
0010
,
0001
0000
0100
0000
,
1000
0000
0100
0010
,
0100
0000
0001
0000
,
1000
0000
1000
0000
,
1000
0000
0100
0000
,
0010
0000
0001
0100
,
0001
0000
0100
0000
,
0010
0000
1000
0100
,
1000
0000
0010
0000
,
0100
0000
0001
0010
,
0002
0000
0000
0000
,
1003
0000
1000
0000
,
2000
0000
0000
0000
0001
0000
0000
0001
,
3000
0100
0010
1000
,
0002
0000
0000
0000
1000
0000
0000
1000
,
0003
1000
0100
0010
,
0011
0100
1010
0001
,
0110
1000
0011
0100
,
1010
0100
1001
0010
,
1100
0001
0110
1000
,
1001
0000
1000
0000
,
0100
0000
0010
0000
,
0001
0000
0000
0000
,
0100
0000
0000
0000
,
0010
0000
1000
0000
,
0001
0000
0010
0000
,
0100
0000
0100
0000
,
0100
0000
0100
0000
,
0100
0000
1000
0000
,
0010
0000
0100
0001
,
0100
0000
0010
1000
,
0010
0000
0001
1000
,
0001
0000
1000
0000
,
0100
0000
0010
0000
,
0001
0000
0000
0000
,
0100
0000
0000
0000
,
0010
0000
1000
0000
,
0010
0000
0100
0000
,
0001
0000
0010
0000
,
0100
0000
1000
0000
,
0001
0000
0100
0000
,
0010
0000
1000
0000
,
0001
0000
0001
0000
,
1000
0000
1000
0000
,
0001
0000
1000
0000
,
0001
0000
1000
0000
,
0001
0000
0010
0000
,
0100
0000
1000
0000
,
0001
0000
0100
0000
,
0010
0000
1000
0000
,
0001
0010
0100
1000
,
0002
0000
0000
0000
,
2003
0000
0001
0000
,
3001
0000
0100
0010
,
0010
0000
0100
0000
,
0001
0000
1000
0001
,
1001
1000
1000
1000
,
1010
0010
0010
0010
,
0110
0100
0100
0100
,
0101
0001
0001
0001
,
1001
1000
1000
1000
,
1100
0100
0100
0100
,
0110
0010
0010
0010
,
0011
0001
0001
0001
,
2002
0000
0000
3003
,
1001
0000
1000
0000
,
0010
0000
0100
0001
,
0100
0000
0010
0000
,
1000
0000
0001
0010
,
0001
0000
0100
0000
,
1000
0000
0010
0100
,
0100
0000
0001
0000
,
0020
0000
0000
0000
,
0130
0000
1000
0000
,
0010
0000
0100
0001
,
0100
0000
0010
0000
,
1000
0000
0001
0010
,
0100
0000
1000
0000
,
0010
0000
1000
0100
,
0020
0000
0000
0000
,
0031
0000
0001
0000
,
1001
0000
1000
0000
,
0001
0000
0100
0010
,
1000
0000
0010
0000
,
0100
0000
0001
0010
,
0100
0000
1000
0000
,
0010
0000
0100
0001
,
0100
0000
0010
0000
,
2000
0000
0000
0000
,
3001
0000
0010
0000
,
0100
0000
1000
0100
,
0010
0000
0001
0000
,
0100
0000
0010
1000
,
0010
0000
0100
0000
,
0001
0000
0010
0100
,
2000
0000
0000
0001
,
3001
0000
0110
0000
,
2002
0000
0000
0000
,
0000
0000
0000
0000
,
0000
0000
0000
0000
,
0000
0000
0000
0000
,
3003
0000
0000
0000
;

//---------------dance-single - ----------------
#NOTES:
     dance-single:
     :
     Beginner:
     3:
     0.199,0.346,0.051,0.000,0.000: // measure 1
0000
0000
0000
0000
,  // measure 2
0000
0000
0000
0000
,  // measure 3
0000
0000
0000
0000
,  // measure 4
0000
0000
0000
0000
,  // measure 5
0000
0000
0000
0000
,  // measure 6
0000
0000
0000
0000
,  // measure 7
0000
0000
0000
0000
,  // measure 8
0000
0000
0000
0000
,  // measure 9
1000
0000
0000
0000
,  // measure 10
1000
0000
0000
0000
,  // measure 11
0100
0000
0000
0000
,  // measure 12
0100
0000
0000
0000
,  // measure 13
0010
0000
0000
0000
,  // measure 14
0010
0000
0000
0000
,  // measure 15
0001
0000
0000
0000
,  // measure 16
0000
0000
0000
0000
,  // measure 17
0001
0000
0000
0000
,  // measure 18
0001
0000
0000
0000
,  // measure 19
0100
0000
0000
0000
,  // measure 20
0100
0000
0000
0000
,  // measure 21
0010
0000
0000
0000
,  // measure 22
0010
0000
0000
0000
,  // measure 23
1000
0000
0000
0000
,  // measure 24
1000
0000
0000
0000
,  // measure 25
1000
0000
0000
0000
,  // measure 26
1000
0000
0000
0000
,  // measure 27
0100
0000
0000
0000
,  // measure 28
0100
0000
0000
0000
,  // measure 29
0010
0000
0000
0000
,  // measure 30
0010
0000
0000
0000
,  // measure 31
0001
0000
0000
0000
,  // measure 32
0000
0000
0000
0000
,  // measure 33
1001
0000
0000
0000
,  // measure 34
1000
0000
0000
0000
,  // measure 35
1001
0000
0000
0000
,  // measure 36
0001
0000
0000
0000
,  // measure 37
1000
0000
1000
0000
,  // measure 38
1000
0000
0000
0000
,  // measure 39
0001
0000
0001
0000
,  // measure 40
0001
0000
0000
1000
,  // measure 41
1000
0000
0000
0000
,  // measure 42
0100
0000
0000
0000
,  // measure 43
0010
0000
0000
0000
,  // measure 44
0001
0000
0000
0000
,  // measure 45
0100
0000
0000
0000
,  // measure 46
0010
0000
0000
0000
,  // measure 47
1000
0000
1000
0000
,  // measure 48
1000
0000
1000
0000
,  // measure 49
1000
0000
0000
0000
,  // measure 50
0100
0000
0100
0000
,  // measure 51
0100
0000
0100
0000
,  // measure 52
0100
0000
0100
0000
,  // measure 53
0100
0000
0000
0000
,  // measure 54
0010
0000
0000
0000
,  // measure 55
0001
0000
0001
0000
,  // measure 56
0001
0000
0001
0000
,  // measure 57
0001
0000
0000
0000
,  // measure 58
0100
0000
0000
0000
,  // measure 59
0010
0000
0010
0000
,  // measure 60
0010
0000
0010
0000
,  // measure 61
0010
0000
0000
0000
,  // measure 62
1000
0000
0000
0000
,  // measure 63
0001
0000
0001
0000
,  // measure 64
0001
0000
0001
0000
,  // measure 65
0001
0001
0001
0000
,  // measure 66
1000
1000
1000
0000
,  // measure 67
0010
0000
0010
0000
,  // measure 68
0010
0000
0010
0000
,  // measure 69
0010
0000
0000
0000
,  // measure 70
0100
0000
0000
0000
,  // measure 71
0001
0000
0001
0000
,  // measure 72
0001
0000
0000
0000
,  // measure 73
1001
0000
1000
0000
,  // measure 74
1000
0000
1000
1000
,  // measure 75
1000
0000
0001
0000
,  // measure 76
0001
0000
0001
0001
,  // measure 77
0001
0000
0001
0000
,  // measure 78
0100
0000
0100
0000
,  // measure 79
0010
0000
0010
0000
,  // measure 80
1000
0000
1000
1000
,  // measure 81
1000
0000
0010
0000
,  // measure 82
0100
0000
0001
0000
,  // measure 83
0010
0000
0100
0000
,  // measure 84
1000
0000
0001
0001
,  // measure 85
0001
0000
0000
0000
,  // measure 86
1000
0000
0000
0000
,  // measure 87
1000
0000
0000
0000
,  // measure 88
0100
0000
0000
0000
,  // measure 89
0100
0000
0000
0000
,  // measure 90
0010
0000
0000
0000
,  // measure 91
0010
0000
0000
0000
,  // measure 92
0001
0000
0000
0000
,  // measure 93
0001
0000
0000
0000
,  // measure 94
0001
0000
0000
0000
,  // measure 95
0001
0000
0000
0000
,  // measure 96
0100
0000
0000
0000
,  // measure 97
0100
0000
0000
0000
,  // measure 98
0010
0000
0000
0000
,  // measure 99
0010
0000
0000
0000
,  // measure 100
1000
0000
0000
0000
,  // measure 101
1000
0000
0000
0000
,  // measure 102
1000
0000
1000
0000
,  // measure 103
0100
0000
0100
0000
,  // measure 104
0010
0000
0010
0000
,  // measure 105
0001
0000
0001
0000
,  // measure 106
0100
0000
0100
0000
,  // measure 107
0010
0000
0010
0000
,  // measure 108
1000
0000
1000
0000
,  // measure 109
0001
0000
0000
0000
,  // measure 110
0001
0000
0100
0000
,  // measure 111
0001
0000
0100
0000
,  // measure 112
0010
0000
1000
0000
,  // measure 113
0010
0000
1000
0000
,  // measure 114
0001
0000
0010
0000
,  // measure 115
0100
0000
1000
0000
,  // measure 116
0001
0000
0000
0000
,  // measure 117
1001
0000
1001
0000
,  // measure 118
1001
0000
0000
0000
;
