#TITLE:Taboo Tears You up;
#SUBTITLE:;
#ARTIST:IOSYS feat. REDALICE;
#TITLETRANSLIT:;
#SUBTITLETRANSLIT:;
#ARTISTTRANSLIT:;
#GENRE:;
#CREDIT:;
#BANNER:Taboo Tears You Up.png;
#BACKGROUND:Taboo Tears You Up - bg.png;
#LYRICSPATH:taboo.lrc;
#CDTITLE:cdtitlegpop.png;
#MUSIC:Taboo Tears You Up.ogg;
#OFFSET:-0.040;
#SAMPLESTART:38.340;
#SAMPLELENGTH:15.000;
#SELECTABLE:YES;
#BPMS:0.000=180.000,276.000=90.000,280.000=180.000;
#STOPS:379.000=0.160
,386.500=0.160
,394.000=0.160
;
#BGCHANGES:0.000=Taboo Tears You Up.avi=1.000=0=0=1=====,
99999=-nosongbg-=1.000=0=0=0 // don't automatically add -songbackground-
;
#KEYSOUNDS:;

//---------------dance-single - ----------------
#NOTES:
     dance-single:
     :
     Challenge:
     12:
     1.000,1.000,1.000,0.320,0.422:
0000
0000
0000
0000
,
0000
0000
0000
0000
,
0000
0000
0000
0000
,
0000
0000
0000
0000
,
1100
0100
0010
0011
0001
1000
1010
0010
,
0100
0101
0001
1000
0001
0001
0002
1000
,
1003
0000
0010
0000
0100
0000
0001
0000
0100
0000
0001
0100
0010
1000
0001
0100
,
0001
1000
0010
0100
0001
2000
0001
3001
,
1001
1000
0010
0110
0100
0001
1001
1000
,
0100
0110
0010
0001
1000
1000
2000
0010
,
3010
0000
0100
0000
0001
0000
1001
0000
1000
0000
0100
0000
1000
0100
0010
0001
,
2000
0000
0100
0000
3100
0000
0100
0010
0001
0000
1000
0000
0001
0000
0000
0000
,
2002
0000
0000
0000
,
0000
0000
0000
3003
,
1001
0000
0000
0000
1000
0000
0010
0000
0100
0000
0001
0100
0001
0000
0010
0000
,
0100
1000
0010
0100
0002
0000
1003
0000
,
1001
1100
0110
0011
,
1001
0000
0001
0100
0010
0000
0110
0000
,
1010
0000
0010
0000
1000
0000
0100
0000
0010
0000
0001
0100
0001
0000
1000
0000
,
1001
0000
0000
0000
0000
0000
1000
0100
,
0010
0000
0001
0000
0100
0000
0010
0000
1000
0000
0010
0000
1000
0000
0001
0010
,
0100
0000
1000
0000
0010
0000
0100
0000
0001
0000
0020
0000
0000
0000
0130
1000
,
0002
0000
1000
0000
1003
0000
0001
0010
0100
0000
1000
0100
0010
0000
0001
0000
,
0100
0010
1000
0100
1100
0000
0011
0001
,
1001
0000
0001
0000
0100
0000
1000
0000
0100
0000
0001
0000
0010
0000
0100
1000
,
0001
0000
0100
0000
0010
0000
0001
0000
0010
0000
2000
0000
0100
0000
3100
0010
,
0001
0010
0100
1000
0010
0100
0010
1000
0100
0010
0001
0100
0010
1000
0001
0010
,
0001
1000
0001
1000
0001
1000
0001
1000
0001
1000
0001
1000
0001
1000
0001
2000
,
0002
0000
0000
0000
0000
3003
0001
1000
,
1100
0000
0100
0000
0110
0000
0010
0000
0011
0000
0001
0000
1001
0000
1000
0100
,
0010
0000
0001
0000
1001
0000
1000
0000
1010
0000
0020
0000
0100
0000
0130
0001
,
1000
0000
0100
0000
0110
0000
0010
0001
1000
0000
0001
0100
0010
0000
1000
0000
,
1100
0100
0110
0010
0012
0010
0023
0100
,
0130
0000
1000
0000
1001
0000
0001
0000
0101
0000
0100
0000
0110
0000
0010
0100
,
0001
0000
1000
0000
1100
0000
0100
0000
0110
0000
0020
0000
0001
0000
0031
0100
,
0010
0000
1000
0000
1001
0000
0001
0010
0100
0000
1000
0100
0010
0000
0001
0000
,
1001
0000
1000
0000
1001
0000
0001
0000
2001
0000
0001
0000
3001
0010
0100
1000
,
0001
0000
1000
0000
1010
0000
0010
0000
0110
0000
0100
0000
0101
0000
0001
0100
,
0001
0000
0100
0000
0110
0000
0010
0000
1010
0000
2000
0000
0001
0000
3001
0010
,
0100
0000
1000
0000
1001
0000
0001
0100
0010
0000
1000
0010
0100
0000
0001
0000
,
1001
1000
1010
0010
0210
0010
0320
1000
,
1030
0000
0001
0000
1001
0000
1000
0000
1100
0000
0100
0000
0110
0000
0010
0001
,
1000
0000
0010
0000
0110
0000
0100
0000
0101
0000
0002
0000
1000
0000
1003
0100
,
2000
0000
0100
0000
3100
0000
0010
0001
0100
0000
0010
1000
0001
0000
1000
0000
,
2002
0000
0000
0000
3003
0000
1000
0000
0001
0000
1000
0000
0001
1000
0001
1000
,
0001
0001
0100
0110
0010
1000
1001
0001
,
0010
0110
0100
1000
0010
0010
1020
0100
,
0130
0000
0001
0000
0010
0000
0100
0000
1000
0000
0001
0010
0100
1000
0010
0100
,
0001
1000
0100
0010
0010
0020
0001
0031
,
0011
0001
1000
1010
0010
0100
0101
0001
,
1000
1100
0100
0010
0001
0001
0002
0100
,
0103
0000
0010
0000
1000
0000
0100
0000
0010
0000
0001
0000
1000
0100
0010
0002
,
2000
0000
0000
0010
0010
0000
3003
0000
,
1100
0000
0000
0110
0000
0000
0011
0000
0000
0000
1000
0000
0010
0000
0100
0000
,
0101
0000
0000
1001
0000
0000
1100
0000
0000
0000
1000
0000
0010
0000
0100
0000
,
0101
0000
0000
0110
0000
0000
1010
0000
0000
0000
1000
0000
0100
0000
0010
0000
,
0110
0000
0000
0011
0000
0000
1001
0000
0000
0000
0001
0000
0100
0000
0010
0000
,
1010
0000
0000
1001
0000
0000
0101
0000
0000
0000
0001
0000
0010
0000
0100
0000
,
1100
0000
0000
0110
0000
0000
0011
0000
0000
0000
1000
0000
0010
0000
0100
0000
,
0110
0000
0000
1010
0000
0000
0101
0000
0000
0000
0100
0000
0010
0000
1000
0000
,
1001
0000
0000
0101
0000
0000
0110
0000
0000
0000
0010
0000
1000
0000
0001
0000
,
1001
0000
0000
1100
0000
0000
0110
0000
0000
0000
0001
0000
0100
0000
0010
0000
,
0110
0000
0000
1010
0000
0000
1001
0000
0000
0000
0001
0000
1000
0000
0100
0000
,
1100
0000
0000
0110
0000
0000
0011
0000
0000
0000
0001
0000
0100
0000
0010
0000
,
0110
0000
0000
1010
0000
0000
1001
0000
0000
0000
1000
0000
0010
0000
0100
0000
,
0001
0001
0010
0010
0100
0100
1000
1000
,
0001
0100
1000
0100
0001
0010
1000
0010
,
0001
0100
0001
0100
0001
0100
0001
0100
0010
1000
0010
1000
0010
1000
0010
1000
,
0001
0010
0100
1000
0010
0100
0001
0100
0010
1000
0100
0010
0001
0100
0010
1000
,
0002
0000
0000
0000
0000
0000
0000
0000
0000
0000
0000
0000
0000
0000
1003
0100
,
1100
0000
1000
0000
1010
0000
0010
0000
0110
0000
0100
0000
0101
0000
0001
0010
,
0100
0000
1000
0000
1010
0000
0010
0000
0110
0000
0200
0000
0001
0000
0301
0010
,
0100
0000
1000
0000
1001
0000
0001
0010
0100
0000
1000
0010
0100
0000
0001
0000
,
1001
1000
1100
0100
0120
0001
0032
1000
,
1003
0000
0100
0000
0110
0000
0010
0000
0011
0000
0001
0000
0101
0000
0100
0010
,
1000
0000
0001
0000
0011
0000
0010
0000
0110
0000
0200
0000
1000
0000
1300
0010
,
0100
0000
0010
0000
0110
0000
0100
0001
1000
0000
0100
0010
0001
0000
1000
0000
,
1001
0000
0001
0000
1001
0000
1000
0000
2001
0000
0001
0000
3001
0100
0010
1000
,
0001
0000
1000
0000
1100
0000
0100
0000
0110
0000
0010
0000
0011
0000
0001
0100
,
0010
0000
1000
0000
1010
0000
0010
0000
0110
0000
0200
0000
0001
0000
0301
0010
,
0100
0000
1000
0000
1010
0000
0010
0100
0001
0000
0010
0100
1000
0000
0001
0000
,
0011
0010
0110
0100
1200
0010
0320
0001
,
0031
0000
1000
0000
1001
0000
0001
0000
0101
0000
0100
0000
0110
0000
0010
0100
,
0001
0000
0010
0000
0110
0000
0100
0000
1100
0000
2000
0000
0001
0000
3001
0010
,
0001
0000
0100
0000
1001
0000
1000
0100
0001
0000
0001
0100
1000
0000
0010
0000
,
2002
0000
0000
0000
3003
0000
1000
0000
0001
0000
1000
0000
0001
1000
0001
1000
,
0001
1M01
0000
110M
0000
M110
0000
0M11
,
0000
10M1
0000
0101
0110
1010
1001
0000
,
1001
1M01
0000
110M
0000
M110
0000
0M11
,
0000
10M1
0000
1100
0110
0011
1001
0000
,
1100
0000
0000
0110
0000
0000
0011
0000
0000
0000
0001
0000
0100
0000
0010
0000
,
0110
0000
0000
1001
0000
0000
1100
0000
0000
0000
0001
0000
0100
0000
0010
0000
,
1010
0000
0000
0110
0000
0000
0101
0000
0000
0000
1000
0000
0100
0000
0010
0000
,
0011
0000
0000
1001
0000
0000
1001
0000
0101
0000
1001
0000
0000
0000
0000
0000
,
1100
0000
0000
0110
0000
0000
0011
0000
0000
0000
1000
0000
1001
0000
0101
0000
,
0000
0110
0000
0000
1010
0000
0000
0000
1000
0000
0100
0000
0010
0000
0011
0000
,
0000
1001
0000
0000
1100
0000
0000
0000
1000
0000
1001
0000
0001
0000
0101
0000
,
0000
0110
0010
1000
0200
0010
0310
0001
,
1000
0000
0000
0100
0000
0000
0010
0000
0000
0001
0000
0000
1000
0000
0000
0000
0000
0000
0001
0000
1000
0000
0001
0000
1000
0000
0000
0000
0000
0000
0001
0000
0000
0000
0000
0000
0100
0000
0000
0000
0000
0000
0010
0000
0000
0000
0000
0000
,
1000
0000
0000
0010
0000
0000
0100
0000
0000
0001
0000
0000
1000
0000
0000
0004
0400
0000
0000
0000
0000
0000
0000
0000
,
0000
0000
0000
0000
0303
1001
1000
0100
,
0110
2002
0000
0010
0010
3003
0000
0000
;

//---------------dance-single - ----------------
#NOTES:
     dance-single:
     :
     Hard:
     9:
     0.750,0.703,0.371,0.160,0.207:
0000
0000
0000
0000
,
0000
0000
0000
0000
,
0000
0000
0000
0000
,
0000
0000
0000
0000
,
1000
0100
1000
0001
0010
0001
1000
0010
,
1000
0001
0100
0001
1000
1000
1000
0000
,
0001
0010
0100
1000
0100
0010
0001
0010
,
0100
1000
0010
0100
0100
0100
0000
0000
,
0001
0100
0001
1000
0100
1000
0001
0010
,
0001
1000
0010
1000
0001
0001
0001
0000
,
1000
0000
0100
0000
0010
0000
0001
0000
0010
0000
0100
0000
1000
0100
1000
0100
,
2000
0000
0000
0001
0001
0000
3001
0000
,
2002
0000
0000
0000
,
0000
0000
0000
3003
,
0001
0000
1000
0000
0010
0000
0100
0000
0001
0000
1000
0100
1000
0000
0010
0000
,
0100
0001
0100
0010
2000
0000
0000
0000
,
3001
0010
0100
1000
,
0010
0000
1000
0100
0010
0000
0001
0000
,
1000
0000
0100
0000
0010
0000
0001
0000
0100
0000
0010
1000
0010
0000
1000
0000
,
2002
0000
0000
0000
3003
0000
1000
0100
,
1000
0010
0100
0001
0010
0100
1000
0010
,
0100
0000
0001
0000
0100
0000
0010
0000
1000
0000
0100
0000
0000
0000
1000
0100
,
1000
0000
0000
0000
0001
0000
1000
0100
1000
0000
0001
0100
0001
0000
1000
0000
,
0010
0100
0001
0010
0200
0000
1000
0000
,
1300
0010
0100
0001
0100
0010
1000
0100
,
0010
0000
0001
0000
0100
0000
0010
0000
1000
0000
0001
0000
0000
0000
1000
0100
,
1000
0000
0000
0000
0010
0000
1000
0100
1000
0000
0001
0100
0001
0000
1000
0000
,
0002
0000
0000
0000
,
2000
0000
0000
0000
3003
0000
1000
0100
,
1000
0010
0100
0001
0100
0010
1000
0100
,
0010
0000
0001
0000
0010
0000
0100
0000
1000
0000
0010
0000
0000
0000
0100
0001
,
0100
0000
0000
0000
0010
0000
1000
0100
1000
0000
0001
0100
0001
0000
1000
0000
,
0010
0100
0001
0100
0101
0000
1010
0000
,
1001
1000
0010
0100
0001
0010
0100
1000
,
0010
0000
0100
0000
0001
0000
0100
0000
0010
0000
1000
0000
0000
0000
0001
0100
,
0001
0000
0000
0000
1000
0000
0001
0010
0001
0000
1000
0010
1000
0000
0001
0000
,
1000
0100
0001
0100
2000
0000
0001
0001
,
3001
0100
0010
1000
0100
0010
0001
0010
,
0100
0000
1000
0000
0010
0000
0100
0000
0001
0000
1000
0000
0000
0000
0001
1000
,
0001
0000
0000
0000
1000
0000
0001
0100
0001
0000
1000
0010
1000
0000
0001
0000
,
1000
0100
0010
0001
1001
0000
0110
0000
,
1001
1000
0010
0100
0001
0010
0100
1000
,
0010
0000
0100
0000
0001
0000
0100
0000
0010
0000
1000
0000
0000
0000
0001
0010
,
0001
0000
0000
0000
1000
0000
0010
0100
0010
0000
1000
0001
1000
0000
0001
0000
,
2002
0000
0000
3003
,
1000
0100
1000
0001
0010
0001
1000
0010
,
1000
0001
0100
0001
1000
0100
0010
0000
,
0001
0010
0100
1000
0100
0010
0001
0010
,
0100
1000
0100
1000
1000
2000
0000
0000
,
3001
1000
0001
1000
0100
1000
0100
0010
,
0100
0010
0001
0010
0001
0100
0010
0000
,
1000
0010
0100
0001
0100
0010
1000
0100
,
2000
0000
0000
0001
0002
0000
3003
0000
,
1000
0000
0000
1000
0000
0000
1000
0000
0000
0000
0010
0000
0100
0000
0001
0000
,
0100
0000
0000
0100
0000
0000
0100
0000
0000
0000
0010
0000
1000
0000
0100
0000
,
0010
0000
0000
0010
0000
0000
0010
0000
0000
0000
1000
0000
0100
0000
0010
0000
,
0001
0000
0000
0001
0000
0000
0001
0000
0000
0000
1000
0000
0010
0000
0100
0000
,
0001
0000
0000
0010
0000
0000
0100
0000
0000
0000
1000
0000
0010
0000
0100
0000
,
0010
0000
0000
1000
0000
0000
0100
0000
0000
0000
0010
0000
0001
0000
0010
0000
,
0100
0000
0000
1000
0000
0000
0100
0000
0000
0000
0010
0000
0001
0000
1000
0000
,
0001
0000
0000
0100
0000
0000
0010
0000
0000
0000
0001
0000
0100
0000
0010
0000
,
1000
0000
0000
0100
0000
0000
0010
0000
0000
0000
0001
0000
0100
0000
0010
0000
,
1000
0000
0000
0010
0000
0000
0100
0000
0000
0000
0001
0000
0100
0000
0001
0000
,
0010
0000
0000
0010
0000
0000
0010
0000
0000
0000
0100
0000
1000
0000
0010
0000
,
0100
0000
0000
0100
0000
0000
0100
0000
0000
0000
0001
0000
0100
0000
0010
0000
,
1000
0100
1000
0100
1000
0100
1000
0100
,
0010
0001
0010
0001
0010
0001
0010
0001
,
1000
0100
0001
0100
1000
0010
0001
0010
,
1000
0001
1000
0001
1000
0001
1000
0001
1000
0001
1000
0001
1000
0001
1000
0000
,
2002
0000
0000
3003
,
1000
0010
0100
0001
0100
0010
1000
0100
,
0010
0000
0001
0000
0100
0000
0010
0000
1000
0000
0010
0000
0000
0000
0100
0001
,
0100
0000
0000
0000
0010
0000
1000
0100
1000
0000
0001
0100
0001
0000
1000
0000
,
0010
0100
0001
0010
0011
0000
1100
0000
,
1001
1000
0010
0100
0001
0100
0010
1000
,
0100
0000
0010
0000
0001
0000
0100
0000
0010
0000
1000
0000
0000
0000
0001
1000
,
0001
0000
0000
0000
1000
0000
0010
0100
0010
0000
1000
0100
1000
0000
0001
0000
,
1000
1000
0001
0001
1001
0000
1000
0100
,
1000
0010
0001
0010
1000
0100
0010
0001
,
0100
0000
1000
0000
0100
0000
0010
0000
1000
0000
0100
0000
0000
0000
0001
0100
,
0001
0000
0000
0000
1000
0000
0100
0010
0100
0000
0010
0001
0010
0000
1000
0000
,
0001
0100
1000
0100
0001
0000
0110
0000
,
1001
1000
0010
0100
1000
0100
0001
0010
,
1000
0000
0010
0000
0001
0000
1000
0000
0100
0000
0010
0000
0000
0000
0001
0100
,
0001
0000
0000
0000
1000
0000
0001
0100
0001
0000
1000
0100
1000
0000
0001
0000
,
2002
0000
0000
3003
,
1000
0001
0000
0101
0000
1001
0000
1100
,
0000
0110
0000
0010
0001
1000
0001
0000
,
1000
0010
0000
0110
0000
0101
0000
1001
,
0000
1100
0000
0100
0010
0001
1000
0000
,
0001
0100
0000
0110
0000
1010
0000
1001
,
0000
0101
0000
0010
0100
1000
0001
0000
,
1000
0010
0000
0110
0000
0101
0000
1001
,
0000
1100
1000
0001
0100
0020
0000
0000
,
1030
0100
0000
0011
0000
1001
1001
1100
,
1100
0000
0010
0001
1000
0010
0000
0100
,
0001
0000
1001
0000
1100
1100
1001
1001
,
0000
0001
0100
0010
1000
0000
0001
0100
,
0000
0110
0000
1010
1010
1001
1001
0000
,
0001
0000
0100
0000
0010
0000
1000
0000
0000
0000
0001
0000
1000
0000
0001
1000
,
0001
1000
0001
1000
0001
1000
0001
0000
0000
0000
1001
0000
0000
0000
0000
0000
,
1001
2002
0000
0000
0000
3003
0000
0000
;

//---------------dance-single - ----------------
#NOTES:
     dance-single:
     :
     Medium:
     7:
     0.542,0.481,0.138,0.233,0.000:
0000
0000
0000
0000
,
0000
0000
0000
0000
,
0000
0000
0000
0000
,
0000
0000
0000
0000
,
1000
0100
1000
0000
0001
0100
0001
0000
,
1000
0010
1000
0000
0001
0010
0001
0000
,
1000
0001
1000
0000
0001
1000
0001
0000
,
0100
0010
0100
0000
0001
0200
0000
0000
,
0301
0010
0100
0000
1000
0100
0010
0000
,
0001
0100
0010
0000
1000
0010
0100
0000
,
0001
1000
0100
0000
1000
0001
0100
0000
,
1002
0000
0000
1000
1003
0000
0110
0000
,
2002
0000
0000
0000
,
0000
0000
0000
3003
,
1000
0000
0001
0100
0010
0000
1000
0000
,
0101
0110
1010
0000
,
1000
1000
0100
0100
,
0010
0000
0001
0010
0001
0000
1000
0000
,
1001
0000
1000
0100
0010
0000
0001
0000
,
1001
0000
0000
0000
0000
0000
1000
0100
,
1000
0010
0100
0001
,
1000
0000
0100
0010
0001
0002
0000
1000
,
1003
0000
0010
0100
0001
0000
1000
0000
,
0001
0010
0001
0010
0001
0000
0011
0000
,
1001
1000
0010
0100
,
0001
0000
1000
0100
0010
0200
0000
0010
,
0310
0000
0001
0000
1000
0001
1000
0001
,
2002
0000
0000
0000
,
3003
0000
0000
0000
0000
0000
1000
0001
,
1000
0010
0100
0001
,
1000
0000
0100
0010
0001
0002
0000
1000
,
1003
0000
0001
0010
0100
0000
1000
0000
,
0001
0100
0001
0100
0002
0000
1000
0000
,
1003
0010
0100
0001
,
0010
0000
0100
1000
0010
0020
0000
0100
,
0130
0000
0001
1000
0100
0000
0010
0000
,
0001
1000
0001
1000
0001
0000
0110
0000
,
1001
1000
0010
0100
,
0001
0000
0010
0100
1000
2000
0000
0100
,
3100
0000
0010
0001
0100
0000
0010
0000
,
1000
0100
1000
0100
2000
0000
0001
0000
,
3001
0100
0010
1000
,
0010
0000
0100
0001
0100
0020
0000
1000
,
1030
0000
0100
0010
0001
0000
1000
0001
,
2002
0000
0000
3003
,
1000
0100
1000
0000
0001
0100
0001
0000
,
1000
0010
1000
0000
0001
0010
0001
0000
,
1000
0100
0010
0000
0001
0010
0100
0000
,
1000
0010
0100
0000
0001
0002
0000
0000
,
1003
1000
0100
0000
0001
0001
0100
0000
,
1000
1000
0010
0000
0001
0001
0001
0000
,
1000
0100
0001
0000
0001
0100
1000
0000
,
2001
0000
0000
0001
0002
0000
3003
0000
,
1000
0010
0100
0001
,
1000
0100
0010
0100
,
1000
0010
0100
0001
,
0100
0010
1000
0100
,
0010
0010
0001
0100
,
1000
1000
0010
0100
,
0001
0001
0010
0100
,
1000
1000
0010
0001
,
0100
0100
0010
1000
,
0100
0100
0001
0100
,
0010
0010
1000
0010
,
0100
0100
0001
1000
,
0001
0100
0001
0000
0001
0100
0001
0000
,
1000
0100
1000
0000
1000
0100
1000
0000
,
0001
1000
0001
0000
1000
0001
1000
0000
,
0001
1000
0001
1000
0001
1000
0001
0000
,
2002
0000
0000
3003
,
1000
0100
0010
0001
,
0100
0000
0010
1000
0100
0200
0000
0010
,
0310
0000
0001
0100
0010
0000
1000
0000
,
0001
0100
0010
1000
0002
0000
0100
0000
,
0103
0010
1000
0100
,
0010
0000
0001
0010
0100
2000
0000
0001
,
3001
0000
0100
0010
1000
0000
0001
0000
,
1000
0100
0010
0001
1000
0000
0110
0000
,
1001
0010
0100
0001
,
0010
0000
0100
1000
0001
0200
0000
0001
,
0301
0000
0010
0100
1000
0000
0010
0000
,
1000
0100
0001
0100
2000
0000
0001
0000
,
3001
0100
0010
1000
,
0100
0000
0010
0100
1000
0002
0000
1000
,
1003
0000
0010
0100
0001
0000
1000
0001
,
2002
0000
0000
3003
,
1000
1000
0000
0010
0000
0100
0000
0001
,
0000
0010
0000
0100
1000
0100
1000
0000
,
0001
0001
0000
0100
0000
0010
0000
1000
,
0000
0010
0000
0100
0001
0001
0001
0000
,
0100
0100
0000
0010
0000
1000
0000
0010
,
0000
0100
0000
0001
0010
0001
0010
0000
,
0100
0100
0000
1000
0000
0010
0000
0100
,
0000
0001
0001
1000
1000
2000
0000
0000
,
3001
0001
0000
0100
0000
0010
0010
0100
,
0100
0000
0001
0010
0100
1000
0000
0001
,
0001
0000
0100
0000
0001
0001
1000
1000
,
0000
0100
0100
0010
0001
0000
1000
1000
,
0000
0010
0000
0100
0100
0001
0001
0000
,
1000
0100
1000
0100
0000
0010
0010
0000
,
0001
0000
1000
0000
0001
0002
0000
0000
,
1000
2000
0000
0000
0000
3003
0000
0000
;

//---------------dance-single - ----------------
#NOTES:
     dance-single:
     :
     Easy:
     4:
     0.316,0.331,0.080,0.095,0.000:
0000
0000
0000
0000
,
0000
0000
0000
0000
,
0000
0000
0000
0000
,
0000
0000
0000
0000
,
1000
0010
0100
0001
,
0100
0010
1000
0000
,
0001
0010
0100
0010
,
0001
0100
0010
0000
,
1000
0100
1000
0010
,
0100
0001
0100
0000
,
0001
0100
0010
1000
,
0002
0000
1003
0000
,
2002
0000
0000
0000
,
0000
0000
0000
3003
,
1000
0000
0100
0000
,
0010
0000
0001
0000
,
1000
0000
0010
0000
,
0100
0000
0001
0000
,
1000
0100
0010
0100
,
1000
0000
0000
1000
,
1000
0000
0100
0000
,
0010
0000
0001
0000
,
0100
0000
0010
0000
,
1000
0100
0010
0000
,
0001
0000
0010
0000
,
0100
0000
1000
0000
,
0001
0100
0010
1000
,
2002
0000
0000
0000
,
3003
0000
0000
1000
,
1001
0001
0100
0010
,
1000
0010
0100
0001
,
0010
0100
1000
0100
,
0010
0010
0010
0001
,
1000
1000
0010
0010
,
0100
0001
1000
1000
,
0100
0010
0001
0100
,
0010
0010
0010
1000
,
1001
0001
0010
0100
,
1000
0010
0100
0001
,
0001
0010
0100
1000
,
0010
0010
0010
1000
,
0100
0010
0001
0100
,
0010
1000
0010
0010
,
0100
0001
0010
0100
,
2002
0000
0000
3003
,
1000
1000
0100
0100
,
0010
0010
0001
0000
,
1000
1000
0010
0010
,
0100
0100
0001
0000
,
0001
0001
0010
0010
,
0100
0100
1000
0000
,
0001
0001
0100
0100
,
0020
0000
2030
0000
,
3001
0000
0000
0000
,
0100
0000
0000
0000
,
0010
0000
0000
0000
,
1000
0000
0000
0000
,
0100
0000
0000
0000
,
0010
0000
0000
0000
,
0001
0000
0000
0000
,
1000
0000
0000
0000
,
0001
0000
0001
0000
,
0100
0000
0100
0000
,
0010
0000
0010
0000
,
1000
0000
1000
0000
,
0001
0001
0100
0100
,
0010
0010
1000
1000
,
0001
0010
0100
1000
,
0100
0010
0001
1000
,
2002
0000
0000
3003
,
1001
1000
0010
0100
,
0001
0100
0010
1000
,
0100
0010
0001
0010
,
0100
0100
0100
1000
,
0010
0100
0001
0100
,
0010
1000
0100
0001
,
0100
1000
0010
0100
,
0001
0001
0001
1000
,
1001
0001
0100
0010
,
1000
0010
0100
0001
,
0010
0100
1000
0100
,
0010
0010
0010
0001
,
0100
0010
1000
0100
,
0001
0100
1000
0010
,
0001
0010
1000
0001
,
2002
0000
0000
3003
,
1000
0000
0010
0000
,
0100
0000
0001
0000
,
0010
0000
0100
0000
,
1000
0000
0001
0001
,
1000
0000
0010
0000
,
0100
0000
0001
0000
,
0010
0000
0100
0000
,
1000
0000
0001
0001
,
0100
0000
0000
0000
0010
0000
0010
0010
,
0000
0000
0000
1000
0000
0000
0000
0100
,
0000
0000
0000
0001
0000
0001
0001
0000
,
0000
1000
0000
0010
,
0000
0000
0100
0000
0100
0100
0000
0000
,
0000
0001
0000
0000
0000
0010
0000
0000
,
0000
1000
0000
0000
0000
0110
0000
0000
,
0000
1001
0000
0000
0000
0000
0000
0000
;

//---------------dance-single - ----------------
#NOTES:
     dance-single:
     :
     Beginner:
     2:
     0.164,0.184,0.066,0.000,0.000:
0000
0000
0000
0000
,
0000
0000
0000
0000
,
0000
0000
0000
0000
,
0000
0000
0000
0000
,
1000
0000
1000
0000
,
0100
0000
0100
0000
,
0010
0000
0010
0000
,
0001
0000
0001
0000
,
1000
0000
1000
0000
,
0010
0000
0010
0000
,
0100
0000
0100
0000
,
0110
0000
0000
0000
,
1001
0000
0000
0000
,
0000
0000
0000
0000
,
0000
0000
0000
0000
,
0000
0000
0000
0000
,
0000
0000
0000
0000
,
0000
0000
0000
0000
,
0000
0000
0000
0000
,
0000
0000
0000
0000
,
1000
0000
0000
0000
,
0100
0000
0000
0000
,
0010
0000
0000
0000
,
0001
0000
0000
0000
,
1000
0000
0000
0000
,
0010
0000
0000
0000
,
0100
0000
0000
0000
,
0001
0000
0000
0000
,
1001
0000
0000
0000
,
1000
0000
1000
0000
,
0010
0000
0010
0000
,
0100
0000
0100
0000
,
0001
0000
0001
0000
,
1000
0000
1000
0000
,
0100
0000
0100
0000
,
0010
0000
0010
0000
,
0001
0000
0001
0000
,
1000
0000
0100
0000
,
1000
0000
0100
0000
,
0010
0000
0001
0000
,
0010
0000
0001
0000
,
1000
0000
0010
0000
,
1000
0000
0010
0000
,
0100
0000
0001
0000
,
1001
0000
0000
0000
,
1000
0000
1000
0000
,
1000
0000
0001
0001
,
0001
0000
0001
0000
,
0001
0000
0001
0000
,
0100
0000
0100
0000
,
0100
0000
0010
0010
,
0010
0000
0010
0000
,
0010
0000
1000
0000
,
1001
0000
0000
0000
,
1000
0000
0000
0000
,
0100
0000
0000
0000
,
0010
0000
0000
0000
,
0001
0000
0000
0000
,
0010
0000
0000
0000
,
0100
0000
0000
0000
,
1000
0000
0000
0000
,
0001
0000
0000
0000
,
0100
0000
0000
0000
,
0010
0000
0000
0000
,
1000
0000
0000
0000
,
0001
0000
0000
0000
,
0100
0000
0000
0000
,
0001
0000
0001
0000
,
1000
0000
1000
0000
,
1001
0000
0000
0000
,
1000
0000
0010
0000
,
0100
0000
0001
0000
,
0100
0000
0010
0000
,
1000
1000
1000
0000
,
0001
0000
0010
0000
,
0100
0000
1000
0000
,
0010
0000
0100
0000
,
0001
0001
0001
0000
,
1000
0000
0100
0000
,
0010
0010
0010
0000
,
0001
0000
0100
0000
,
0001
0001
0001
0000
,
1000
0000
0010
0000
,
0100
0100
0100
0000
,
0001
0000
0010
0000
,
1001
0000
0000
0000
,
1000
0000
0000
0000
,
0100
0000
0000
0000
,
0010
0000
0000
0000
,
0001
0000
0000
0000
,
0100
0000
0000
0000
,
0010
0000
0000
0000
,
1000
0000
0000
0000
,
0001
0000
0000
0000
,
1000
0000
0000
0000
1000
0000
0000
1000
,
0000
0000
0000
0000
0000
0000
0000
0001
,
0000
0000
0000
0001
0000
0000
0001
0000
,
0000
0000
0000
0100
,
0000
0000
0100
0000
0000
0100
0000
0000
,
0000
0000
0000
0000
0000
0010
0000
0000
,
0000
0000
0000
0000
0000
0110
0000
0000
,
0000
1001
0000
0000
0000
0000
0000
0000
;
