#TITLE:Scarlet Zone;
#SUBTITLE:;
#ARTIST:Amaze;
#TITLETRANSLIT:;
#SUBTITLETRANSLIT:;
#ARTISTTRANSLIT:;
#CREDIT:;
#BANNER:Scarlet Zone.png;
#BACKGROUND:Scarlet Zone - bg.png;
#LYRICSPATH:;
#CDTITLE:cdtitlegpop.png;
#MUSIC:Scarlet Zone.ogg;
#OFFSET:1.360;
#SAMPLESTART:29.220;
#SAMPLELENGTH:12.000;
#SELECTABLE:YES;
#BPMS:0.000=165.000,27.000=329.999,28.000=165.000,34.000=329.999,36.000=165.000,244.000=82.500,246.000=165.000;
#STOPS:27.000=0.040
,27.250=0.100
,27.750=0.040
,34.000=0.100
,34.500=0.100
,35.000=0.060
,35.333=0.060
,35.667=0.060
;
#BGCHANGES:3.250=video(10).avi=1.000=0=0=1,
3.250=Scarlet Zone.avi=1.000=0=0=1,
99999=-nosongbg-=1.000=0=0=0 // don't automatically add -songbackground-
;

//---------------dance-single - ----------------
#NOTES:
     dance-single:
     :
     Challenge:
     12:
     1.000,1.000,0.516,0.127,1.000: // measure 1
0000
0000
0000
0000
,  // measure 2
0000
0000
0000
0000
,  // measure 3
0000
0000
0000
0000
,  // measure 4
0000
0000
0000
0000
,  // measure 5
100M
0100
0010
0001
1M00
0000
0001
1000
00M0
0100
0010
0000
M001
0010
0100
0000
,  // measure 6
100M
0100
1000
0100
0010
0001
0010
0001
1000
0010
1000
0010
0100
0001
0100
0001
,  // measure 7
1000
0100
0000
0010
0000
0001
0000
0100
0010
1000
0010
1000
0001
0100
0000
0001
,  // measure 8
1000
0100
1000
0100
0010
0001
0010
0001
1000
0010
1000
0010
0100
0001
0100
0001
,  // measure 9
1000
0000
0000
0100
0000
0000
1000
0000
0000
0010
0000
0000
0100
0000
0000
0000
0000
0000
0001
0000
0000
0000
0000
0000
1000
0000
0000
0000
0000
0000
0001
0000
0000
0000
0000
0000
1000
0000
0000
0000
0001
0000
0000
0000
1000
0000
0000
0000
,  // measure 10
0001
0100
0001
0100
0010
1000
0010
1000
0001
0010
0100
1000
0100
0010
0001
0100
,  // measure 11
0001
1000
0001
1000
0010
0100
0010
0100
0001
0010
0001
0010
0100
1000
0100
1000
,  // measure 12
0001
0010
0100
0010
0001
0000
0011
0000
1000
0100
0010
0100
1000
0000
1100
0000
,  // measure 13
1000
0100
0010
0001
1000
0100
0010
0001
1000
0100
0010
0001
0100
0010
1000
0100
,  // measure 14
1000
0100
1000
0100
1000
0100
1000
0100
,  // measure 15
0010
0001
0010
0001
0010
0001
0001
0001
,  // measure 16
10M0
0100
0010
0001
1000
0100
1000
0000
0M01
0010
0100
1000
0001
0000
1000
0000
,  // measure 17
00M1
1000
0100
1000
0100
0010
0001
1000
001M
0100
0001
0010
0100
1000
0001
1000
,  // measure 18
00M1
0100
0001
0100
0001
0100
0001
0100
,  // measure 19
0010
1000
0010
1000
0010
1000
1000
1000
,  // measure 20
0M01
0010
0100
1000
0001
0100
0001
0000
10M0
0100
0010
0001
1000
0000
0001
0000
,  // measure 21
1MM1
0000
0000
0000
1MM1
0000
0000
1000
0001
0100
0001
0100
0001
0100
0001
0000
,  // measure 22
1000
0100
1000
0100
0010
0000
0001
0000
1000
0100
0000
0010
0000
0001
1000
0100
,  // measure 23
1000
0000
1000
0000
0001
0000
1000
0000
1000
0000
0100
0010
0000
0001
1000
0001
,  // measure 24
0100
0010
0100
0000
0010
0000
1000
0000
0001
0000
0010
0100
1000
0001
1000
0100
,  // measure 25
1000
0100
0010
0000
0001
0000
0100
0000
0010
0000
1000
0100
1000
0100
0010
0001
,  // measure 26
1000
0000
1000
0000
0010
0000
0100
0000
0001
0000
0001
1000
0000
0100
0010
0000
,  // measure 27
0001
0100
0001
0000
1000
0000
0010
0000
0100
0000
0001
0010
0000
0100
1000
0100
,  // measure 28
1000
0001
0100
0000
0010
0000
1000
0000
0001
0000
1000
0100
0010
0001
0010
0001
,  // measure 29
2000
0001
0000
0000
0001
0000
0000
0001
0000
0001
0000
0000
0001
0001
0000
0000
,  // measure 30
3001
0000
0100
0000
0001
0000
0100
0000
0001
0010
0000
0010
0000
0000
0100
0000
,  // measure 31
1000
0000
0100
0000
1000
0000
0100
0000
1000
0010
0000
0010
0000
0000
0100
0000
,  // measure 32
0101
0000
0000
0110
0000
0000
1010
0000
1001
0000
0000
0011
0000
0000
0110
0000
,  // measure 33
1002
1000
0000
0000
1000
0000
0000
1000
0000
1000
0000
0000
1000
1000
0000
0000
,  // measure 34
1003
0000
0100
0000
1000
0000
0100
0000
1000
0100
0000
0100
0000
0000
0010
0000
,  // measure 35
0001
0000
0100
0000
0001
0000
0100
0000
0001
0100
0000
0100
0000
0000
0010
0000
,  // measure 36
1100
0000
0000
0110
0000
0000
0011
0000
1001
0000
0000
1100
0000
0000
1001
0000
,  // measure 37
1000
0100
1000
0100
1000
0000
0001
0100
0001
0100
0001
0000
1000
0001
1000
0001
,  // measure 38
2000
0000
0000
0000
0000
0000
3010
0100
0002
0000
1000
0000
0000
0000
1003
0000
,  // measure 39
0210
0000
0010
0000
0000
0000
0010
0010
0000
0000
0310
1000
0001
0000
0010
0000
,  // measure 40
0200
0000
0000
0000
0000
0000
2300
0001
0000
0000
3001
0000
0200
0000
0300
0000
,  // measure 41
1020
0000
1000
0000
0000
0000
0000
1000
1000
0000
1030
0000
0100
0000
0010
0000
,  // measure 42
1MM1
0000
1MM1
0000
1MM1
0001
1MM1
1000
,  // measure 43
11MM
0000
11MM
0000
11MM
1000
11MM
0100
,  // measure 44
M11M
0000
M11M
0010
MM11
0000
MM11
0001
,  // measure 45
10M0
0001
1000
0001
1M00
0001
1000
0001
10M0
0100
1000
0100
100M
0100
1000
0100
,  // measure 46
100M
0010
1000
0010
0100
0000
0001
0000
1000
0010
0000
0100
0000
0001
1000
0001
,  // measure 47
0100
0000
0100
0000
0010
0000
1000
0000
1000
0000
0100
0010
0000
0001
1000
0001
,  // measure 48
0100
0010
0100
0000
0010
0000
1000
0000
0001
0000
1000
0100
0010
0001
0100
0001
,  // measure 49
0100
0010
1000
0000
0001
0000
0100
0000
0010
0000
1000
0001
1000
0001
0100
0001
,  // measure 50
1000
0000
1000
0000
0010
0000
0100
0000
0001
0000
0001
0100
0000
0010
1000
0000
,  // measure 51
0001
1000
0001
0000
1000
0000
0100
0000
0010
0000
0001
0100
0000
0010
1000
0010
,  // measure 52
1000
0001
0100
0000
0010
0000
1000
0000
0001
0000
1000
0100
0010
0001
0010
0001
,  // measure 53
2000
0001
0000
0000
0001
0000
0000
0001
0000
0001
0000
0000
0001
0001
0000
0000
,  // measure 54
3001
0000
0100
0000
0001
0000
0100
0000
0001
0100
0000
0100
0000
0000
0010
0000
,  // measure 55
1000
0000
0100
0000
1000
0000
0100
0000
1000
0100
0000
0100
0000
0000
0010
0000
,  // measure 56
0011
0000
0000
0110
0000
0000
1100
0000
1001
0000
0000
0011
0000
0000
0110
0000
,  // measure 57
1002
1000
0000
0000
1000
0000
0000
1000
0000
1000
0000
0000
1000
1000
0000
0000
,  // measure 58
1003
0000
0100
0000
1000
0000
0100
0000
1000
0100
0000
0010
0000
0000
0001
0000
,  // measure 59
0001
0000
0100
0000
0001
0000
0100
0000
0001
0100
0000
0010
0000
0000
1000
0000
,  // measure 60
1100
0000
0000
0110
0000
0000
0011
0000
1001
0000
0000
1100
0000
0000
1001
0000
,  // measure 61
1000
0100
1000
0100
1000
0000
0001
0100
0001
0100
0001
0000
1000
0001
1000
0001
,  // measure 62
2000
0000
0000
0000
0000
0000
0000
0000
3001
0100
0001
0100
0010
1000
0010
1000
,  // measure 63
0001
0010
0001
0010
0100
1000
0100
1000
0001
1000
0001
1000
0010
0100
0010
0100
,  // measure 64
0001
1000
0001
1000
0010
0100
0010
0100
0001
0010
0100
1000
0001
0010
0100
1000
,  // measure 65
0001
0010
0100
1000
0001
0010
0100
1000
0001
0100
0001
0100
0010
1000
0010
1000
,  // measure 66
0001
1000
0001
1000
0001
1000
0001
1000
0001
0010
0100
1000
0001
0010
0100
1000
,  // measure 67
0001
0010
0100
1000
0001
0010
0100
1000
0001
0100
0010
1000
0001
0100
0010
1000
,  // measure 68
0001
0100
0010
1000
0001
0100
0010
1000
0001
0010
0100
1000
0100
0010
0001
0010
,  // measure 69
0100
1000
0100
0010
0001
0010
0100
1000
0001
0100
0010
1000
0100
0010
0001
0100
,  // measure 70
0010
1000
0010
0100
0001
0010
0100
1000
1MM1
0000
0000
M1M1
0000
0000
1MM1
0000
,  // measure 71
0000
0000
11MM
0000
M11M
0000
MM11
0000
1MM1
0000
0000
11MM
0000
0000
1MM1
0000
,  // measure 72
0000
M1M1
M11M
1M1M
2MM2
0000
3003
0000
;

//---------------dance-single - ----------------
#NOTES:
     dance-single:
     :
     Hard:
     8:
     0.629,0.682,0.281,0.208,0.190:
0000
0000
0000
0000
,
0000
0000
0000
0000
,
0000
0000
0000
0000
,
0000
0000
0000
0000
,
1000
0001
1000
0001
1000
0000
0001
1000
0000
0001
1000
0000
0001
1000
0001
0000
,
1000
0100
0010
0001
0100
0010
1000
0010
,
0100
0001
0100
0001
1000
0100
1000
0000
,
0001
0010
0001
0010
0100
1000
0010
0100
,
0001
0000
0000
0010
0000
0000
0100
0000
0000
1000
0000
0000
0001
0000
0000
1000
0000
0000
0001
0000
1000
0000
0001
0000
,
1000
0100
0010
0001
0010
0100
1000
0010
,
0100
0001
0100
0010
1000
0100
0010
0001
,
1000
0100
1000
0000
0001
0100
0001
0000
,
1000
0100
0010
0001
0100
0010
1000
0001
,
1000
0100
0000
0010
0000
0001
0000
0100
,
0000
0010
0000
1000
0000
0010
0010
0010
,
1000
0100
0010
0000
0001
0100
0010
0000
,
1000
0100
0010
0001
0100
0010
1000
0010
,
1000
1000
0000
0001
0000
0010
0000
0100
,
0000
1000
0000
0100
0000
0010
0010
0010
,
0001
0100
0010
0000
1000
0100
0010
0000
,
1001
0000
0000
0000
1001
0000
0000
1001
0000
0000
1000
0000
0100
0000
1000
0000
,
0001
0000
0100
0000
0010
0000
0100
0000
0001
0000
0000
0010
0000
0000
0100
0000
,
1000
0000
0010
0000
0100
0000
0001
0000
0100
0000
0000
0010
0000
0000
1000
0000
,
0100
0000
0010
0000
0001
0000
0100
0000
0010
0000
1000
0000
0001
0010
0001
0000
,
0100
0000
0010
0000
1000
0000
0001
0000
1000
0000
0000
0100
0000
0000
0010
0000
,
0010
0000
0001
0000
0100
0000
0010
0000
1000
0000
0000
1000
0000
0000
0010
0000
,
0100
0000
0001
0000
0010
0000
0100
0000
0010
0000
0000
0010
0000
0000
0001
0000
,
0001
0000
0100
0000
0010
0000
1000
0000
0010
0000
1000
0100
1000
0000
0001
0000
,
2002
0000
0000
3003
,
1000
0000
0100
0000
1000
0000
0100
0000
1000
0000
0000
1000
0000
0000
1000
0000
,
0001
0000
0100
0000
0001
0000
0100
0000
0001
0000
0000
0001
0000
0000
0001
0000
,
1000
0000
0000
0100
0000
0000
0010
0000
0001
0000
0000
0100
0000
0000
0010
0000
,
2000
0010
0001
0100
,
3001
0000
0100
0000
0001
0000
0100
0000
0001
0000
0000
0001
0000
0000
0001
0000
,
1000
0000
0100
0000
1000
0000
0100
0000
1000
0000
0000
1000
0000
0000
1000
0000
,
0001
0000
0000
0010
0000
0000
0100
0000
1000
0000
0000
0100
0000
0000
0010
0000
,
0002
0000
0000
0203
0000
0000
0320
0000
,
2030
0000
0000
0100
3200
0000
0000
0010
,
0320
0000
0000
0000
0031
0001
0100
0010
,
2000
0000
0000
3020
0000
0100
0130
0000
,
2002
0000
0000
0000
3003
1000
0100
0010
,
0011
0011
0011
0011
,
1010
1010
1010
1010
,
1001
1001
1100
1100
,
0101
0101
1001
1001
,
1000
0000
0100
0000
0010
0000
0001
0000
0100
0000
0000
0100
0000
0000
0010
0000
,
0010
0000
1000
0000
0010
0000
0100
0000
0001
0000
0000
0001
0000
0000
1000
0000
,
1000
0000
0010
0000
0100
0000
0001
0000
0010
0000
0100
1000
0100
0000
0010
0000
,
0001
0000
0100
0000
0010
0000
1000
0000
0001
0000
0000
0001
0000
0000
0100
0000
,
0100
0000
0010
0000
1000
0000
0010
0000
0100
0000
0000
0100
0000
0000
0001
0000
,
0001
0000
0010
0000
0100
0000
0010
0000
0100
0000
0000
0100
0000
0000
1000
0000
,
1000
0000
0010
0000
0100
0000
0010
0000
0100
0000
0001
1000
0001
0000
1000
0000
,
2002
0000
0000
3003
,
1000
0000
0001
0000
1000
0000
0001
0000
1000
0000
0000
1000
0000
0000
1000
0000
,
0010
0000
0100
0000
0010
0000
0100
0000
0010
0000
0000
0010
0000
0000
0010
0000
,
1000
0000
0000
0100
0000
0000
0001
0000
0100
0000
0000
1000
0000
0000
0001
0000
,
2002
0000
0000
3003
,
1000
0000
0010
0000
1000
0000
0010
0000
1000
0000
0000
1000
0000
0000
1000
0000
,
0001
0000
0010
0000
0001
0000
0010
0000
0001
0000
0000
0001
0000
0000
0001
0000
,
1000
0000
0000
0010
0000
0000
0001
0000
0010
0000
0000
1000
0000
0000
0001
0000
,
2000
0000
0000
3020
0000
0000
0130
0000
,
2002
0000
0000
3003
1000
0100
1000
0100
,
0010
0001
0010
0001
1000
0010
0100
0001
,
0010
0100
1000
0100
0010
0001
0100
0010
,
1000
0000
0001
0100
0001
0000
1000
0000
0010
0000
0100
0000
0010
0000
0100
0000
,
0001
0010
0100
1000
0001
0001
0100
0010
,
1000
0010
0100
0001
0010
0100
1000
0100
,
1000
0010
0100
0001
0010
0001
0100
0010
,
0100
0000
0010
1000
0010
0000
0001
0000
0010
0000
0100
0000
0010
0000
0100
0000
,
1000
0000
0010
0000
0100
0000
0001
0000
1001
0000
0000
0101
0000
0000
1001
0000
,
0000
0000
1000
0000
0100
0000
0010
0000
0011
0000
0000
0110
0000
0000
1100
0000
,
0000
1000
0010
0100
2002
0000
3003
0000
;

//---------------dance-single - ----------------
#NOTES:
     dance-single:
     :
     Medium:
     6:
     0.489,0.585,0.390,0.172,0.045:
0000
0000
0000
0000
,
0000
0000
0000
0000
,
0000
0000
0000
0000
,
0000
0000
0000
0000
,
0000
0000
0000
0000
,
1000
0000
0010
0100
0001
0000
0010
0000
,
0100
0000
1000
0000
0100
0010
0001
0000
,
1000
0000
0010
0100
0010
0000
1000
0000
,
0001
0000
1000
0000
0001
1000
0002
0000
,
1003
0000
0100
0010
0001
0000
0100
0000
,
0010
0000
0010
0000
0010
0000
1000
0100
,
0010
0001
1000
0001
0001
0000
0100
0000
,
0001
1000
0001
1000
0001
1000
0001
0000
,
1000
1000
0000
1000
0000
1000
0000
1000
,
0000
0001
0000
0001
0000
0001
0001
0001
,
1000
1000
0001
0001
,
0100
0000
0010
0000
1000
0100
0010
0000
,
0001
0001
0000
0001
0000
0001
0000
0001
,
0000
1000
0000
1000
0000
1000
1000
1000
,
0010
0100
0001
1000
,
0001
0000
0001
0000
1000
0100
0010
0001
,
1000
0100
1000
0000
0001
0100
0001
0000
,
1000
0000
0100
0000
0010
0001
0010
0000
,
0100
0000
1000
0000
0010
0100
0001
0000
,
1000
0100
1000
0100
1000
0000
0001
0000
,
1000
0100
1000
0000
0001
0100
0001
0000
,
1000
0000
0100
0000
0010
0001
1000
0000
,
0001
0000
0100
0000
0010
1000
0001
0000
,
2002
0000
0000
3003
,
1000
0000
0000
0000
0100
0000
0000
0000
0010
0000
0000
0010
0000
0000
0010
0000
,
0001
0000
0000
0000
0010
0000
0000
0000
0100
0000
0000
0100
0000
0000
0100
0000
,
1100
0110
0011
0110
,
2002
0000
0000
3003
,
1000
0000
0000
0000
0010
0000
0000
0000
1000
0000
0000
1000
0000
0000
1000
0000
,
0001
0000
0000
0000
0100
0000
0000
0000
0001
0000
0000
0001
0000
0000
0001
0000
,
1001
0101
0110
1010
,
1001
0000
0000
1100
0000
0000
1001
0000
,
0002
0000
0203
0000
,
0320
0000
0000
0000
1000
0000
1030
0100
,
2000
0000
0000
3020
0000
0000
0230
0000
,
0302
0000
0000
0000
0000
1003
1000
0010
,
1010
1010
1010
1010
,
1001
1001
1001
1001
,
0101
0101
0110
0110
,
1001
1001
1001
1001
,
1000
0100
1000
0000
0001
0100
0001
0000
,
1000
0000
0010
0000
0100
0001
1000
0000
,
0001
0000
0010
0000
0100
1000
0100
0000
,
0010
0001
0010
0001
0010
0000
0100
0000
,
1000
0010
0100
0000
0001
0010
0100
0000
,
1000
0000
0100
0000
0010
0001
0100
0000
,
0010
0000
0010
0000
1000
0100
0010
0000
,
2002
0000
0000
3003
,
1000
0000
0000
0000
1000
0000
0000
0000
1000
0000
0000
1000
0000
0000
1000
0000
,
0001
0000
0000
0000
0001
0000
0000
0000
0001
0000
0000
0001
0000
0000
0001
0000
,
0101
0110
1010
1001
,
2002
0000
0000
0003
,
3010
0000
0000
0000
0010
0000
0000
0000
0010
0000
0000
0010
0000
0000
0010
0000
,
0100
0000
0000
0000
0100
0000
0000
0000
0100
0000
0000
0100
0000
0000
0100
0000
,
0101
0110
1010
1001
,
1100
0000
0000
0101
0000
0000
1001
0000
,
0002
0000
0000
0000
1003
0100
0010
0000
,
0001
0100
0010
0000
1000
0000
0010
0000
,
0100
0001
1000
0000
0001
0000
0010
0000
,
0100
1000
0001
0000
1000
0100
0010
0001
,
1000
0000
0001
0000
1000
0100
0010
0000
,
0001
0100
0010
0000
1000
0000
0010
0100
,
0001
0100
0010
0000
1000
0000
0100
0010
,
0001
0100
0010
1000
0001
0100
0001
0100
,
0010
0000
1000
0000
0010
0000
1000
0000
0001
0000
0000
0001
0000
0000
0001
0000
,
0000
0000
0001
0000
0010
0000
0100
0000
1000
0000
0000
1000
0000
0000
1000
0000
,
0000
0001
1000
0001
2002
0000
3003
0000
;

//---------------dance-single - ----------------
#NOTES:
     dance-single:
     :
     Easy:
     4:
     0.312,0.390,0.109,0.082,0.000:
0000
0000
0000
0000
,
0000
0000
0000
0000
,
0000
0000
0000
0000
,
0000
0000
0000
0000
,
0000
0000
0000
0000
,
1000
0100
1000
0100
,
0010
0001
0010
0001
,
0100
0010
0100
0010
,
1000
0010
1000
0010
,
1000
0001
1000
0001
,
0010
0100
0010
0100
,
0001
0010
0100
1000
,
0001
0010
0100
1000
,
0001
0000
0001
0000
,
0100
0000
0100
0000
,
0001
0010
0001
0010
,
0100
1000
0100
1000
,
0010
0000
0010
0000
,
0100
0000
0100
0000
,
0001
0010
0100
1000
,
0001
0001
1001
1001
,
1000
0100
1000
0100
,
0010
0001
0010
0001
,
1000
0010
0100
0001
,
1000
1000
1000
1000
,
0001
0100
0001
0100
,
0010
1000
0010
1000
,
0001
0010
0100
1000
,
2002
0000
0000
3003
,
1000
0100
1000
0000
,
0001
0100
0001
0000
,
1000
0000
0100
0000
,
0010
0000
0000
0000
,
0001
0100
0001
0000
,
1000
0100
1000
0000
,
0001
0000
0100
0000
,
0010
0000
0000
0010
0000
0000
0010
0000
,
0010
0000
1000
0000
,
0002
0000
0000
1000
,
1003
0000
0100
0000
,
0020
0000
0000
0001
,
0031
0001
0001
0001
,
1000
1000
1000
1000
,
0010
0010
0100
0100
,
0001
0001
1001
1001
,
1001
1000
0100
1000
,
0001
0100
0001
0100
,
0010
1000
0100
0010
,
0001
0001
0001
0100
,
0010
1000
0010
1000
,
0001
0100
0001
0100
,
1000
0100
0010
0001
,
2002
0000
0000
3003
,
1000
0100
1000
0000
,
0001
0100
0001
0000
,
1000
0000
0010
0000
,
0100
0000
0000
0000
,
0001
0010
0001
0000
,
1000
0010
1000
0000
,
0001
0010
0100
1000
,
0001
0000
0000
0001
0000
0000
0001
0000
,
0002
0000
1003
1000
,
0100
0100
0010
0010
,
0001
0001
1000
0010
,
0100
0001
0010
0010
,
0010
0100
1000
1000
,
0010
0010
0100
0001
,
0010
0010
0100
1000
,
0010
0100
0001
0001
,
1000
0000
1000
0000
1001
0000
0000
1001
,
0000
0000
1000
0000
1001
0000
0000
1001
,
0000
1000
2002
3003
;

//---------------dance-single - ----------------
#NOTES:
     dance-single:
     :
     Beginner:
     2:
     0.159,0.291,0.036,0.000,0.000:
0000
0000
0000
0000
,
0000
0000
0000
0000
,
0000
0000
0000
0000
,
0000
0000
0000
0000
,
0000
0000
0000
0000
,
1000
0000
1000
0000
,
1000
0000
1000
0000
,
0001
0000
0001
0000
,
0001
0000
0001
0000
,
0100
0000
0100
0000
,
0100
0000
0100
0000
,
0010
0000
0010
0000
,
0010
0000
0010
0000
,
1000
0000
0000
0000
,
1000
0000
0000
0000
,
0010
0000
0010
0000
,
0100
0000
0100
0000
,
0001
0000
0000
0000
,
0001
0000
0000
0000
,
0001
0000
0001
0000
,
1000
1000
1000
0000
,
1000
0000
1000
0000
,
0010
0000
0010
0000
,
0100
0000
0100
0000
,
0001
0001
0001
0000
,
1000
0000
1000
0000
,
0100
0000
0100
0000
,
0010
0000
0010
0000
,
1001
0000
0000
0000
,
1000
0000
0000
0000
,
0001
0000
0000
0000
,
0100
0000
0100
0000
,
0100
0000
0000
0000
,
0010
0000
0000
0000
,
0100
0000
0000
0000
,
0001
0000
0001
0000
,
0001
0000
0000
0000
,
1000
0000
0000
0000
,
0000
0000
0000
0000
,
0001
0000
0000
0000
,
0000
0000
0000
0000
,
1000
1000
1000
1000
,
1000
1000
1000
1000
,
1000
1000
1000
1000
,
1000
1000
1000
1000
,
1000
0000
1000
0000
,
0001
0000
0001
0000
,
0100
0000
0100
0000
,
0010
0010
0010
0000
,
1000
0000
1000
0000
,
0001
0000
0001
0000
,
0100
0000
0100
0000
,
1001
0000
0000
0000
,
1000
0000
0000
0000
,
0001
0000
0000
0000
,
0100
0000
0100
0000
,
0100
0000
0000
0000
,
0010
0000
0000
0000
,
0100
0000
0000
0000
,
0001
0000
0001
0000
,
0001
0000
0000
0000
,
1001
0000
1000
0000
,
1000
0000
0100
0000
,
0100
0000
0010
0000
,
0010
0000
0001
0000
,
0001
0000
1000
0000
,
1000
0000
0001
0000
,
0001
0000
0100
0000
,
0100
0000
0010
0000
,
0010
0000
1000
0000
,
0000
0000
0001
0000
,
0000
0000
1001
0000
;
