#TITLE:Night Falls;
#SUBTITLE:~ Evening Star (CtC remix);
#ARTIST:danmaq;
#TITLETRANSLIT:;
#SUBTITLETRANSLIT:;
#ARTISTTRANSLIT:;
#CREDIT:;
#BANNER:Night Falls ~Evening Star~ - BN.png;
#BACKGROUND:Night Falls ~Evening Star~ - BG.png;
#LYRICSPATH:;
#CDTITLE:cdtitleDDRF4N.png;
#MUSIC:Night Falls ~ Evening Star (CtC remix).ogg;
#OFFSET:-0.090;
#SAMPLESTART:11.380;
#SAMPLELENGTH:11.920;
#SELECTABLE:YES;
#BPMS:0.000=170.000,192.000=85.000,213.000=170.000,389.000=85.000,410.000=170.000;
#STOPS:;
#BGCHANGES:;

//---------------dance-single - ----------------
#NOTES:
     dance-single:
     :
     Challenge:
     12:
     1.000,1.000,0.340,0.967,0.994:
0000
0000
0000
0000
,
0000
0000
0000
0000
,
0000
0000
0000
0000
,
0000
0000
0000
0000
,
1000
0100
0010
0001
0100
0010
1000
0010
,
0100
0001
1000
0100
0001
0100
1000
0010
,
0100
0001
0010
1000
0010
0100
1000
0001
,
1000
0100
1000
0100
1000
0100
1000
0100
0010
0001
0010
0001
0010
0001
0010
0001
,
1000
0000
0000
0000
2002
0000
0000
0000
0000
0000
3003
0000
1000
0100
0010
0001
,
1000
0000
0000
0000
2200
0000
0000
0000
0000
0000
3300
0000
1000
0010
0100
0001
,
1000
0000
0010
0000
0100
0000
0002
0000
0023
0000
0230
0000
1300
0010
0100
0001
,
1000
0100
1000
0100
0010
0001
0010
0001
1000
0100
0010
0001
1000
0010
0100
0001
,
1000
0000
0010
0000
0100
0000
0001
0000
0100
0000
0010
0000
1000
0100
0010
0001
,
1001
0000
1001
0000
1000
0000
0002
0000
0103
0010
1000
0010
0100
0001
0010
0100
,
1000
0000
0010
0000
0100
0000
0002
0000
1003
0100
1000
0100
0010
0001
0010
0001
,
2000
0000
3020
0000
0130
0001
1000
0100
0010
0001
1000
0010
0100
0001
0010
0100
,
1000
0000
0001
0000
0202
0000
0303
0000
0001
0000
0100
0000
0001
0010
0100
1000
,
0001
0000
1000
0000
2200
0000
3300
0000
1000
0000
0010
0000
1000
0100
0010
0001
,
1000
0000
0010
0000
0100
0000
0002
0000
2003
0000
3200
0000
0310
0001
0010
0001
,
0010
0100
1000
0010
0100
0001
0100
0010
1000
0100
0010
0001
1000
0100
1000
0100
,
0010
0000
0001
0000
0100
0000
0010
0000
1000
0000
0001
0000
1000
0100
0010
0001
,
1001
0000
1001
0000
1000
0000
0020
0000
1030
0100
0010
0001
0010
0100
1000
0001
,
1000
0000
0010
0000
0100
0000
0002
0000
1003
0100
1000
0100
0010
0001
0010
0001
,
2000
0000
3020
0000
1030
0100
0010
0001
1000
0010
0100
0001
1000
0001
0100
0010
,
2000
0000
0001
0000
0000
0010
3020
0000
,
0230
0302
2003
0100
,
0000
0010
3020
0000
0230
0302
0023
0000
,
0230
0000
1300
0010
0002
0000
0000
0000
0023
0000
0230
0000
0302
0000
0000
0000
,
2003
0000
3200
0000
0310
1000
0020
0000
0000
0000
0031
0100
0001
0000
1000
0100
,
0010
0002
0000
0000
2003
0000
0000
0000
0000
0000
3001
0010
0100
1000
0001
0010
,
0001
0100
0010
1000
0010
0100
0101
0001
,
1001
1000
1100
0100
0110
0010
0001
0100
,
0010
1000
1001
0001
0011
0110
1100
0100
,
1100
0000
1000
0010
0100
0000
0001
0000
1001
0000
1100
0000
0110
0000
0010
0000
,
0011
0000
1001
0000
1000
0100
0010
0000
0011
0000
0001
0100
0010
0000
1000
0010
,
0100
0001
0000
0000
1000
0100
1000
0100
0010
0001
0010
0001
1000
0100
0010
0001
,
2000
0100
3100
0010
0001
0100
0002
0013
,
0002
0103
0002
1003
0002
0100
0103
0010
,
1000
0100
2000
3100
2000
3020
0230
0001
,
0302
0000
0013
0100
2000
0000
0001
0000
3002
0000
0203
0000
0320
0000
1000
0000
,
2030
0000
3200
0000
0310
0001
2000
0000
0010
0000
3010
0100
0001
0000
1000
0100
,
0010
0001
0000
0000
1000
0000
0010
0000
0100
0000
0001
0010
0100
1000
0010
0100
,
0002
1003
0100
0010
0001
0100
0020
1030
,
0020
0130
0020
0031
0020
1000
1030
0100
,
0010
0001
0020
0100
0230
2300
3020
0100
,
0230
0000
0301
0010
2000
0000
0010
0000
3020
0000
0032
0000
0203
0000
0010
0000
,
0320
0000
2030
0000
3001
0010
0200
0000
1000
0000
1300
0010
0100
0000
0001
0010
,
0100
1000
0000
0000
1000
0100
1000
0100
0010
0001
0010
0001
1000
0100
0010
0001
,
2000
0000
0000
3020
0230
0302
0023
0000
,
0000
0000
0000
0000
0230
0000
0000
0000
2300
0000
3020
0000
0230
0000
0000
0000
0302
0000
1003
0100
2000
0000
0000
0000
3020
0000
0230
0000
0302
0000
0000
0000
,
2003
0000
3020
0000
1030
0001
2000
0000
3020
0000
1030
0100
1000
0000
0001
0010
0001
0010
0000
0000
2002
0000
0000
0000
3003
0000
1000
0001
1000
0001
1000
0001
,
2001
0000
0000
0000
0000
0000
3020
0000
0230
0000
0302
0003
2100
0000
0000
0000
,
0000
0000
0000
0000
3020
0000
0000
0000
0230
0000
0302
0000
2003
0000
3000
0000
1100
0000
1000
0100
2000
0000
0000
0000
3020
0000
0130
0000
0102
0000
0000
0000
,
1003
0000
0010
0000
1000
0001
1000
0000
1000
0000
0100
0000
1000
0000
0100
0000
0010
0000
0001
0000
0010
0000
0001
0000
1000
0000
0100
0000
0010
0000
0001
0000
,
1000
0010
0100
0001
0010
0100
1000
0100
0010
0001
1000
0010
2000
0000
0100
0000
,
3100
0010
0001
0100
0020
0130
0020
0031
,
0020
1030
0020
0100
0130
0001
1000
0010
,
2000
0000
0001
0000
3002
0000
0023
0000
0230
0000
1000
0000
1300
0000
0100
0010
,
0002
0100
0203
0320
2030
0001
3002
0023
,
0130
1000
0001
0000
0100
0000
0010
1000
0001
0000
0010
0100
1000
0100
0000
0000
,
1001
0000
1000
0000
0001
0000
1000
0100
0001
0100
1000
0001
2000
0000
0010
0000
,
3010
0100
0001
1000
1100
0100
0110
0010
,
0011
0001
1001
1000
0010
0100
0001
0010
,
0110
0000
0100
0000
1100
0000
1001
0000
0101
0000
0100
0000
0110
0000
0010
1000
,
0001
1000
1100
1100
1001
0001
0101
0110
,
0010
0100
0001
0000
1000
0000
0100
0010
0001
0000
1000
0100
0001
0100
0000
0000
,
1000
0001
1000
0001
1000
0001
1000
0001
1000
0001
1000
0001
1000
0100
1000
0100
,
1000
0100
1000
0100
0010
0001
0010
0001
0010
0001
0010
0001
1000
0010
1000
0010
,
1000
0010
1000
0010
0100
0001
0100
0001
0100
0001
0100
0001
0100
0010
0100
0010
,
0100
0010
0100
0010
1000
0001
1000
0001
1000
0001
1000
0001
1000
0100
0010
0001
,
1000
0100
0010
0001
1000
0010
0100
0001
1000
0010
0100
0001
1000
0100
0010
0001
,
0010
0100
1000
0100
0010
0100
0010
0001
0100
0010
1000
0010
0100
0001
0010
0100
,
1000
0100
0010
0100
1000
0010
0100
0001
0010
0100
1000
0001
1000
0100
0001
0100
,
1000
0100
0001
0100
1000
0100
0001
0100
1000
0100
1000
0100
0010
0001
0010
0001
,
1000
0100
0010
0001
1000
0010
0001
0010
1000
0010
0001
0010
1000
0010
0001
0010
,
1000
0010
1000
0010
0100
0001
1000
0100
0010
0001
0010
0001
1000
0100
0010
0001
,
0010
0100
1000
0100
0010
0001
0100
0010
1000
0100
0001
0100
1000
0010
0100
0001
,
0010
0100
1000
0001
0010
1000
0010
0001
0100
0010
1000
0001
0010
0100
0010
0100
,
1000
0001
1000
0001
1000
0001
1000
0001
1000
0001
1000
0001
2002
0000
0000
0000
,
0000
0000
0000
0000
,
0000
0000
0000
0000
,
0000
0000
0000
3003
;

//---------------dance-single - ----------------
#NOTES:
     dance-single:
     :
     Hard:
     9:
     0.669,0.727,0.124,0.348,0.089:
0000
0000
0000
0000
,
0000
0000
0000
0000
,
0000
0000
0000
0000
,
0000
0000
0000
0000
,
1000
0100
1000
0100
0010
0001
0010
0001
,
1000
0010
1000
0010
0100
0001
0100
0001
,
1000
0100
0010
0001
1000
0010
0100
0001
,
1000
0010
0100
0001
0100
0010
1000
0001
,
1001
0000
0202
0000
0303
0000
0001
0010
,
0100
0000
2200
0000
3300
0000
1000
0010
,
0100
0000
0001
0010
0100
1000
0010
0100
,
0001
0100
0010
1000
0001
0010
0100
1000
,
1001
0000
1000
0010
0100
0001
1000
0010
,
0100
0100
0000
0001
0010
0100
1000
0010
,
0100
0000
0001
0010
0100
1000
0010
0100
,
0001
0100
1000
0100
0001
0010
1000
0010
,
0001
0000
0202
0000
0303
0000
0001
0100
,
0010
0000
2020
0000
3030
0000
1000
0100
,
0010
0000
0001
0100
0010
1000
0010
0100
,
0001
0010
0100
1000
0001
0100
0010
1000
,
1001
0000
1000
0010
0100
0001
0010
0100
,
1000
1000
0000
0001
0100
0010
1000
0010
,
0100
0000
0001
0010
0001
0100
0010
1000
,
0001
0001
1000
0100
0010
0001
0100
0010
,
2000
0000
0000
3200
,
0320
0032
2003
0000
,
0000
0000
3020
0000
0130
0001
2000
0000
,
3001
0000
0010
0100
0020
0000
0000
0000
0031
0000
0100
0000
0002
0000
0000
0000
,
1003
0000
0010
0000
0100
0001
0100
0000
0010
0000
1000
0000
0100
0000
0010
0000
,
0001
1000
0002
0000
0000
1003
0100
0010
,
1001
0000
1000
0010
0100
0001
0020
0000
,
0230
0000
2300
0000
3001
0100
0010
1000
,
0010
0100
0002
0000
0013
0100
2000
0000
,
3010
0000
0100
0001
0100
0000
0010
0000
1000
0000
1000
0000
1000
0000
0001
0000
,
0100
0000
0100
0000
0100
0001
0100
0000
0010
0000
1000
0000
0100
0000
0010
0000
,
0001
1000
1001
0000
1000
0010
0100
0001
,
0101
0000
0001
0010
0100
1000
0020
0000
,
0230
0000
0302
0000
1003
0010
0100
0001
,
0100
0010
2000
0000
3010
0100
0002
0000
,
0013
0000
0100
1000
0200
0000
0000
0000
0310
0000
0001
0000
2000
0000
0000
0000
,
3010
0000
0100
0000
0001
1000
0001
0000
0100
0000
0010
0000
1000
0000
0100
0000
,
0010
0001
2000
0000
0000
3001
0100
0010
,
1010
0000
1000
0010
0100
0001
0020
0000
,
0230
0000
2300
0000
3001
0100
0010
1000
,
0010
0100
0002
0000
0013
0100
2000
0000
,
3010
0000
0100
0001
0200
0000
0000
0000
0310
0000
1000
0000
0002
0000
0000
0000
,
1003
0000
0100
0010
0100
0000
1000
0000
0010
0000
0100
0000
0001
0000
0010
0000
,
0100
0010
0001
1000
0001
1000
0001
1000
,
0002
0000
0000
0103
0010
1000
0020
0000
,
0000
0000
0130
0000
0001
1000
0001
0000
0010
0100
1000
0000
0001
0000
0010
0000
,
0100
1000
0010
0100
0001
0200
0000
0310
,
2000
0000
0000
3010
0100
0001
0012
0000
,
0000
0000
1003
0000
0010
0100
0010
0000
1001
0000
1000
0000
0001
0000
0101
0000
,
0100
0010
1000
0100
0010
0001
0100
0010
,
1000
0100
1000
0100
1000
0100
1000
0100
1000
0100
1000
0100
1000
0000
0010
0000
,
0100
0001
0100
0010
1000
0100
0010
0001
,
0010
0100
1000
0010
0100
0001
0100
0010
,
1000
0100
0010
0001
0010
0100
1000
0010
,
0100
0001
0010
0100
0010
0001
0100
0010
,
1000
0100
0010
0001
1000
0100
0010
0001
,
1000
0010
0100
0001
1000
0010
1010
0000
,
1000
0010
0100
0001
0010
0100
1000
0100
,
0010
0001
0100
0010
1000
0100
0010
0001
,
1000
0010
0100
0001
1000
0100
0010
0001
,
0100
0010
1000
0100
1000
0010
0100
0001
,
0010
0100
0010
0100
1000
0010
0100
0001
,
1000
0001
1000
0001
1000
0001
1000
0001
1000
0001
1000
0001
1000
0000
0100
0000
,
0010
0001
0100
0010
1000
0100
0001
0100
,
1000
0010
0100
0001
0010
0100
1000
0100
,
0010
0001
0010
1000
0010
0001
0100
0010
,
1000
0100
0010
0001
0100
0010
0001
0010
,
1000
0100
0010
0001
1000
0100
0001
0100
,
0010
1000
0010
0001
0100
0010
1000
0100
,
0010
0001
0100
1000
0100
0001
0010
1000
,
0010
0001
0010
0100
0001
0100
1000
0010
,
0100
0001
0100
1000
0100
0010
0001
0010
,
1000
0100
0010
0001
0010
0100
1000
0010
,
0100
0001
1000
0100
0001
0100
1000
0010
,
1000
0001
1000
0001
1000
0001
2002
0000
,
0000
0000
0000
0000
,
0000
0000
0000
0000
,
0000
0000
0000
3003
;

//---------------dance-single - ----------------
#NOTES:
     dance-single:
     :
     Medium:
     6:
     0.413,0.443,0.093,0.209,0.004:
0000
0000
0000
0000
,
0000
0000
0000
0000
,
0000
0000
0000
0000
,
0000
0000
0000
0000
,
1000
0000
0100
0000
0010
0001
0010
0000
,
0100
0000
1000
0000
0010
0100
0001
0000
,
0100
0000
0010
0000
1000
0100
0010
0000
,
0001
1000
0001
1000
0001
1000
0001
1000
,
0001
0200
0000
0310
,
1000
0002
0000
0013
,
0200
0000
1300
0010
,
0100
0001
0100
0000
0010
1000
0010
0000
,
1001
0000
0000
0000
1000
0000
0010
0100
,
0001
0001
0000
1000
0100
0000
0010
0000
,
0001
0000
0000
1000
1000
0000
0010
0000
,
0100
0001
0000
1000
0100
0000
0010
0000
,
0001
0200
0000
0310
,
1000
0020
0000
0130
,
0002
0000
1003
0010
,
0100
0001
0010
0000
0100
1000
0100
0000
,
1001
0000
0000
0000
0010
0000
0100
0001
,
1000
1000
0000
0001
0001
0000
0010
0000
,
0100
0000
0000
1000
1000
0000
0010
0000
,
0100
0100
0000
0001
0001
0000
1000
0000
,
0002
0000
0000
1000
,
1000
1000
2003
0000
,
0000
0010
3010
0100
,
0001
0010
0100
1000
,
0010
0100
0001
0100
,
0010
2000
0000
0001
,
3001
0010
0100
1000
,
1000
1000
1000
0010
,
0100
0000
0001
0000
0001
0001
0001
0000
,
0100
0100
0100
0000
0010
0000
1000
0000
,
0010
0100
0001
0010
,
0100
0000
1000
0100
1000
0100
1000
0100
,
1000
0010
0100
0002
,
0100
0100
0103
0010
,
1000
0200
0010
0320
,
0001
0032
1000
1003
,
0010
0100
0001
1000
,
0100
0020
0000
0001
,
0031
0100
0010
2000
,
0100
0100
3100
0010
,
0001
0200
0010
0320
,
1000
2030
0001
3001
,
0010
0100
1000
0010
,
0100
0000
0001
1000
0001
1000
0001
1000
,
0002
0000
0000
1003
1000
1000
2000
0000
,
0000
3010
0010
0000
0100
0000
0001
0000
,
0010
0000
0100
0000
1000
2000
0000
0010
,
3020
0000
0000
0130
0100
0100
0110
0000
,
0000
0010
0010
0000
1010
0000
0000
1001
,
0000
1100
0000
0000
1100
0000
0000
0000
0000
0000
1001
0000
0000
0000
0000
0000
,
0101
0101
0000
1001
,
1000
0000
0010
0000
0100
0001
0010
0000
,
0100
1000
0010
0100
,
0001
0000
0010
0100
1000
0000
0100
0010
,
0001
0000
0100
0010
1000
0000
0001
0010
,
0100
1000
0010
0100
,
0002
0000
0000
0100
0100
0000
0103
0000
,
0010
0000
1000
0000
0100
0010
0001
0000
,
0100
0010
1000
0010
,
0100
0000
0001
0010
0100
0000
1000
0010
,
0100
0000
0001
0010
0100
0000
1000
0100
,
0010
0001
0100
0010
,
2000
0000
0000
0100
0100
0000
3100
0000
,
0010
0000
0001
0000
0100
0010
1000
0000
,
0001
0010
0100
1000
,
0010
0000
0100
0001
1000
0000
0100
0010
,
0001
0000
0010
0100
1000
0000
0010
0100
,
0001
1000
0010
0100
,
0002
0000
0000
0100
0100
0000
0103
0000
,
0010
0000
1000
0000
0001
0010
0100
0000
,
1000
0010
0100
0001
,
0100
0000
0010
1000
0001
0000
0010
0100
,
1000
0000
0100
0010
0001
0000
1000
0010
,
0100
0001
0010
0100
,
1000
0001
1000
0001
1000
0001
2002
0000
,
0000
0000
0000
0000
,
0000
0000
0000
0000
,
0000
0000
0000
3003
;

//---------------dance-single - ----------------
#NOTES:
     dance-single:
     :
     Easy:
     3:
     0.281,0.379,0.108,0.132,0.004:
0000
0000
0000
0000
,
0000
0000
0000
0000
,
0000
0000
0000
0000
,
0000
0000
0000
0000
,
1000
1000
1000
1000
,
0001
0001
0001
0001
,
0100
0100
0100
0100
,
0010
0010
0010
0010
,
1000
2000
0000
0000
,
3001
0002
0000
0000
,
0103
0000
0010
0000
,
1000
0100
1000
0010
,
0100
0000
0000
0001
,
0010
0000
0100
1000
,
0001
0000
0100
0010
,
1000
1000
1000
1000
,
0001
0002
0000
0000
,
0103
0200
0000
0000
,
0310
0000
1000
0000
,
0001
0010
0100
1000
,
0001
0000
0000
1000
,
0010
0000
0100
0001
,
1000
0000
0100
0010
,
0001
0000
1000
0010
,
0200
0000
0000
0000
,
0000
0000
0302
0000
,
0000
0000
0000
0000
,
2003
0000
3200
0000
,
0320
0000
0032
0000
,
2003
0200
0000
3300
,
1100
0000
1000
0000
,
0010
0000
0100
0000
,
0001
0000
0010
0000
,
0100
0000
1000
0000
,
0010
0000
0100
0000
,
0001
0000
1000
0000
,
1001
1000
0010
0000
,
0100
0001
1000
0000
,
0100
0010
0001
0001
,
0100
0000
0010
0000
,
1000
0000
0100
0000
,
0010
0010
0000
0001
,
0001
0000
0100
0000
,
0010
1000
0001
0000
,
0010
0000
0100
1000
,
0100
0000
0010
0000
,
0001
0000
0100
0000
,
0010
1000
0000
0000
,
1002
0000
0000
2003
,
0000
0000
3010
0010
,
0100
0100
0002
0000
,
1003
0000
0000
0110
,
0000
0000
0000
0000
0011
0000
0000
1001
,
0000
1001
0000
0000
1001
0000
0000
0000
0000
0000
1001
0000
0000
0000
0000
0000
,
1001
0000
0000
1001
0000
0000
1001
0000
,
0001
0100
0010
1000
,
0010
0100
0001
0010
,
0100
1000
0001
0010
,
0100
1000
0001
0100
,
0010
1000
0001
0010
,
0100
1000
0100
0010
,
0001
1000
0010
0100
,
0001
0010
0100
1000
,
0001
0010
0100
1000
,
0001
0100
0010
1000
,
0001
0010
0100
1000
,
0001
0001
0001
1001
,
1000
0001
0010
0100
,
1000
0100
0010
0001
,
0100
0010
1000
0010
,
0100
0001
0010
0100
,
1000
0100
0010
0001
,
0100
0010
1000
0010
,
0100
0001
0010
0100
,
1000
0001
0010
0100
,
1000
0010
0100
0001
,
0100
0010
1000
0100
,
0010
0001
0001
0100
,
0010
0010
0010
2002
,
0000
0000
0000
0000
,
0000
0000
0000
0000
,
0000
0000
0000
3003
;

//---------------dance-single - ----------------
#NOTES:
     dance-single:
     :
     Beginner:
     2:
     0.138,0.183,0.085,0.000,0.000: // measure 1
0000
0000
0000
0000
,  // measure 2
0000
0000
0000
0000
,  // measure 3
0000
0000
0000
0000
,  // measure 4
0000
0000
0000
0000
,  // measure 5
1000
0000
0000
0000
,  // measure 6
1000
0000
0000
0000
,  // measure 7
0001
0000
0000
0000
,  // measure 8
0001
0000
0000
0000
,  // measure 9
1000
1000
0000
0000
,  // measure 10
0001
0001
0000
0000
,  // measure 11
0100
0000
0100
0000
,  // measure 12
0010
0000
0010
0000
,  // measure 13
1000
0000
0000
0000
,  // measure 14
0001
0000
0001
0001
,  // measure 15
0001
0000
0100
0000
,  // measure 16
0100
0000
0010
0000
,  // measure 17
1000
1000
0000
0000
,  // measure 18
0001
0001
0000
0000
,  // measure 19
0010
0000
0010
0000
,  // measure 20
0100
0000
0100
0000
,  // measure 21
1000
0000
0000
0000
,  // measure 22
0001
0000
1000
1000
,  // measure 23
1000
0000
0010
0000
,  // measure 24
0010
0000
0100
0000
,  // measure 25
0001
0000
0000
0000
,  // measure 26
0000
0000
1000
0000
,  // measure 27
0000
0000
0000
0000
,  // measure 28
0010
0000
0000
0000
,  // measure 29
0000
0000
0100
0000
,  // measure 30
0000
0001
0000
0000
,  // measure 31
1001
0000
0000
0000
,  // measure 32
0000
0000
1000
0000
,  // measure 33
0000
0000
0000
0000
,  // measure 34
0010
0000
0000
0000
,  // measure 35
0000
0000
0100
0000
,  // measure 36
0000
0001
0000
0000
,  // measure 37
1001
0000
0000
0000
,  // measure 38
0000
0000
1000
0000
,  // measure 39
0000
0000
0000
0000
,  // measure 40
0010
0000
0000
0000
,  // measure 41
0000
0000
0100
0000
,  // measure 42
0000
0001
0000
0000
,  // measure 43
1001
0000
0000
0000
,  // measure 44
0000
0000
0001
0000
,  // measure 45
0000
0000
0000
0000
,  // measure 46
0100
0000
0000
0000
,  // measure 47
0000
0000
0010
0000
,  // measure 48
0000
1000
0000
0000
,  // measure 49
1001
0000
0000
0000
,  // measure 50
0000
0000
0000
0000
,  // measure 51
0000
0000
0000
0000
,  // measure 52
1001
0000
0000
1001
,  // measure 53
0000
0000
1001
0000
,  // measure 54
0000
1001
0000
0000
,  // measure 55
1001
0000
0000
1001
,  // measure 56
0000
1000
0000
1000
,  // measure 57
0000
0001
0000
0001
,  // measure 58
0000
0001
0000
0100
,  // measure 59
0000
0100
0000
0100
,  // measure 60
0000
0010
0000
0010
,  // measure 61
0000
0010
0000
1000
,  // measure 62
0000
0100
0000
1000
,  // measure 63
0000
0100
0000
0010
,  // measure 64
0000
0001
0000
0010
,  // measure 65
0000
0001
0000
1000
,  // measure 66
0000
0010
0000
1000
,  // measure 67
1000
0000
0000
1000
,  // measure 68
0000
0100
0000
0010
,  // measure 69
0000
0001
0000
0010
,  // measure 70
0000
0100
0000
1000
,  // measure 71
0000
0010
0000
0100
,  // measure 72
0000
0001
0000
0100
,  // measure 73
0100
0000
0010
0010
,  // measure 74
0000
1000
0000
0100
,  // measure 75
0100
0100
0000
0010
,  // measure 76
0000
0001
0001
0001
,  // measure 77
0000
0100
0000
0010
,  // measure 78
0000
1000
0000
0010
,  // measure 79
0010
0000
0000
1001
;
