#TITLE:Native Faith;
#SUBTITLE:;
#ARTIST:ZUN;
#TITLETRANSLIT:;
#SUBTITLETRANSLIT:;
#ARTISTTRANSLIT:;
#CREDIT:;
#BANNER:nf-ban.jpg;
#BACKGROUND:nf-bg.jpg;
#LYRICSPATH:;
#CDTITLE:cdtitlegpop.png;
#MUSIC:Native Faith.ogg;
#OFFSET:-0.750;
#SAMPLESTART:50.505;
#SAMPLELENGTH:12.000;
#SELECTABLE:YES;
#BPMS:0.000=164.001;
#STOPS:;
#BGCHANGES:;

//---------------dance-single - ----------------
#NOTES:
     dance-single:
     :
     Challenge:
     13:
     1.000,1.000,1.000,0.505,1.000: // measure 1
0000
0000
0000
0000
,  // measure 2
0000
0000
0000
0000
0000
0000
0000
0001
,  // measure 3
10M1
0100
001M
1000
01M0
0001
01M0
1000
,  // measure 4
001M
0000
0100
0000
M001
0000
0010
0000
1M00
0000
0010
0000
M001
0100
0001
0100
,  // measure 5
M001
0010
0001
1000
0100
1000
0010
0100
0001
0010
0001
0100
0010
0100
0010
1000
,  // measure 6
0010
0100
0010
1000
0100
1000
0010
0100
0001
0010
0100
1000
0010
0100
0001
1000
,  // measure 7
0001
0100
0010
1000
0100
0010
0001
0010
0100
1000
0010
0100
0001
0010
0001
0100
,  // measure 8
0010
1000
0100
1000
0100
0010
0001
0010
0001
1000
0010
0100
0001
0010
0100
1000
,  // measure 9
0001
0010
0100
1000
0100
0010
0001
0010
0100
1000
0010
0100
0001
0010
0001
0100
,  // measure 10
0010
0000
0000
1000
0000
0000
0100
0000
0000
0010
0000
0000
0100
0000
0000
1000
0000
0000
0010
0000
0000
0100
0000
0000
0001
0000
0000
0010
0000
0000
0100
0000
0000
1000
0000
0000
0001
0000
0100
0000
0001
0000
0100
0000
0001
0000
0100
0000
,  // measure 11
0002
0000
0000
0000
0100
0000
0000
0000
0100
0000
0000
0000
1003
0000
0000
0000
1001
0000
0000
0000
1000
0000
0000
0000
0001
0000
0000
1000
0100
0000
0000
0000
,  // measure 12
1001
0000
0000
0101
0000
0000
0110
0000
1001
0000
MMMM
0000
1100
0000
0110
0000
,  // measure 13
0011
0000
0000
0000
0010
0000
0000
0000
0001
0000
0000
0000
0101
0000
0000
0000
1000
0001
0000
0000
0000
0000
1100
0000
0000
0000
0000
0000
0110
0000
0000
0000
,  // measure 14
1001
0000
0001
0000
1000
0100
0010
0001
0100
0010
1000
0001
1000
0000
1100
0000
,  // measure 15
0110
0000
0100
0000
0010
0000
0001
0100
0001
0000
0000
0101
0000
0000
0110
0000
,  // measure 16
1010
0000
0000
1001
0000
0000
1100
0000
0110
0000
0000
0011
0000
0000
1001
0000
,  // measure 17
M11M
0000
0000
0000
1MM1
0000
0000
0000
11MM
0000
0000
M11M
0000
0000
MM11
0000
,  // measure 18
0101
0000
0100
0000
0110
0000
0010
0100
0001
0100
0010
0000
0110
0000
1001
0000
,  // measure 19
1100
0000
0000
0000
1000
0000
0000
0000
0010
0000
0000
0000
0110
0000
0000
0000
0101
0000
0000
0000
0001
0000
0000
0000
1000
0000
0000
1000
0100
0000
0000
0000
,  // measure 20
0110
0000
0000
0011
0000
0000
0110
0000
1001
0000
MMMM
0000
1010
0000
0110
0000
,  // measure 21
0101
0000
0000
0000
0001
0000
0000
0000
1000
0000
0000
0000
0101
0000
0000
0000
0010
0100
0000
0000
0000
0000
1010
0000
0000
0000
0000
0000
1001
0000
0000
0000
,  // measure 22
1001
0000
1000
0000
0001
0100
0010
1000
0100
0010
0001
0100
0101
0000
0110
0000
,  // measure 23
1010
0000
1000
0000
0001
0000
0100
0010
1000
0000
0000
1100
0000
0000
0110
0000
,  // measure 24
0011
0000
0000
0101
0000
0000
0110
0000
1010
0000
0000
1001
0000
0000
1100
0000
,  // measure 25
M11M
0000
0000
0000
1MM1
0000
0000
0000
11MM
0000
0000
M11M
0000
0000
MM11
0000
,  // measure 26
0001
0010
0100
1000
0100
0010
0001
0010
0100
1000
0100
0010
0001
0010
0100
1000
,  // measure 27
0001
0100
0001
0100
0010
0100
0010
1000
0100
0010
0100
1000
0010
1000
0001
0100
,  // measure 28
0010
1000
0010
0100
0001
0100
0010
1000
0100
0010
0100
1000
0001
1000
0010
0100
,  // measure 29
0001
0100
0001
0010
0100
0010
0100
1000
0001
0100
0001
0100
0010
0100
0001
0010
,  // measure 30
0100
1000
0100
0010
0001
0010
0100
1000
0010
0100
0010
1000
0100
1000
0010
0100
,  // measure 31
0001
0100
0010
1000
0010
0100
0001
0010
0100
1000
0100
0010
0001
0100
0010
1000
,  // measure 32
0100
1000
0010
0100
0001
0010
0001
0010
0100
1000
0100
1000
0010
0100
0001
0010
,  // measure 33
0001
0100
0010
1000
0100
0010
0100
1000
0010
0100
0001
0010
0100
1000
0100
0010
,  // measure 34
0001
0000
0000
0100
0000
0000
0010
0000
0000
1000
0000
0000
0100
0000
0000
0010
0000
0000
0001
0000
0000
0100
0000
0000
0010
0000
0000
0100
0000
0000
0001
0000
0000
0010
0000
0000
0100
0000
1000
0000
0100
0000
1000
0000
0100
0000
1000
0000
,  // measure 35
0200
0000
0000
0000
0010
0000
0000
0000
0310
0000
0000
0000
0011
0000
0000
0000
2001
0000
0000
0000
0100
0000
0000
0000
3100
0000
0000
0100
0010
0000
0000
0000
,  // measure 36
0011
0000
0000
1001
0000
0000
1100
0000
1001
0000
MMMM
0000
0101
0000
0110
0000
,  // measure 37
2010
0000
0000
0000
0100
0000
0000
0000
3100
0000
0000
0000
0110
0000
0000
0000
0010
0001
0000
0000
0000
0000
1001
0000
0000
0000
0000
0000
1100
0000
0000
0000
,  // measure 38
1002
0000
1000
0000
1003
0100
0010
0001
0010
0100
1000
0010
1000
0000
1001
0000
,  // measure 39
0102
0000
0100
0000
0103
0000
0100
0010
1000
0000
0000
1100
0000
0000
0110
0000
,  // measure 40
0011
0000
0000
1001
0000
0000
1010
0000
0110
0000
0000
0101
0000
0000
1001
0000
,  // measure 41
11MM
0000
0000
0000
MM11
0000
0000
0000
11MM
0000
0000
M11M
0000
0000
MM11
0000
,  // measure 42
0002
0000
1000
0000
2003
0000
3001
0100
0010
1000
0010
0000
0100
0000
0110
0000
,  // measure 43
2001
0000
0000
0000
0001
0000
0000
0000
3001
0000
0000
0000
0101
0000
0000
0000
0120
0000
0000
0000
1000
0000
0000
0000
1030
0000
0000
1000
0001
0000
0000
0000
,  // measure 44
0101
0000
0000
0110
0000
0000
1010
0000
1001
0000
MMMM
0000
0101
0000
0110
0000
,  // measure 45
1010
0000
0000
0000
1000
0000
0000
0000
0001
0000
0000
0000
0011
0000
0000
0000
0010
0100
0000
0000
0000
0000
1100
0000
0000
0000
0000
0000
0110
0000
0000
0000
,  // measure 46
2001
0000
0001
0000
3001
0100
0010
1000
0100
0010
0001
0100
0001
0000
0110
0000
,  // measure 47
2010
0000
0100
0000
3100
0000
0100
0010
0001
0000
0000
1001
0000
0000
1100
0000
,  // measure 48
0110
0000
0000
0011
0000
0000
1001
0000
0101
0000
0000
0110
0000
0000
1010
0000
,  // measure 49
M11M
0000
0000
0000
1MM1
0000
0000
0000
11MM
0000
0000
M11M
0000
0000
MM11
0000
,  // measure 50
2MM2
0000
0000
0000
0000
0000
0000
3003
,  // measure 51
210M
0000
0M00
0010
000M
0000
3M01
0000
10M2
0000
M000
0000
01M0
0000
M003
0000
,  // measure 52
M201
0000
00M0
0001
M000
0000
031M
0000
M120
0000
000M
0100
M000
0000
103M
0000
,  // measure 53
12M0
0000
M000
0001
00M0
0000
130M
0000
20M1
0000
000M
0100
00M0
0000
3M10
0000
,  // measure 54
2002
0000
0000
0000
0003
0000
010M
0000
0000
3100
0010
0001
0100
0010
1000
0010
,  // measure 55
0100
0001
0010
0100
1000
0010
0100
0001
2000
0000
0000
0000
3001
0100
0010
1000
,  // measure 56
0002
0000
0000
0100
0000
0000
1003
0000
0001
0100
0010
1000
0100
0010
0001
0000
,  // measure 57
1000
0100
0010
0001
0100
0010
0100
0001
0010
0100
1000
0100
1000
0010
0100
0001
,  // measure 58
1000
0100
0010
0001
0010
0100
1000
0100
1000
0010
0100
0001
1000
0100
0010
0002
,  // measure 59
0200
0000
0000
0010
0000
0000
1000
0000
1010
0000
0000
0000
0303
0000
0000
0000
,  // measure 60
2200
0000
0000
0001
0000
0000
0310
0000
0002
0000
0000
0010
0000
0000
3010
0000
,  // measure 61
0200
0000
0000
0010
0000
0000
1003
0000
0020
0000
0000
0001
0000
0000
1000
0000
,  // measure 62
1001
0000
0000
0000
0330
0000
1002
0000
0000
1003
0100
1000
0100
1000
0100
1000
,  // measure 63
0001
0100
0010
1000
0010
0100
0001
1000
0002
0000
0000
0000
0103
0010
1000
0001
,  // measure 64
2000
0000
0000
0010
0000
0000
3100
0000
1000
0010
0100
0001
0010
0100
1000
0000
,  // measure 65
0001
0100
0010
1000
0010
0100
0001
0010
0100
0010
0001
0100
0010
1000
0010
0100
,  // measure 66
0001
0010
0100
1000
0100
0010
0001
0010
0001
0100
1000
0100
0001
0100
1000
0100
,  // measure 67
0001
0100
0010
1000
0100
0010
0001
0100
0010
0100
0001
0010
0100
1000
0100
0010
,  // measure 68
0001
0100
0010
1000
0010
0100
0001
0010
0100
0010
0100
1000
0010
0100
0001
0010
,  // measure 69
0001
0010
0100
1000
0100
1000
0010
0100
0001
0010
0100
0010
0001
0100
0010
1000
,  // measure 70
0100
0010
0001
1000
0100
0010
0001
1000
0010
0100
0001
1000
0010
0100
0001
1000
,  // measure 71
0010
1000
0100
0010
0001
1000
0100
0010
0001
1000
0010
0100
0001
1000
0010
0100
,  // measure 72
0001
0010
0100
1000
0100
0010
0001
0010
0100
1000
0100
0010
0001
0010
0100
1000
,  // measure 73
0100
0010
0001
0100
0010
1000
0010
0100
0001
0010
0100
1000
0100
0010
0001
0100
,  // measure 74
0001
0100
0010
1000
0100
1000
0010
0100
0001
0010
0100
1000
0001
0100
0001
0100
,  // measure 75
0001
0000
0000
0000
0MMM
0000
0000
0000
0000
0001
0000
0000
0100
0000
0000
0010
0000
0000
1000
0000
0000
0100
0000
0000
1000
0000
0000
0000
MMM0
0000
0000
0000
0000
1000
0000
0000
0010
0000
0000
0100
0000
0000
0001
0000
0000
0010
0000
0000
,  // measure 76
0001
0000
0000
0000
M0MM
0000
0000
0000
0000
0001
0000
0000
1000
0000
0000
0010
0000
0000
0100
0000
0000
0001
0000
0000
1000
0000
0000
0000
M0MM
0000
0000
0000
0000
1000
0000
0000
0010
0000
0000
0100
0000
0000
0001
0000
0000
0010
0000
0000
,  // measure 77
0001
1000
0001
0100
0010
1000
0100
0010
0100
1000
0010
0100
0001
0010
0100
1000
,  // measure 78
0001
0010
0100
1000
0100
0010
0001
0010
0100
0010
0001
0100
0010
1000
0010
0100
,  // measure 79
0010
0000
0000
0000
MMM0
0000
0000
0000
0000
0010
0000
0000
1000
0000
0000
0100
0000
0000
0010
0000
0000
0001
0000
0000
1000
0000
0000
0000
M0MM
0000
0000
0000
0000
1000
0000
0000
0010
0000
0000
0100
0000
0000
0001
0000
0000
0010
0000
0000
,  // measure 80
0001
0000
0000
0000
0MMM
0000
0000
0000
0000
0001
0000
0000
0100
0000
0000
0010
0000
0000
1000
0000
0000
0100
0000
0000
1000
0000
0000
0000
MMM0
0000
0000
0000
0000
1000
0000
0000
0010
0000
0000
0100
0000
0000
0010
0000
0000
1000
0000
0000
,  // measure 81
0010
0000
0000
0000
MMM0
0000
0000
0000
0000
1000
0000
0000
0010
0000
0000
0100
0000
0000
0001
0000
0000
0010
0000
0000
0100
0000
0000
1000
0000
0000
0100
0000
0000
0010
0000
0000
0001
0000
0000
0100
0000
0000
0010
0000
0000
1000
0000
0000
,  // measure 82
0001
0010
0100
1000
0100
0010
0001
0010
0100
1000
0100
0010
0001
0010
0100
1000
,  // measure 83
0MMM
MMMM
MMMM
MMMM
MMMM
MMMM
MMMM
0000
2001
0000
0001
0000
3001
0000
1001
0000
,  // measure 84
0102
0000
0000
0000
0100
0000
0000
0000
0103
0000
0000
0001
0100
0000
0000
0000
0110
0000
0000
0000
0000
0000
1010
0000
0000
0000
0000
0000
0110
0000
0000
0000
,  // measure 85
1001
MMMM
0101
0110
1010
1000
0001
1001
,  // measure 86
1000
0000
0000
0000
0000
0000
0100
0000
0000
0000
0000
0000
0000
0000
0000
0000
0000
0000
0000
0000
0000
0000
0000
0000
0000
0000
0000
0000
0000
0000
0000
0000
0000
0000
0000
0000
0110
0000
0000
0000
0000
0000
0000
0000
0000
0000
0000
0000
0000
0000
0000
0000
0000
0000
0000
0000
0000
0000
0000
0000
0000
0000
0000
0000
0000
0000
0000
0000
0000
0000
0000
0000
0011
0000
0000
0000
0000
0000
0000
0000
0000
0000
0000
0000
0000
0000
0000
0000
0000
0000
0000
0000
0000
0000
0000
0000
1002
0000
0000
0000
0000
0000
0000
0000
0000
0000
0000
0000
0000
0000
0000
0000
0000
0000
0000
0000
0000
0000
0000
0000
1000
0000
0000
0000
0000
0000
0000
0000
0000
0000
0000
0000
0000
0000
0000
0000
0000
0000
0000
0000
0000
0000
0000
0000
1003
0000
0000
0000
0000
0000
0000
0000
0100
0000
0000
0000
0000
0000
0000
0000
1000
0000
0000
0000
0000
0000
0000
0000
0100
0000
0000
0000
0000
0000
0000
0000
0000
0000
0000
0000
0000
0000
0000
0000
0000
0000
0000
0000
0000
0000
0000
0000
,  // measure 87
1000
0000
0100
0000
1100
0000
0110
0000
0012
0000
0010
0000
0013
0000
0001
0010
,  // measure 88
0100
0000
0000
1100
0000
0000
1001
0000
0101
0000
0000
0110
0000
0000
1010
0000
,  // measure 89
1001
0000
0000
1100
0000
0000
0110
0000
M11M
0000
0000
0000
1MM1
0000
0000
0000
,  // measure 90
11MM
0000
0000
M11M
0000
0000
MM11
0000
1001
0000
1000
0000
1100
0000
0100
0010
,  // measure 91
0100
0001
0100
0000
0110
0000
0011
0000
1002
0000
0100
0000
0103
0000
0101
0000
,  // measure 92
0120
0000
0000
0000
1000
0000
0000
0000
1030
0000
0000
0010
1000
0000
0000
0000
1001
0000
0000
0000
0000
0000
1100
0000
0000
0000
0000
0000
0110
0000
0000
0000
,  // measure 93
0011
MMMM
0101
0110
1010
1000
0001
1001
,  // measure 94
1000
0000
0000
0000
0000
0000
0100
0000
0000
0000
0000
0000
0000
0000
0000
0000
0000
0000
0000
0000
0000
0000
0000
0000
0000
0000
0000
0000
0000
0000
0000
0000
0000
0000
0000
0000
0011
0000
0000
0000
0000
0000
0000
0000
0000
0000
0000
0000
0000
0000
0000
0000
0000
0000
0000
0000
0000
0000
0000
0000
0000
0000
0000
0000
0000
0000
0000
0000
0000
0000
0000
0000
0110
0000
0000
0000
0000
0000
0000
0000
0000
0000
0000
0000
0000
0000
0000
0000
0000
0000
0000
0000
0000
0000
0000
0000
2001
0000
0000
0000
0000
0000
0000
0000
0000
0000
0000
0000
0000
0000
0000
0000
0000
0000
0000
0000
0000
0000
0000
0000
0001
0000
0000
0000
0000
0000
0000
0000
0000
0000
0000
0000
0000
0000
0000
0000
0000
0000
0000
0000
0000
0000
0000
0000
3001
0000
0000
0000
0000
0000
0000
0000
0100
0000
0000
0000
0000
0000
0000
0000
0001
0000
0000
0000
0000
0000
0000
0000
0100
0000
0000
0000
0000
0000
0000
0000
0000
0000
0000
0000
0000
0000
0000
0000
0000
0000
0000
0000
0000
0000
0000
0000
,  // measure 95
0001
0000
0100
0000
0101
0000
0110
0000
2010
0000
0010
0000
3010
0000
0010
0100
,  // measure 96
0001
0000
0000
1001
0000
0000
1010
0000
0110
0000
0000
0101
0000
0000
1001
0000
,  // measure 97
1100
0000
0000
0110
0000
0000
0011
0000
M11M
0000
0000
0000
1MM1
0000
0000
0000
,  // measure 98
11MM
0000
0000
M11M
0000
0000
MM11
0000
2MM2
0000
3003
0000
1000
0000
0010
0000
,  // measure 99
1000
0000
0000
0001
0000
0000
1000
0000
0100
0000
1000
0000
0100
0000
1000
0000
0100
0000
1000
0000
0000
0010
0000
0000
2000
0000
0000
0000
0000
0000
0001
0000
0000
0000
0000
0000
3001
0000
0000
0000
0000
0000
0101
0000
0000
0000
0000
0000
,  // measure 100
0120
0000
0000
0000
1000
0000
0000
0000
1030
0000
0000
0001
1000
0000
0000
0000
0101
0000
0000
0000
0000
0000
0110
0000
0000
0000
0000
0000
1010
0000
0000
0000
,  // measure 101
1001
MMMM
1100
0110
0011
0001
1000
1100
,  // measure 102
0001
0000
0000
0000
0000
0000
1000
0000
0000
0000
0000
0000
0000
0000
0000
0000
0000
0000
0000
0000
0000
0000
0000
0000
0000
0000
0000
0000
0000
0000
0000
0000
0000
0000
0000
0000
1100
0000
0000
0000
0000
0000
0000
0000
0000
0000
0000
0000
0000
0000
0000
0000
0000
0000
0000
0000
0000
0000
0000
0000
0000
0000
0000
0000
0000
0000
0000
0000
0000
0000
0000
0000
0110
0000
0000
0000
0000
0000
0000
0000
0000
0000
0000
0000
0000
0000
0000
0000
0000
0000
0000
0000
0000
0000
0000
0000
2001
0000
0000
0000
0000
0000
0000
0000
0000
0000
0000
0000
0000
0000
0000
0000
0000
0000
0000
0000
0000
0000
0000
0000
0001
0000
0000
0000
0000
0000
0000
0000
0000
0000
0000
0000
0000
0000
0000
0000
0000
0000
0000
0000
0000
0000
0000
0000
3001
0000
0000
0000
0000
0000
0000
0000
0010
0000
0000
0000
0000
0000
0000
0000
0100
0000
0000
0000
0000
0000
0000
0000
1000
0000
0000
0000
0000
0000
0000
0000
0000
0000
0000
0000
0000
0000
0000
0000
0000
0000
0000
0000
0000
0000
0000
0000
,  // measure 103
0010
0000
0100
0000
0101
0000
0110
0000
2010
0000
0100
0000
3100
0000
0001
0010
,  // measure 104
0100
0000
0000
1100
0000
0000
0110
0000
0011
0000
0000
1001
0000
0000
1010
0000
,  // measure 105
0110
0000
0000
0101
0000
0000
1001
0000
M11M
0000
0000
0000
1MM1
0000
0000
0000
,  // measure 106
11MM
0000
0000
M11M
0000
0000
MM11
0000
1001
0000
1000
0000
1100
0000
0100
0010
,  // measure 107
0001
0010
0100
0000
1100
0000
1001
0000
0102
0000
0100
0000
1003
0000
1001
0000
,  // measure 108
1200
0000
0000
0000
1000
0000
0000
0000
0310
0000
0000
0100
0010
0000
0000
0000
0011
0000
0000
0000
0000
0000
1001
0000
0000
0000
0000
0000
1010
0000
0000
0000
,  // measure 109
0110
MMMM
0101
1001
2001
0100
3100
1100
,  // measure 110
1000
0000
0000
0000
0000
0000
0001
0000
0000
0000
0000
0000
0000
0000
0000
0000
0000
0000
0000
0000
0000
0000
0000
0000
0000
0000
0000
0000
0000
0000
0000
0000
0000
0000
0000
0000
0011
0000
0000
0000
0000
0000
0000
0000
0000
0000
0000
0000
0000
0000
0000
0000
0000
0000
0000
0000
0000
0000
0000
0000
0000
0000
0000
0000
0000
0000
0000
0000
0000
0000
0000
0000
0110
0000
0000
0000
0000
0000
0000
0000
0000
0000
0000
0000
0000
0000
0000
0000
0000
0000
0000
0000
0000
0000
0000
0000
1002
0000
0000
0000
0000
0000
0000
0000
0000
0000
0000
0000
0000
0000
0000
0000
0000
0000
0000
0000
0000
0000
0000
0000
1000
0000
0000
0000
0000
0000
0000
0000
0000
0000
0000
0000
0000
0000
0000
0000
0000
0000
0000
0000
0000
0000
0000
0000
1003
0000
0000
0000
0000
0000
0000
0000
0100
0000
0000
0000
0000
0000
0000
0000
0010
0000
0000
0000
0000
0000
0000
0000
0001
0000
0000
0000
0000
0000
0000
0000
0000
0000
0000
0000
0000
0000
0000
0000
0000
0000
0000
0000
0000
0000
0000
0000
,  // measure 111
1000
0000
0001
0000
1100
0000
0011
0000
2001
0000
0100
0000
3100
0000
0001
0100
,  // measure 112
1000
0000
0000
1100
0000
0000
0110
0000
1001
0000
0000
1100
0000
0000
0110
0000
,  // measure 113
0011
0000
0000
1001
0000
0000
1100
0000
M11M
0000
0000
0000
1MM1
0000
0000
0000
,  // measure 114
M1M1
0000
0000
M11M
0000
0000
1MM1
0000
10M0
0100
0001
0100
100M
0010
0100
0001
,  // measure 115
1M00
0000
0010
0000
0001
0000
0010
0000
100M
0000
0010
0000
0100
0000
0001
0000
1MM1
0000
0MM0
0000
MMMM
MMMM
MMMM
MMMM
0000
0000
0000
0000
0000
0000
0000
0000
;

//---------------dance-single - ----------------
#NOTES:
     dance-single:
     :
     Hard:
     9:
     1.000,1.000,0.990,0.343,0.429:
0000
0000
0000
0000
,
0000
0000
0000
0000
,
0000
0000
0000
0000
,
0000
0000
0000
0000
,
1000
0000
0000
1000
0000
0000
1000
0000
0100
0000
0000
0100
0000
0000
0100
0000
,
0010
0000
0000
0010
0000
0000
0010
0000
0001
0000
0000
0000
1001
0000
0000
0000
,
1000
0100
0010
0001
0100
0010
1000
0100
,
0001
0100
1000
0010
0100
0001
0010
0100
,
1000
0010
0001
0010
1000
0100
0010
0001
,
1001
0000
0000
0000
1100
0000
0000
0000
0110
0000
0000
0000
0001
0100
0001
0100
,
0002
0000
0000
1000
2003
0000
0000
0010
,
3010
0000
0000
0100
0000
0000
0001
0000
1001
0000
0000
0000
1000
0000
0100
0000
,
2000
0000
0000
0000
0000
0000
3010
0000
0100
0000
0000
0010
0000
0000
1000
0000
,
1001
0000
1000
0100
0010
0001
0100
0100
,
0200
0000
0000
0000
0000
0000
0310
1000
0010
0000
0000
0010
0000
0000
0010
0000
,
0100
0000
0000
0100
0000
0000
0100
0000
0001
0000
0000
0001
0000
0000
0001
0000
,
1001
0000
0000
0000
1001
0000
0000
0000
1000
0000
0000
0100
0000
0000
0010
0000
,
0001
0001
1000
1000
1001
0000
0001
0100
,
0002
0000
0000
1000
2003
0000
0000
3100
,
0100
0000
0000
0010
0000
0000
0001
0000
1001
0000
0000
0000
1000
0000
0100
0000
,
2000
0000
0000
0000
0000
0000
0010
0000
3010
0000
0000
0100
0000
0000
0001
0000
,
1001
0000
1000
0010
0100
0001
1000
1000
,
2000
0000
0000
0000
0000
0000
3100
0010
0100
0000
0000
0100
0000
0000
0100
0000
,
0010
0000
0000
0010
0000
0000
0010
0000
0001
0000
0000
0001
0000
0000
0001
0000
,
1001
0000
0000
0000
1001
0000
0000
0000
1000
0000
0000
0100
0000
0000
0010
0000
,
0001
0100
0010
1000
0100
0010
0001
0100
,
0001
0000
0000
0100
0000
0000
0001
0000
1000
0000
0000
0100
0000
0000
1000
0000
,
0001
0000
0000
0010
0000
0000
0001
0000
0100
0000
0000
0000
1001
0000
0000
0000
,
1000
0000
0000
0100
0000
0000
1000
0000
0001
0000
0000
0100
0000
0000
0001
0000
,
1000
0000
0000
0010
0000
0000
1000
0000
0001
0000
0000
0000
1001
0000
0000
0000
,
1000
0010
0100
0001
0010
1000
0010
0001
,
0100
0010
1000
0100
0001
0100
0010
0001
,
0100
0010
1000
0010
0001
0010
0100
0001
,
0010
0000
0100
0000
1000
0000
0010
0000
0100
0000
0001
0000
1000
0100
1000
0100
,
2000
0000
0000
0010
3020
0000
0000
0100
,
0130
0000
0000
0100
0000
0000
0001
0000
0101
0000
0000
0000
1000
0000
0001
0000
,
2000
0000
0000
0000
0000
0000
0010
0000
3010
0000
0000
0010
0000
0000
1000
0000
,
1010
0000
0001
0100
0010
1000
0100
0100
,
0200
0000
0000
0000
0000
0000
0310
0001
0010
0000
0000
0010
0000
0000
0010
0000
,
0100
0000
0000
0100
0000
0000
0100
0000
1000
0000
0000
1000
0000
0000
1000
0000
,
1100
0000
0000
0000
0011
0000
0000
0000
1000
0000
0000
0001
0000
0000
1000
0000
,
0010
0010
0100
0100
0110
0000
1000
0100
,
0020
0000
0000
0001
0032
0000
0000
1000
,
1003
0000
0000
1000
0000
0000
0001
0000
1001
0000
0000
0000
0001
0000
0100
0000
,
0002
0000
0000
0000
0000
0000
1000
0000
1003
0000
0000
1000
0000
0000
0001
0000
,
1001
0000
1000
0010
0100
0001
1000
1000
,
2000
0000
0000
0000
0000
0000
0010
0000
3010
0000
0000
0010
0000
0000
0010
0000
,
0100
0000
0000
0100
0000
0000
0100
0000
0001
0000
0000
0001
0000
0000
0001
0000
,
0101
0000
0000
0000
1010
0000
0000
0000
1000
0000
0000
0100
0000
0000
1000
0000
,
2002
0000
0000
3003
,
1100
0000
0000
1000
0000
0000
1000
0000
1001
0000
0000
0000
0001
0000
0000
0000
,
0101
0000
0000
0100
0000
0000
0100
0000
0110
0000
0000
0010
0000
0000
0010
0000
,
1010
0000
0000
1000
0000
0000
1000
0000
1001
0000
0000
0001
0000
0000
0001
0000
,
2002
0000
0003
0100
0000
3100
0010
0001
,
1000
0010
0100
0001
2000
0000
0001
0001
,
3002
0000
0000
0100
0000
0000
0100
0000
0103
0000
0010
0000
1000
0000
0001
0000
,
1000
0100
1000
0100
0010
0001
0010
0001
,
1000
0010
1000
0010
0100
0001
1000
0100
,
1100
0000
0000
0100
0000
0000
0100
0000
0120
0000
0000
0000
0030
0000
0000
0000
,
0011
0000
0000
0001
0000
0000
0001
0000
1001
0000
0000
1000
0000
0000
1000
0000
,
1001
0000
0000
0001
0000
0000
0001
0000
0101
0000
0000
0100
0000
0000
0100
0000
,
0220
0000
0300
1000
0000
1030
0100
1000
,
0010
0100
0001
1000
0100
0000
0010
0001
,
1000
0000
0000
1000
0000
0000
1000
0000
0010
0000
0100
0000
0001
0000
1000
0000
,
0001
0100
0010
1000
0100
0010
0001
0100
,
0001
1000
0001
1000
0001
1000
0001
1000
,
0001
0100
0010
1000
0100
0001
0100
1000
,
0010
0100
0001
0010
1000
0010
0001
0100
,
1000
0100
0010
1000
0100
0010
1000
0010
,
0001
0100
0010
1000
0010
0100
1000
0100
,
0010
1000
0100
0010
0001
0100
1000
0100
,
0001
0010
0100
0001
0100
1000
0010
0100
,
0001
0010
0100
0001
0100
0010
1000
0010
,
0001
0100
0010
1000
0100
1000
0010
1000
,
1001
0000
0000
0001
0000
0000
0001
0000
0101
0000
0000
0100
0000
0000
0100
0000
,
0110
0000
0000
0010
0000
0000
0010
0000
1010
0000
0000
1000
0000
0000
1000
0000
,
1001
0001
0100
0010
,
1000
0000
0100
0000
0010
0000
0001
0100
,
0101
0000
0000
0100
0000
0000
0010
0000
0110
0000
0000
0010
0000
0000
1000
0000
,
1010
0000
0000
1000
0000
0000
0100
0000
1100
0000
0000
1000
0000
0000
0001
0000
,
1001
1000
0010
0100
0001
0010
0100
1000
,
1100
0000
0000
0110
0000
0000
0011
0000
0000
0110
0000
0000
1001
0000
2002
0000
,
0000
0000
3003
0000
1001
0000
1000
0010
,
1010
0000
0000
0000
0001
0000
0100
0000
0101
0000
0000
1001
0000
0000
1100
0000
,
1100
0000
0001
0100
0010
0000
1000
1000
,
0010
0000
0000
0100
0000
0000
0001
0000
1001
0000
0000
0000
1000
0000
0010
0000
,
0100
0000
0001
0000
1000
0000
1000
0000
1000
0000
0000
0000
1001
0000
0001
0100
,
0001
0000
0000
0001
0000
0000
0001
0000
1000
0000
0000
1000
0000
0000
1000
0000
,
0010
0000
0000
0010
0000
0000
0010
0000
0110
0000
0000
0000
1001
0000
0000
0000
,
1000
0000
0000
0100
0000
0000
0010
0000
0001
0000
0100
0000
1000
0000
0100
0000
,
0001
0000
1000
0100
1000
0000
1001
0001
,
0100
0000
0000
0000
0110
0000
0010
0000
1000
0000
0000
1100
0000
0000
0110
0000
,
0110
0000
0010
0001
1000
0000
1001
1000
,
0001
0000
0000
1000
0000
0000
0100
0000
1100
0000
0000
0000
0100
0000
0000
0000
,
0110
0000
0000
0000
0010
0000
0001
0000
0011
0000
0000
0000
1001
0000
1000
0100
,
1000
0000
0000
1000
0000
0000
1000
0000
0001
0000
0000
0001
0000
0000
0001
0000
,
0100
0000
0000
0100
0000
0000
0100
0000
0110
0000
0000
0000
1001
0000
0000
0000
,
1100
0000
0000
0110
0000
0000
0011
0000
2002
0000
0000
0000
0000
0000
0000
0000
,
0000
0000
3003
0000
2100
0000
0100
0001
,
3002
0000
0000
0000
0010
0000
0100
0000
0103
0000
0000
0101
0000
0000
1001
0000
,
1001
0000
1000
0100
0002
0000
0100
1003
,
1000
0000
0000
0010
0000
0000
0001
0000
1001
0000
0000
0000
1000
0000
0000
0000
,
0110
0000
0000
0000
0010
0000
0100
0000
0002
0000
0000
0000
0100
0000
1003
0100
,
1000
0000
0000
0010
0000
0000
0100
0000
0001
0000
0000
1000
0000
0000
0100
0000
,
0010
0000
0000
0001
0000
0000
1000
0000
1001
0000
0000
0000
0110
0000
0000
0000
,
1100
0000
0000
0110
0000
0000
0011
0000
0001
0000
0001
0000
1000
0000
1000
0000
,
1001
0000
1000
0100
0020
0000
0001
0100
,
0230
0000
0000
0000
0010
0000
1000
0000
1300
0000
0000
0001
0000
0000
1001
0000
,
1001
0000
1000
0010
0200
0000
0010
0001
,
0301
0000
0000
1000
0000
0000
1001
0000
1001
0000
0000
0000
1000
0000
0100
0000
,
0010
0000
0001
0000
1000
0000
1000
0000
1000
0000
0000
0000
1001
0000
0001
0100
,
0001
0000
0000
0100
0000
0000
0010
0000
1000
0000
0000
0001
0000
0000
0100
0000
,
0010
0000
0000
1000
0000
0000
0010
0000
0110
0000
0000
0000
1001
0000
0000
0000
,
1100
0000
0000
0110
0000
0000
1001
0000
1000
0000
0010
0000
0100
0000
0001
0000
,
0010
0100
1000
0001
1001
0000
0000
0000
;

//---------------dance-single - ----------------
#NOTES:
     dance-single:
     :
     Medium:
     7:
     0.873,0.872,0.562,0.543,0.090:
0000
0000
0000
0000
,
0000
0000
0000
0000
,
0000
0000
0000
0000
,
0000
0000
0000
0000
,
1000
0010
0100
0001
,
1000
0001
0100
0000
0010
0000
1001
0000
,
1000
0100
0010
0000
0001
0000
0100
0000
,
0001
0010
0100
0000
1000
0000
0010
0000
,
1000
0010
0100
0000
0001
0000
1000
0000
,
0001
0100
0010
0000
1000
0000
0001
0001
,
0002
0000
0000
1000
2003
0000
0000
0010
,
3010
0000
0110
0000
1001
0000
1000
0100
,
0002
0000
0000
0100
0103
0000
0010
0000
,
2002
0000
0000
0000
3003
0000
1000
0010
,
0200
0000
0000
0001
0301
0000
1000
0000
,
0100
0010
0001
1000
,
0110
1001
1000
0010
,
1000
0100
1000
0100
1100
0000
0001
0100
,
0020
0000
0000
1000
2030
0000
0000
0001
,
3001
0000
0101
0000
1010
0000
1000
0010
,
0002
0000
0000
0100
0103
0000
0010
0000
,
2002
0000
0000
0000
3003
0000
1000
0010
,
0200
0000
0000
0001
0301
0000
1000
0000
,
0100
0010
0001
1000
,
1100
0011
1000
0010
,
1000
0100
0010
0001
0100
0010
1000
0000
,
0001
0100
0001
0100
0001
0100
0001
0000
,
1000
0100
1000
0100
1000
0000
1100
0000
,
0001
0010
0001
0010
0001
0010
0001
0000
,
1000
0010
1000
0010
1000
0000
1010
0000
,
1000
0100
0001
0000
0100
0000
1000
0000
,
0001
0010
1000
0000
0010
0000
0001
0000
,
1000
0100
1000
0000
0010
0000
0100
0000
,
0001
0010
0100
0000
1000
0000
0001
0001
,
0002
0000
0000
0100
0203
0000
0000
0010
,
0310
0000
0110
0000
1001
0000
1000
0010
,
0200
0000
0000
0001
0301
0000
0101
0000
,
2020
0000
0000
0000
3030
0000
1000
0001
,
0200
0000
0000
0010
0310
0000
1000
0000
,
0001
0100
1000
0100
,
0101
1100
1000
0010
,
1000
0100
0010
0001
1001
0000
1000
0010
,
0200
0000
0000
0001
0302
0000
0000
1000
,
1003
0000
1100
0000
0011
0000
0001
0010
,
0200
0000
0000
1000
1300
0000
0001
0000
,
2002
0000
0000
0000
3003
0000
1000
0010
,
0001
0000
0100
1000
1000
0000
0010
0000
,
0100
0001
0010
0100
,
1100
0101
0011
1010
,
2002
0000
0000
3003
,
1000
0000
0000
1000
0000
0000
1000
0000
0001
0000
0000
0000
0001
0000
0000
0000
,
0100
0000
0000
0100
0000
0000
0100
0000
0010
0000
0000
0010
0000
0000
0010
0000
,
1000
0000
0000
1000
0000
0000
1000
0000
0001
0000
0000
0001
0000
0000
0001
0000
,
2000
0000
0000
0010
0000
0010
3010
0100
,
0001
0010
0001
0010
0001
0000
1000
0100
,
1000
0000
0000
1000
0000
0000
1000
0000
0001
0000
0100
0000
0001
0000
0100
0000
,
0001
0100
0010
1000
,
0001
0100
0010
1000
0100
0010
0001
0000
,
1000
0000
0000
1000
0000
0000
1000
0000
0002
0000
0000
0000
0000
0000
0000
0000
,
0103
0000
0000
0100
0000
0000
0100
0000
0010
0000
0000
0010
0000
0000
0010
0000
,
0100
0000
0000
0100
0000
0000
0100
0000
0001
0000
0000
0001
0000
0000
0001
0000
,
2000
0000
0000
0001
0000
0001
3001
0100
,
0010
1000
0010
1000
0010
0000
0100
0001
,
0100
0000
0000
0100
0000
0000
0100
0000
0010
0000
0010
0000
0010
0000
0000
0000
,
1000
0100
0010
0001
0010
0100
1000
0000
,
0001
0100
0001
0100
0010
1000
0010
1000
,
0001
0010
0100
0000
1000
0000
0010
0000
,
0100
0001
0010
0000
0100
0000
1000
0000
,
0010
1000
0100
0000
0010
0000
0001
0000
,
0010
0100
1000
0000
0001
0100
0001
0100
,
0001
0010
1000
0000
0010
0000
0001
0000
,
1000
0100
0001
0000
1000
0000
0010
0000
,
0100
0010
1000
0000
0100
0000
0010
0000
,
1000
1000
0010
0000
0100
0000
0001
0000
,
0110
0000
1001
0000
,
1100
0000
0011
0000
,
0101
0100
0010
1000
,
0001
0000
0100
0000
0010
1000
0010
1000
,
1010
0000
0101
0000
,
1100
0000
0011
0000
,
1001
1000
0010
0100
,
0001
0000
0000
0100
0000
0000
0010
0000
0000
1000
0000
0000
0001
0000
2002
0000
,
0000
0000
3003
0000
2000
0000
0000
0100
,
3200
0000
0000
0010
0310
0000
0001
0000
,
1001
0000
1000
0010
0200
0000
0000
0001
,
0301
1000
2002
0000
,
3003
0000
1000
0100
2000
0000
0000
0010
,
3010
0100
0001
1000
,
0100
0010
1100
0011
,
1000
0010
0100
0000
0001
0010
0100
1000
,
1001
0000
1000
0010
0200
0000
0000
0010
,
0320
0000
0000
1000
1030
0000
1010
0000
,
0101
0000
1000
0001
0200
0000
0000
0010
,
0310
0110
2002
0000
,
3003
0000
0100
0100
0200
0000
0000
0010
,
0310
1000
0100
0010
,
0001
0010
0011
1100
,
1000
0010
0100
0001
2002
0000
0000
0000
,
0000
0000
3003
0000
2000
0000
0001
0001
,
3002
0000
0000
0000
0100
0000
0100
0000
0103
0000
0000
0100
0000
0000
0100
0000
,
0020
0000
1000
1000
1030
0000
0001
0100
,
0010
1000
2002
0000
,
3003
0000
1000
0010
0200
0000
0001
0001
,
0301
0100
0010
1000
,
0100
0010
0011
1100
,
1000
0000
0000
1000
0000
0000
1000
0000
0001
0000
0001
0000
0100
0000
0100
0000
,
0020
0000
1000
1000
2030
0000
0000
0001
,
3002
0000
0000
0010
0013
0000
0100
0000
,
1001
0000
1000
0010
0200
0000
0000
0001
,
0301
1000
2002
0000
,
3003
0000
1000
0100
2000
0000
0000
0010
,
3010
0000
0000
0010
0000
0000
0010
0000
0100
0000
0000
0100
0000
0000
0100
0000
,
0001
0000
0000
0001
0000
0000
0001
0000
1000
0000
0000
0000
1001
0000
0000
0000
,
0010
0000
1000
0000
0001
0100
0010
1000
,
0100
0010
0001
1000
1001
0000
0000
0000
;

//---------------dance-single - ----------------
#NOTES:
     dance-single:
     :
     Easy:
     4:
     0.623,0.654,0.629,0.629,0.000:
0000
0000
0000
0000
,
0000
0000
0000
0000
,
0000
0000
0000
0000
,
0000
0000
0000
0000
,
1000
0000
0100
0000
,
0010
0000
0001
0000
,
0100
0100
0010
0010
,
1000
1000
0001
0001
,
0010
0010
0100
0100
,
1000
1000
1000
0001
,
2000
0000
3020
0000
,
0130
0001
2000
0100
,
3200
0000
0310
0001
,
2000
0000
0000
0010
,
3020
0000
0130
0001
,
1000
0100
0010
0001
,
1001
1001
1000
0001
,
2000
0000
3001
0100
,
0020
0000
2030
0000
,
3100
0010
0002
0100
,
0203
0000
0310
1000
,
0002
0000
0000
0013
,
0200
0000
1300
0010
,
0100
0001
0010
0001
,
0101
0101
0001
0100
,
2002
0000
0000
3003
,
1000
0000
0100
0000
,
0010
0000
0001
0000
,
0100
0000
0010
0000
,
1000
0000
0010
0000
,
1000
0100
0010
0001
,
0100
0010
1000
0010
,
0100
0001
0010
0100
,
1000
1000
1000
0001
,
0200
0000
0320
0000
,
1030
0100
0002
0100
,
0203
0000
0310
1000
,
0002
0000
0000
0013
,
0200
0000
1300
0010
,
1000
0100
0010
0001
,
1001
1001
1000
0010
,
0100
0100
0100
0001
,
2000
0000
3200
0000
,
0310
0001
0200
0010
,
0320
0000
1030
0100
,
2000
0000
0000
3010
,
0200
0000
0301
0010
,
0001
0100
0010
1000
,
1100
1100
1000
0010
,
2002
0000
0000
3003
,
1100
0000
0110
0000
,
0011
0000
1001
0000
,
0101
0000
0110
0000
,
2002
0000
0000
3003
,
1100
0000
0110
0000
,
0011
0000
1001
0000
,
1010
0000
0110
0000
,
0202
0000
0000
0303
,
1001
0000
1100
0000
,
0110
0000
0011
0000
,
0110
0000
1100
0000
,
2002
0000
0000
3003
,
0101
0000
0110
0000
,
1010
0000
0110
0000
,
0101
0000
1001
0000
,
1000
0010
0100
0001
,
1001
1000
0010
0100
,
0001
0100
0010
1000
,
0100
0010
0001
0010
,
0100
1000
0010
0100
,
0010
1000
0100
0010
,
0001
0010
0100
1000
,
0010
0100
0001
0010
,
0100
1000
0010
0100
,
0101
0000
0110
0000
,
1010
0000
1001
0000
,
1100
1000
0100
0010
,
0001
0100
0010
1000
,
1001
0000
0101
0000
,
0110
0000
1010
0000
,
1001
0001
0100
0010
,
1000
0000
0000
0001
0000
0000
0100
0200
,
0000
0000
0302
0000
,
2003
0000
3100
0010
,
0002
0100
0203
0000
,
0310
1000
2002
0000
,
3000
0100
0203
0000
,
0310
1000
0100
0010
,
0001
0010
0110
0110
,
1001
0000
1000
1000
,
1000
0010
0200
0000
,
0302
0000
0013
0100
,
2000
0010
3020
0000
,
0130
0001
2002
0000
,
3000
0010
0023
0000
,
0130
1000
0010
0100
,
0001
1000
0101
0101
,
1001
0000
2002
0000
,
0000
3003
2000
0000
,
3020
0000
0130
0001
,
2000
0100
3200
0000
,
0310
0001
2002
0000
,
3000
0100
0203
0000
,
0310
1000
0010
0100
,
0001
0100
0101
0101
,
1010
0000
1000
1000
,
1000
0010
0200
0000
,
0302
0000
0013
0100
,
2000
0010
3020
0000
,
0130
0001
2002
0000
,
3000
0100
0203
0000
,
0310
1000
0010
0100
,
0001
1000
1100
1100
,
0011
0000
0001
0100
,
0010
1000
1001
0000
;

//---------------dance-single - ----------------
#NOTES:
     dance-single:
     :
     Beginner:
     2:
     0.352,0.545,0.210,0.000,0.000:
0000
0000
0000
0000
,
0000
0000
0000
0000
,
0000
0000
0000
0000
,
0000
0000
0000
0000
,
1000
0000
0000
0000
,
0001
0000
0000
0000
,
0100
0000
0010
0000
,
1000
0000
0100
0000
,
0010
0000
0001
0000
,
0100
0100
0100
0000
,
1001
0000
1000
0000
,
0100
0100
0100
0000
,
0010
0000
0001
0001
,
0001
0000
0000
0100
,
0100
0000
0010
0000
,
1000
0000
0100
0000
,
0010
0010
0010
0000
,
0001
0001
0001
0000
,
1000
0000
0010
0000
,
0100
0100
0100
0000
,
0001
0000
0010
0010
,
0010
0000
0000
0100
,
0100
0000
1000
0000
,
0010
0000
0100
0000
,
0001
0001
0001
0000
,
1001
0000
0000
0000
,
1000
0000
0000
0000
,
0010
0000
0000
0000
,
0100
0000
0000
0000
,
0001
0000
0000
0000
,
1000
0000
0100
0000
,
0010
0000
0001
0000
,
0100
0000
0010
0000
,
1000
1000
1000
0000
,
1001
0000
0001
0000
,
0100
0100
0100
0000
,
0010
0000
1000
1000
,
1000
0000
0000
0001
,
0001
0000
0010
0000
,
0100
0000
1000
0000
,
0010
0010
0010
0000
,
1000
1000
1000
0000
,
0100
0000
0010
0000
,
0001
0001
0001
0000
,
0100
0000
0010
0010
,
0010
0000
0000
1000
,
1000
0000
0100
0000
,
0010
0000
0001
0000
,
0100
0100
0100
0000
,
1001
0000
0000
0000
,
1000
0000
1000
0000
,
0100
0000
0100
0000
,
0010
0000
0010
0000
,
1001
0000
0000
0000
,
0001
0000
0001
0000
,
0010
0000
0010
0000
,
0100
0000
0100
0000
,
0110
0000
0000
0000
,
1000
0000
1000
0000
,
0010
0000
0010
0000
,
0100
0000
0100
0000
,
0110
0000
0000
0000
,
0001
0000
0001
0000
,
0100
0000
0100
0000
,
0010
0000
0010
0000
,
1001
0000
0000
0000
,
1000
0000
0100
0000
,
0010
0000
0001
0000
,
0100
0000
0010
0000
,
1000
0000
0010
0000
,
0100
0000
0001
0000
,
0010
0000
0100
0000
,
1000
0000
0100
0000
,
0010
0000
0001
0000
,
0110
0000
0110
0000
,
0110
0000
0110
0000
,
0110
0000
0000
0000
,
0110
0000
0000
0000
,
1001
0000
1001
0000
,
1001
0000
1001
0000
,
1001
0000
0000
0000
,
1000
1000
1000
1000
,
1000
0000
0010
0000
,
0100
0000
0001
0001
,
0001
0000
0010
0000
,
0100
0100
0100
0000
,
0000
1000
1000
0000
,
0010
0000
0100
0000
,
0001
0000
1000
1000
,
1000
0000
0010
0010
,
0010
0000
0100
0000
,
0001
0000
0010
0010
,
0010
0000
0100
0000
,
1000
1000
1000
0000
,
0000
0010
0010
0000
,
0100
0000
0001
0000
,
0100
0000
0010
0010
,
0010
0000
1001
0000
,
0000
0000
1000
0000
,
0100
0000
0010
0010
,
0010
0000
0001
0000
,
0100
0100
0100
0000
,
0000
0010
0010
0000
,
1000
0000
0010
0000
,
0100
0000
0001
0001
,
0001
0000
0100
0100
,
0100
0000
0010
0000
,
1000
0000
0010
0010
,
0010
0000
0100
0000
,
0001
0001
0001
0000
,
0000
1000
1000
0000
,
0100
0000
0010
0000
,
0001
0000
0100
0100
,
0100
0000
0110
0000
,
0000
0000
1001
0000
;
