#TITLE:Mystical Oriental Dream;
#SUBTITLE:~ Ancient Temple;
#ARTIST:UI-70;
#TITLETRANSLIT:;
#SUBTITLETRANSLIT:;
#ARTISTTRANSLIT:;
#CREDIT:;
#BANNER:banner.png;
#BACKGROUND:back.png;
#LYRICSPATH:;
#CDTITLE:cdtitlegpop.png;
#MUSIC:Mystic Oriental Dream ~ Ancient Temple.ogg;
#OFFSET:-0.576;
#SAMPLESTART:48.854;
#SAMPLELENGTH:12.000;
#SELECTABLE:YES;
#BPMS:0.000=138.000;
#STOPS:;
#BGCHANGES:;

//---------------dance-single - ----------------
#NOTES:
     dance-single:
     :
     Medium:
     5:
     0.356,0.471,0.314,0.132,0.004:
0000
0000
0000
0000
,
0000
0000
0000
0000
,
0000
0000
0000
0000
,
0000
0000
0000
0000
,
2000
0000
0000
0000
,
3010
0000
0000
0000
0000
0000
0100
0000
0000
0000
0001
0000
0000
1000
0000
0000
,
2000
0000
0000
0000
,
0002
0000
0000
3003
,
2000
0000
0000
0000
,
3010
0000
0100
0000
0001
0000
0010
0200
,
1000
0000
0000
0000
,
1300
0000
0010
0000
0100
0000
0001
0020
,
0100
0100
0100
0100
0000
0000
0000
0000
,
0130
0000
1000
0000
0010
0000
0100
0002
,
1000
0000
0000
0000
,
1003
0000
0010
0000
0100
0001
1000
0000
,
0002
0000
0000
0000
,
0013
0000
0100
0000
1000
0000
0010
0200
,
0001
0000
0000
0000
,
0301
0000
0100
0000
0010
0000
1000
0200
,
0010
0010
0010
0000
0000
0000
0000
0000
,
0310
0000
0001
0000
0100
0000
0010
2000
,
0001
0000
0000
0000
,
3001
0000
0100
0000
0010
1000
0001
0000
,
1000
0000
0100
0000
0010
0001
0100
0000
,
0010
0000
1000
0000
0001
0010
0100
0000
,
1000
0100
1000
0100
1000
0100
1000
0100
,
0010
0001
0010
0001
2000
0000
0001
0001
,
3001
0000
0100
0000
0010
0000
1000
0100
,
1000
0000
0010
0000
0100
0000
0001
0010
,
0100
0000
1000
0000
0100
0100
0010
0001
,
0000
1000
1000
0000
0010
0010
0000
0100
,
0000
0000
0001
0000
0010
0000
0100
1000
,
0001
0000
0100
0000
0010
0000
1000
0010
,
0100
0000
0001
0000
0010
0000
0100
1000
,
0001
0101
1001
1100
,
1001
0000
0001
0000
0100
0000
0010
1000
,
0010
0000
0100
0000
0001
0000
0010
0100
,
1000
0000
0010
0000
0100
0000
0001
0010
,
0000
0100
1000
0000
0001
0001
0000
1001
,
0000
0000
1000
0000
0010
0000
0100
0001
,
1000
0000
0001
0000
0010
0000
0100
1000
,
0001
0000
0010
0000
0100
0000
0010
0001
,
1000
1100
1001
0101
,
1001
1000
0101
0001
,
1000
0000
0100
0000
0010
0000
0001
0100
,
0001
0100
0010
1000
,
0010
0010
0100
0100
0001
0000
1000
0000
,
0101
0001
1100
1000
,
0010
0000
0100
0000
0001
0000
1000
0100
,
0010
0000
0001
0000
0100
0000
0010
1000
,
0002
0000
0000
1003
,
1001
0000
1001
0000
1001
0000
0000
1100
,
0000
1100
0000
1100
0000
0000
0001
0000
,
0000
0100
0000
0010
0000
1000
0000
0001
,
0000
0001
0000
1000
0000
0000
1001
0000
,
1001
0000
1001
0000
0000
0101
0000
0101
,
0000
0101
0000
0000
0001
0000
0000
0100
,
0000
0010
0000
1000
0100
2000
0000
0000
,
0000
3000
1001
1001
,
1001
0000
0000
0011
0000
0011
0000
0011
,
0000
0000
0001
0000
0000
0100
0000
0010
,
0000
1000
0000
0010
0000
0010
0000
0100
,
0000
1001
1001
1001
,
0000
1010
0000
1010
0000
1010
0000
0000
,
0010
0000
0000
0100
0000
0001
0000
1000
,
0001
2002
0000
0000
0000
0000
0000
3003
,
0000
1001
0000
0000
0000
0000
0000
0000
;

//---------------dance-single - ----------------
#NOTES:
     dance-single:
     :
     Challenge:
     9:
     0.709,0.915,0.264,0.818,0.306: // measure 1
0000
0000
0000
0000
,  // measure 2
0000
0000
0000
0000
,  // measure 3
0000
0000
0000
0000
,  // measure 4
0000
0000
0000
0000
,  // measure 5
2000
0000
0000
0000
,  // measure 6
3020
0000
0000
0000
0000
0000
0230
0000
0000
0000
0301
0000
0000
1000
0000
0010
,  // measure 7
0000
0200
0000
0000
0000
0000
0000
0000
0000
0000
0000
0000
0000
0000
0000
0000
,  // measure 8
0002
0000
0000
0000
0000
0000
0000
0000
0303
0000
0001
0000
1000
0100
0010
0000
,  // measure 9
0002
1000
1000
1000
,  // measure 10
2003
0000
3020
0000
0230
0000
0302
0023
,  // measure 11
0100
0100
0100
0100
,  // measure 12
0230
0000
2300
0000
3020
0000
0230
0302
,  // measure 13
1000
1000
1000
1000
1000
0000
1000
0000
,  // measure 14
2003
0000
3200
0000
0320
0000
0032
0203
,  // measure 15
0010
0010
0010
0010
,  // measure 16
0320
0000
0000
0000
2030
0000
3001
0010
0100
1000
0001
0000
1000
0100
1000
0100
,  // measure 17
2000
0001
0001
0001
,  // measure 18
3002
0000
0203
0000
0320
0000
2030
3002
,  // measure 19
0100
0100
0100
0100
,  // measure 20
0203
0000
0320
0000
2030
0000
3200
0320
,  // measure 21
0000
0031
0100
0010
2000
0000
0001
0000
0000
0001
0000
0000
,  // measure 22
3002
0000
0023
0000
0230
0000
2300
3020
,  // measure 23
0100
0100
0100
0100
,  // measure 24
0230
0000
0000
0000
0302
0000
1003
0100
1000
0100
0010
0000
0001
0100
0010
1000
,  // measure 25
0001
0000
1000
0100
0010
0001
1000
0000
0001
0100
0010
1000
0010
0100
0001
0010
,  // measure 26
0100
0000
1000
0100
1000
0100
0010
0001
0010
0001
1000
0010
0100
0001
1000
0010
,  // measure 27
0100
0001
0100
0001
1000
0100
1000
0100
0010
0001
0100
0010
1000
0010
1000
0001
,  // measure 28
1000
0000
0000
0100
0000
0000
0010
0000
0000
0001
0000
0000
0010
0000
0000
0100
0000
0000
1000
0000
0000
0000
0000
0000
0001
0000
0100
0000
0001
0000
0100
0000
0001
0000
0100
0000
0001
0000
0000
0000
0000
0000
0100
0000
0000
0000
0000
0000
,  // measure 29
1001
0001
0100
0010
2000
0100
0100
0100
,  // measure 30
3100
0010
0001
0010
0200
1000
1000
1000
,  // measure 31
1300
0010
0100
0001
0200
0001
0001
0301
,  // measure 32
2000
0000
0001
0000
0001
0000
0001
0000
3001
0100
0010
0000
1000
0000
1001
0000
,  // measure 33
0001
0010
0100
1000
0200
0010
0010
0010
,  // measure 34
0310
0001
0100
0010
0200
0001
0001
0001
,  // measure 35
0301
0010
0001
0010
0002
0100
0100
0100
,  // measure 36
0103
0000
0001
0000
1000
0000
0001
0000
0010
0000
0001
0100
0001
0100
0010
0000
,  // measure 37
1010
1000
0100
0010
0002
0010
0010
0010
,  // measure 38
0013
0100
1000
0010
0200
0001
0001
0001
,  // measure 39
0301
0010
0001
0100
0020
1000
1000
1030
,  // measure 40
0002
0000
0100
0000
0100
0000
0100
0000
0103
0010
1000
0000
0001
0000
1001
0000
,  // measure 41
1000
0100
0010
0001
0020
0100
0100
0100
,  // measure 42
0130
1000
0010
0100
0002
1000
1000
1000
,  // measure 43
1003
0100
1000
0010
0200
0001
0001
0001
,  // measure 44
0301
0000
1000
0000
0010
0000
1000
0000
0100
0000
1000
0100
1000
0100
0010
0001
,  // measure 45
2000
0000
3010
0100
0002
0000
0013
0100
,  // measure 46
2000
3200
0302
0203
2300
0000
3020
0032
,  // measure 47
0023
0000
0130
0002
0023
0230
2300
3200
,  // measure 48
0320
0000
0032
0000
0203
0000
0301
0100
0001
0100
0010
0000
1001
0000
0001
0000
,  // measure 49
2001
0000
3010
0100
0002
0000
0013
1000
,  // measure 50
0020
0230
2300
3200
0302
0000
2003
3002
,  // measure 51
0203
0000
0310
0002
0203
2300
3002
2003
,  // measure 52
3200
0000
0010
0000
0310
0000
0010
1000
0010
0100
0001
1000
0002
0000
0000
0000
,  // measure 53
01M3
0000
M1M1
0000
1MM1
1000
0100
M11M
,  // measure 54
0000
MM11
0000
1MM1
1000
0010
0200
0000
,  // measure 55
0301
0000
0000
0010
0000
0000
0100
0000
0000
1000
0100
1000
0100
0000
0000
0010
0000
0000
0001
0000
0000
1001
0000
0000
,  // measure 56
1000
0000
1100
0000
0100
0000
0110
0000
0010
0001
0010
0001
0M10
0000
0000
0000
,  // measure 57
M11M
0000
1MM1
1000
0100
M11M
0000
MM11
,  // measure 58
0000
0000
1MM1
0000
1000
0100
1000
0000
0002
0000
0000
0000
0103
0000
0010
0000
,  // measure 59
1000
0000
0000
0001
0100
0001
0100
0000
0000
0010
0000
0000
1000
0000
0000
0002
0000
0000
0000
0000
0000
0000
0000
0000
,  // measure 60
1003
0100
0010
0001
0010
0100
1000
0001
1M00
0000
0000
0000
11MM
0000
0000
0000
,  // measure 61
1MM1
0001
0100
M11M
0000
1M1M
0000
1MM1
,  // measure 62
1000
0000
0000
0100
0000
0000
0020
0000
0000
0000
0000
0000
0031
0000
0000
0100
0000
0000
0010
0000
0000
1000
0001
1000
,  // measure 63
0001
0100
0010
1000
1000
0100
0100
0020
,  // measure 64
0031
0100
0010
0000
1M1M
0000
0000
0000
1MM1
0000
0000
0000
11MM
0000
0100
0000
,  // measure 65
0010
0000
MM11
0000
0000
0000
1MM1
0000
0000
0000
11MM
0000
1000
0100
1000
0000
,  // measure 66
0200
0000
0000
0000
0000
0000
0310
0000
0000
0001
0000
0000
0100
0000
0000
0010
0100
0010
0100
0000
0000
0001
0000
0000
,  // measure 67
1000
0000
2002
0000
0000
0000
0000
0000
0000
0000
3003
0000
1000
0100
0010
0001
,  // measure 68
1000
1001
0000
0000
0000
0000
0000
0000
;

//---------------dance-single - ----------------
#NOTES:
     dance-single:
     :
     Hard:
     7:
     0.484,0.554,0.273,0.206,0.041:
0000
0000
0000
0000
,
0000
0000
0000
0000
,
0000
0000
0000
0000
,
0000
0000
0000
0000
,
2000
0000
0000
0000
,
3020
0000
0000
0000
0000
0000
0230
0000
0000
0000
0301
0000
0000
1000
0000
0100
,
0000
2000
0000
0000
0000
0000
0000
0000
0000
0000
0000
0000
0000
0000
0000
0000
,
0002
0000
0000
3003
,
2001
0001
0001
0001
,
3001
0000
0100
0000
0010
0000
1000
0200
,
0010
0010
0010
0010
,
0310
0000
0001
0000
1000
0000
0010
0200
,
0001
0001
0001
0001
0001
0000
0001
0000
,
0301
0000
0010
0000
0100
0000
1000
0200
,
1000
1000
1000
1000
,
1300
0000
0010
0000
0100
0001
0010
0100
,
2000
0001
0001
0001
,
3001
0000
0100
0000
0010
0000
1000
0002
,
0100
0100
0100
0100
,
0103
0000
0010
0000
1000
0000
0010
0100
,
0000
0001
0010
0100
2000
0000
0001
0000
0000
0001
0000
0000
,
3001
0000
0100
0000
0010
0000
0100
0002
,
1000
1000
1000
1000
,
1003
0000
0100
0000
0010
0001
0010
0100
,
1000
1000
0010
0100
0001
0100
0010
0100
,
0010
1000
0100
0010
0001
0010
1000
0010
,
0001
0100
0010
1000
0100
0001
0100
1000
,
0010
0000
0100
0000
0001
0000
1000
0000
0001
0100
0001
0100
0002
0000
1000
0000
,
1003
0000
0100
0000
0010
0001
0100
0010
,
1010
0000
1000
0000
0100
0010
0001
1000
,
1001
0000
0001
0000
0100
0010
1000
0001
,
0000
0000
1000
0000
0100
0000
0010
0000
0001
0100
0001
0000
0000
0000
1001
0000
,
1000
0000
0010
0000
0100
0001
0100
0010
,
1000
0000
0001
0000
0010
0100
1000
0100
,
0010
0000
0001
0000
0100
0010
1000
0010
,
0100
0100
0001
0001
1000
1000
0001
0100
,
0010
0000
1000
0000
0010
0100
0001
0010
,
0100
0000
1000
0000
0100
0010
0001
1000
,
0001
0000
0100
0000
0010
1000
0010
0100
,
0000
0000
0001
0000
0010
0000
0100
0000
1000
0100
1000
0000
0000
0000
1100
0000
,
0100
0000
0010
0000
0001
0100
0010
1000
,
0001
0000
0100
0000
0010
0100
0001
0100
,
0001
0000
0010
0000
0100
1000
0100
1000
,
0100
0100
0010
0010
0001
0001
1000
0100
,
1000
1100
0001
0101
,
1000
0100
0010
0001
1000
0000
0001
0100
,
0010
0000
1000
0100
0010
0001
0100
0010
,
1000
0010
0100
0001
1000
0000
0001
0000
,
1000
1100
0001
0101
,
1000
0100
0010
0001
1000
0000
0010
0100
,
0001
0000
0100
0010
1000
0010
0100
0001
,
2000
0000
0000
3002
,
1003
0000
1001
0000
1001
0001
0100
0110
,
0000
0110
0000
0110
0010
1000
0001
0000
,
1000
0100
0010
0001
0001
0100
0010
1000
,
1000
0001
0001
0200
0000
0001
0301
0000
,
0101
0000
0101
0001
1000
1100
0000
1100
,
0000
1100
1000
0010
0200
0000
0301
0010
,
0001
0100
0100
0010
1000
2002
0000
0000
,
0000
3003
0101
1100
,
1001
0001
0100
0110
0000
1010
0000
1001
,
1000
0100
0020
0000
0031
0100
0010
1000
,
1000
0010
0100
0001
0001
0100
0100
0020
,
0000
0000
1030
0000
1001
0000
1100
0100
,
0010
0011
0000
1001
0000
1100
1000
0010
,
0200
0000
0301
0010
0001
0100
0100
0010
,
1000
2002
0000
0000
0000
0000
0000
3003
,
0000
1001
0000
0000
0000
0000
0000
0000
;

//---------------dance-single - ----------------
#NOTES:
     dance-single:
     :
     Easy:
     3:
     0.228,0.277,0.050,0.132,0.000:
0000
0000
0000
0000
,
0000
0000
0000
0000
,
0000
0000
0000
0000
,
0000
0000
0000
0000
,
2000
0000
3000
0000
,
0001
0000
0100
0000
,
0020
0000
0030
0000
,
0200
0000
0300
0000
,
0002
0000
0003
0000
,
1000
0100
1000
0010
,
0200
0000
0300
0000
,
0001
0100
0010
1000
,
0002
0000
0003
0000
,
0010
0100
1000
0010
,
0200
0000
0300
0000
,
0001
0100
0010
1000
,
0002
0000
0000
0000
,
1000
1000
1000
1000
,
2003
0000
0000
0000
,
0010
0010
0010
0010
,
3020
0000
0000
0000
,
0100
0100
0100
0100
,
0230
0000
0000
0000
,
0001
0001
0001
0001
,
0301
0000
0100
0000
,
0010
0000
1000
0000
,
0001
0010
0100
1000
,
0010
0100
0002
1000
,
1003
0000
0010
0001
,
0001
0000
0010
1000
,
0001
0000
0100
0010
,
1000
0001
0100
0100
,
0010
0000
1000
0100
,
0100
0000
0010
0001
,
1000
0000
0001
0100
,
0010
0010
0100
0100
,
0001
0000
1000
0100
,
1000
0000
0001
0100
,
0001
0000
1000
0010
,
0100
0100
0001
0001
,
1000
0000
0001
0001
,
1000
0000
0100
0100
,
0100
0000
0010
0001
,
1000
1000
0001
0001
,
1000
0000
1000
0000
,
1000
0100
1000
0000
,
0001
0000
0100
0000
,
0001
0100
0001
0000
,
0100
0000
0100
0000
,
0100
0010
0100
0000
,
0010
0000
0001
0100
,
0110
0000
0000
1001
,
1001
0000
1000
0000
1000
0000
0000
0001
,
0000
0001
0000
0001
0000
0000
1000
0000
,
0000
0000
0000
0001
0000
0000
0000
0100
,
0000
0100
0000
0100
0000
0000
0001
0000
,
0001
0000
0001
0000
0000
1000
0000
1000
,
0000
1000
0000
0000
0010
0000
0000
0000
,
0000
0100
0000
0000
0000
2002
0000
0000
,
0000
3003
0100
0100
,
0100
0000
0000
0010
0000
0010
0000
0010
,
0000
0000
1000
0000
0000
0000
0000
0001
,
0000
0000
0000
0010
0000
0010
0000
0010
,
0000
1000
1000
1000
,
0000
0001
0000
0001
0000
0001
0000
0000
,
0100
0000
0000
0000
0000
0010
0000
1000
,
0000
2002
0000
0000
0000
0000
0000
3003
,
0000
1001
0000
0000
0000
0000
0000
0000
;

//---------------dance-single - ----------------
#NOTES:
     dance-single:
     :
     Beginner:
     1:
     0.109,0.194,0.017,0.000,0.000:
0000
0000
0000
0000
,
0000
0000
0000
0000
,
0000
0000
0000
0000
,
0000
0000
0000
0000
,
1000
0000
0000
0000
,
1000
0000
1000
0000
,
1000
0000
0000
0000
,
0001
0000
0000
0000
,
0001
0000
0000
0000
,
0001
0000
0001
0000
,
0001
0000
0000
0000
,
0100
0000
0100
0000
,
0100
0000
0000
0000
,
0010
0000
0010
0000
,
0010
0000
0000
0000
,
1000
0000
1000
0000
,
0001
0000
0000
0000
,
1000
1000
1000
1000
,
0000
0000
0000
0000
,
0001
0001
0001
0001
,
0000
0000
0000
0000
,
0100
0100
0100
0100
,
0000
0000
0000
0000
,
0010
0010
0010
0010
,
0010
0000
0000
0000
,
0100
0000
0000
0000
,
0001
0000
0000
0000
,
1000
0000
1000
0000
,
1001
0000
0000
0001
,
0001
0000
0000
1000
,
1000
0000
0000
0000
,
0001
0000
0001
0000
,
0100
0000
0000
0010
,
0010
0000
0000
1000
,
1000
0000
0000
0001
,
0001
0001
0001
0001
,
0001
0000
0000
0100
,
0100
0000
0000
0010
,
0010
0000
0000
0000
,
1000
0000
1000
0000
,
0001
0000
0000
0100
,
0100
0000
0000
0010
,
0010
0000
0000
1000
,
1000
1000
1000
1000
,
1000
0000
0000
0000
,
0001
0000
0000
0000
,
0100
0000
0000
0000
,
0010
0000
0000
0000
,
1000
0000
0000
0000
,
0001
0000
0000
0000
,
0010
0000
0000
0000
,
0100
0000
0000
0000
,
1000
0000
0000
0000
,
0000
0000
0000
0001
,
0000
0000
0000
0000
,
0000
0000
0000
0100
,
0000
0000
0000
0000
,
0000
0000
0010
0000
,
0000
0000
0000
0000
,
0000
0000
0001
0000
,
0000
0000
0000
0000
,
0000
0100
0000
0000
,
0000
0000
0000
0000
,
0000
0010
0000
0000
,
0000
0000
0000
0000
,
1000
0000
0000
0000
,
0000
0000
0000
0000
,
0000
1001
0000
0000
0000
0000
0000
0000
;
