#TITLE:Marisa Tanked My Score With An Incredible Hand;
#SUBTITLE:;
#ARTIST:IOSYS;
#TITLETRANSLIT:;
#SUBTITLETRANSLIT:;
#ARTISTTRANSLIT:;
#CREDIT:;
#BANNER:Marisa Tanked My Score With An Incredible Hand.png;
#BACKGROUND:Marisa Tanked My Score with an Incredible Hand - BG.png;
#LYRICSPATH:;
#CDTITLE:cdtitlegpop.png;
#MUSIC:Marisa Tanked My Score With An Incredible Hand.ogg;
#OFFSET:0.160;
#SAMPLESTART:68.834;
#SAMPLELENGTH:12.000;
#SELECTABLE:YES;
#BPMS:0.000=170.000;
#STOPS:;
#BGCHANGES:0.000=Marisa Tanked My Score With An Incredible Hand.avi=1.000=1=1=0,
99999=-nosongbg-=1.000=0=0=0 // don't automatically add -songbackground-
;

//---------------dance-single - Copied from----------------
#NOTES:
     dance-single:
     Copied from:
     Hard:
     9:
     0.622,0.813,0.302,0.114,0.069:
0000
0000
0000
0000
,
0000
0000
0000
0000
,
0000
0000
0000
0000
,
0000
0000
0000
0000
,
0000
0000
0000
0000
,
1001
0000
0000
1000
0000
0000
1000
0000
0001
0000
0100
0000
0001
0000
0100
0000
,
0101
0000
0000
0001
0000
0000
0001
0000
1000
0000
0100
0000
1000
0000
0100
0000
,
1100
0000
0000
0100
0000
0000
0100
0000
0010
0000
0001
0000
0010
0000
0001
0000
,
2002
0000
0000
3003
,
1000
0100
0010
0001
0100
0010
1000
0010
,
0100
0001
0010
0100
1000
0010
1000
0000
,
0001
0100
0010
1000
0010
0100
0001
0010
,
0100
1000
0100
0010
0001
0100
0010
0000
,
1000
0010
0100
0001
0010
0100
1000
0100
,
0010
0001
0100
0010
1000
0001
0100
0000
,
0101
0000
1001
0000
1000
0100
0010
0001
,
1001
0000
1001
0000
0001
0001
1000
1000
,
0001
0100
0010
1000
0100
0010
0001
0100
,
0010
1000
0100
0010
0001
0001
0001
0000
,
1000
0010
0100
0001
0100
0010
1000
0100
,
1000
0010
0100
0001
0010
0010
0010
0000
,
1000
0100
0010
0001
0100
0010
1000
0100
,
1000
0010
0100
0001
1000
1000
1000
0000
,
1000
0001
1000
0001
1000
0001
1000
0001
1000
0001
1000
0001
1000
0001
1000
0001
,
1000
0001
1000
0001
1000
0001
1000
0001
1000
0000
0100
0000
0010
0000
0000
0000
,
2001
0001
0001
0001
,
0001
0001
0001
3001
,
1002
1000
1000
1000
,
1000
0000
1000
0000
1003
0000
0000
1000
,
0001
0000
0000
1001
0000
0000
0000
1000
,
0100
0000
0000
1100
0000
0000
0001
0100
,
0010
0000
0000
0110
0000
0000
0000
0001
,
0100
0000
0000
0101
0000
0000
0010
0100
,
1000
0001
1000
0010
1000
0100
1000
0001
,
1000
0010
1000
0100
1000
0001
1000
0010
,
0100
0010
0100
1000
0100
0001
0100
0010
,
0100
1000
0100
0001
0200
0000
0000
0000
,
0301
0010
0001
0100
0001
1000
0001
0010
,
0001
0100
0001
0010
0001
1000
0001
0100
,
0010
0100
0010
1000
0010
0001
0010
0100
,
0010
1000
0010
0100
0020
0000
0000
0000
,
1030
0100
0010
0001
0100
0010
1000
0100
,
0001
0100
1000
0010
0100
0001
0010
1000
,
0010
0001
0100
0010
1000
0100
0010
0001
,
0100
0010
1000
0100
0001
0100
1000
0010
,
1000
1000
0100
0100
0010
0010
0001
0001
,
1000
0100
0001
0100
1000
0010
0001
0010
,
1010
0000
1001
0000
1000
0100
0010
0001
,
1000
0100
1000
0000
0010
0000
0100
0000
0001
0000
0010
0000
0001
0000
0000
0000
,
1001
0000
1100
0000
0001
0100
0010
0000
,
1100
0000
0011
0000
0100
0010
1000
0000
,
1001
0000
1000
0100
0010
0001
0100
0010
,
1000
0010
0100
0001
0010
0100
1000
1000
,
1000
0000
0010
0000
0100
0001
1000
0000
,
1001
0000
1000
0000
0100
0010
0001
0000
,
1100
0000
0000
1001
0000
0000
0101
0000
,
1001
0000
1000
0000
0100
0010
0001
0100
,
0010
0000
1000
0000
0010
0000
0100
0001
,
1000
0100
0011
1000
,
0101
0000
1000
0010
0100
0001
0010
1000
,
0010
0000
0010
0000
0000
0000
0000
0000
0011
0000
0000
1001
0000
0000
2001
0000
,
0000
0000
0000
3020
0000
0000
0230
0000
,
0302
0000
0000
0023
0000
0000
0230
0000
,
2300
0000
0000
0002
0000
0000
3003
0000
,
1000
0100
0010
0001
0100
1000
0100
0001
,
1000
0000
0100
0000
0010
0001
0100
0000
,
0001
0100
1000
0100
0001
0010
0100
1000
,
0010
0100
0001
0010
,
1000
0100
0001
0100
1000
0010
0100
0001
,
1000
0100
0010
0001
,
0100
0010
1000
0000
0100
0000
0010
0000
,
0001
0000
1000
0000
0100
0100
0010
0000
,
1001
0000
0001
0100
0010
1000
0100
0010
,
0001
0100
0010
1000
,
0001
0100
0010
1000
0100
0001
0100
1000
,
0010
0100
0001
0010
,
1000
0010
0001
0010
1000
0100
0010
0001
,
1000
0000
0010
0000
0100
0000
0001
0010
,
0100
1000
0100
0010
,
0110
1000
0101
0010
,
1100
0000
0001
0000
0110
0000
0001
1000
,
0100
0010
0001
0100
,
1000
0100
0010
0001
0100
0010
1000
0001
,
1001
0000
0000
0000
;

//---------------dance-single - ----------------
#NOTES:
     dance-single:
     :
     Challenge:
     12:
     1.000,1.000,1.000,0.139,0.690: // measure 1
0000
0000
0000
0000
,  // measure 2
0000
0000
0000
0000
,  // measure 3
0000
0000
0000
0000
,  // measure 4
0000
0000
0000
0000
,  // measure 5
0000
0000
0000
0000
,  // measure 6
1001
0000
1000
0100
0000
0100
0010
0000
0010
0001
0000
0000
0101
0000
1010
0000
,  // measure 7
1001
0000
1000
0010
0000
0010
0100
0000
0100
0001
0000
0000
0011
0000
1100
0000
,  // measure 8
1001
0000
1000
0010
0000
0010
0100
0000
0100
0001
0000
0000
0110
0000
1001
0000
,  // measure 9
0101
0000
0001
0000
1001
0000
1000
0000
1000
0100
0000
0010
0002
0000
0000
0000
,  // measure 10
1003
0100
0110
0010
0001
0100
0110
0010
,  // measure 11
1000
0000
0100
0000
0110
0000
0010
0000
0001
0100
0010
0000
2002
0000
3000
0000
,  // measure 12
0103
0010
1100
0001
0100
0010
0101
0010
,  // measure 13
1000
0000
0100
0000
0011
0000
0100
0000
0010
1000
0100
0000
0022
0000
0033
0000
,  // measure 14
1000
0010
0101
1000
0100
0010
0011
0100
,  // measure 15
0010
0000
1000
0000
0101
0000
0010
0000
1000
0100
0010
0000
0202
0000
0303
0000
,  // measure 16
1100
0000
0000
0000
1001
0000
0000
0000
0101
0000
0110
0000
1000
0100
1000
0000
,  // measure 17
0101
0001
1001
1000
1100
0110
0011
1001
,  // measure 18
0001
0100
0010
1000
0100
0010
0001
0100
0010
1000
0010
0100
0001
0010
0100
1000
,  // measure 19
0100
0010
0001
0100
0010
1000
0100
1000
0010
0100
0001
0010
0100
1000
0010
1000
,  // measure 20
0001
0100
0001
0100
0010
1000
0010
1000
0001
0010
0001
0010
0100
1000
0100
1000
,  // measure 21
0010
0100
0010
0100
0001
1000
0001
1000
0001
0010
0001
0010
0100
1000
0100
1000
,  // measure 22
0001
0100
0010
1000
0100
0010
0001
0010
0100
1000
0010
0100
0001
0010
0100
1000
,  // measure 23
0100
0010
0001
0100
0010
1000
0010
0100
0001
0010
0100
1000
0100
0010
0001
0100
,  // measure 24
0001
0010
0100
1000
0001
0010
0100
1000
0001
0100
0010
1000
0001
0100
0010
1000
,  // measure 25
0001
0010
0100
1000
0100
0010
0100
1000
0001
0010
0001
0010
0100
1000
0100
1000
,  // measure 26
0001
0000
1000
0100
0010
0001
0100
0010
1000
0000
0001
0010
0100
1000
0100
0010
,  // measure 27
0001
0000
1000
0010
0100
0001
0010
0100
1000
0000
0001
0100
0010
1000
0010
0100
,  // measure 28
0001
0000
1000
0100
0010
0001
0010
0100
1000
0000
0001
0010
0100
0010
0001
1000
,  // measure 29
0100
0000
0001
0100
0010
1000
0010
0100
0001
0010
0001
0000
0000
0000
1100
0000
,  // measure 30
2002
0000
0000
0010
0000
3003
0000
2000
,  // measure 31
0200
0000
0000
0001
0000
3300
1000
0002
,  // measure 32
0200
0000
0000
1000
0000
0303
0000
0101
,  // measure 33
2002
0000
0000
0010
0000
3003
1100
1001
,  // measure 34
0101
0100
0110
0010
1010
1000
1100
0100
,  // measure 35
0110
0010
0011
0001
1001
1000
1010
0010
,  // measure 36
0110
0100
0101
0001
1001
1000
1100
0100
,  // measure 37
0110
0000
0010
0000
0011
0000
0001
0000
1001
0000
0000
0101
0000
1010
0000
0000
,  // measure 38
1001
1000
1100
0100
0110
0010
0011
0001
,  // measure 39
1001
1000
1010
0010
0110
0100
0101
0001
,  // measure 40
0011
0010
0110
0100
1100
1000
1001
0001
,  // measure 41
0101
0000
0100
0000
0110
0000
0010
0000
1000
0100
0010
0001
0010
0000
0100
0000
,  // measure 42
1010
0010
0110
0100
0101
0001
1001
1000
,  // measure 43
1100
0100
0110
0010
0011
0001
1001
1000
,  // measure 44
1001
0001
0101
0100
0110
0010
1010
1000
,  // measure 45
1100
0100
0110
0010
0011
0001
1001
1000
,  // measure 46
1100
1100
0011
0011
0101
0101
1010
1010
,  // measure 47
1001
1000
1010
0010
0110
0100
0101
0001
,  // measure 48
1001
0000
1100
0000
0011
1001
1010
0110
,  // measure 49
1000
0010
0100
0000
0101
0000
0110
0000
1010
0000
1001
0000
1100
0000
0001
0000
,  // measure 50
1000
0000
0110
0000
0000
1001
0000
0000
1100
0000
0000
0110
0000
0000
0011
0000
,  // measure 51
1000
0000
0101
0000
0000
1001
0000
0000
1010
0000
0000
0110
0000
0000
0101
0000
,  // measure 52
1001
1000
1100
0100
0110
0011
0001
1001
,  // measure 53
1000
1010
0110
0100
0101
0001
1001
1100
,  // measure 54
0110
0000
0101
0000
0110
0000
0010
0000
1010
0000
0000
0110
0000
0000
0101
0000
,  // measure 55
0001
0000
1100
0000
0110
0000
0010
0000
0011
0000
0000
0110
0000
0000
1100
0000
,  // measure 56
1001
1000
0010
0110
0100
0001
1001
1000
,  // measure 57
1100
0000
0100
0000
0010
0000
0001
0000
1001
0000
0000
1010
0000
0000
0110
0000
,  // measure 58
1001
0000
1100
0000
0011
0000
0001
0000
0101
0000
0000
0110
0000
0000
1000
0100
,  // measure 59
0010
0000
0101
0000
0000
0110
0000
0000
1010
0000
0000
1001
0000
0000
0101
0000
,  // measure 60
1001
1000
1010
0010
0110
0101
0001
1001
,  // measure 61
1000
0000
1100
0000
1100
0000
0100
0000
0110
0000
0000
0011
0000
0000
1001
0000
,  // measure 62
0001
0100
0010
1010
1000
0100
0110
0010
,  // measure 63
0011
0001
1000
1010
0010
0100
0101
0001
,  // measure 64
1001
1000
0100
0110
0010
0001
1000
0010
,  // measure 65
1000
0100
0010
0001
0100
0010
1000
0010
0100
0001
0010
0100
1000
0100
0010
0001
,  // measure 66
1001
0000
1000
0000
1010
0000
0010
0000
0110
0000
0000
0101
0000
0000
1001
0000
,  // measure 67
2000
0000
3001
0010
0100
1000
0010
0100
0001
0010
0000
0100
1000
0000
0001
0000
,  // measure 68
1100
0000
0100
0000
0110
0000
0010
0000
0011
0000
0000
1001
0000
0000
1010
0000
,  // measure 69
1000
0100
0010
0000
0001
0100
0010
1000
0010
0100
0001
0010
0100
1000
0100
0010
,  // measure 70
0001
0000
1000
0000
1010
0000
0010
0000
0110
0000
0000
0101
0000
0000
1001
0000
,  // measure 71
1000
1100
0100
0110
0011
0001
1001
1000
,  // measure 72
1010
0000
0010
0000
0110
0000
0100
0000
0101
0000
0000
1001
0000
0000
1001
0000
,  // measure 73
1000
0100
0110
0010
0011
1001
1000
0010
,  // measure 74
1010
0000
0010
0000
0110
0000
0100
0000
0101
0000
0000
1001
0000
0000
1100
0000
,  // measure 75
0002
0000
0103
0010
1000
0100
0010
0001
1000
0010
0000
0100
0001
0000
1000
0000
,  // measure 76
1001
0000
0001
0000
0101
0000
0100
0000
0110
0000
0000
1010
0000
0000
1001
0000
,  // measure 77
0001
0010
0100
0000
1000
0100
0010
0001
0100
0010
1000
0100
1000
0010
0100
0001
,  // measure 78
1000
0100
0110
0010
0011
1001
1000
1010
,  // measure 79
0010
0110
0100
0101
1001
1000
1100
0100
,  // measure 80
0110
0010
0001
0100
1001
0100
0010
1000
,  // measure 81
0011
0000
0100
0000
0010
0000
1010
0000
0101
0000
0000
0110
0000
0000
1010
0000
,  // measure 82
1000
0100
0010
0001
0100
0010
1000
0100
0010
0100
1000
0010
0100
0001
0010
0100
,  // measure 83
1000
0000
0001
0010
0001
0000
1000
0010
1000
0000
0001
0100
0001
0000
1000
0100
,  // measure 84
1001
0000
0000
0000
;

//---------------dance-single - ----------------
#NOTES:
     dance-single:
     :
     Medium:
     6:
     0.417,0.576,0.155,0.106,0.000:
0000
0000
0000
0000
,
0000
0000
0000
0000
,
0000
0000
0000
0000
,
0000
0000
0000
0000
,
0000
0000
0000
0000
,
1001
0000
0001
0100
,
0110
0000
0010
1000
,
1001
0000
0001
0010
,
2002
0000
0000
3003
,
1000
0100
1000
0000
0001
0100
0001
0000
,
1000
0001
1000
0000
0001
0000
1000
0000
,
0001
0100
0010
0000
1000
0100
0010
0000
,
0001
0010
0100
0000
1000
0000
0010
0000
,
0100
0001
1000
0000
0010
0100
0001
0000
,
0010
0100
1000
0000
0001
0000
0100
0000
,
0010
0010
0100
0100
,
0001
0000
0001
0000
1000
1000
1000
1000
,
0001
0100
0010
1000
,
0010
0000
0100
0000
0001
0010
0100
0000
,
1000
0100
0010
0001
,
0100
0000
0010
0000
1000
0100
1000
0000
,
0010
0100
0001
0010
,
0100
0000
1000
0000
0100
0010
0001
0000
,
2002
0000
0000
0000
,
0000
0000
3003
1001
,
1001
0000
0001
0000
,
0100
0000
0010
0000
,
1000
0000
0010
0000
,
0100
0000
0001
0000
,
1000
0000
0000
1000
0000
0000
0000
0010
,
0010
0000
0000
0010
0000
0000
0100
0001
,
0100
0000
0000
0100
0000
0000
0000
0001
,
0001
0000
0000
0001
0000
0000
1000
0000
,
0001
0100
0001
0100
0001
0100
0001
0100
,
0001
0100
0001
0100
0001
0100
0001
0100
,
0001
0100
0001
0100
0001
0100
0001
0100
,
0001
0100
0001
0100
0002
0000
0000
0000
,
1003
0100
1000
0100
1000
0100
1000
0100
,
1000
0100
1000
0100
1000
0100
1000
0100
,
1000
0100
1000
0100
1000
0100
1000
0100
,
1000
0100
1000
0100
2000
0000
0000
0000
,
3001
0100
0010
0000
1000
0000
0010
0000
,
0100
0001
1000
0000
0010
0000
0100
0000
,
0001
0010
0100
0000
1000
0000
0100
0000
,
0010
0001
0010
0000
0100
0000
1000
0000
,
0001
0001
0100
0100
,
0010
0010
1000
1000
,
1001
1001
0001
0100
,
0010
0000
0010
0000
1000
0001
1000
0000
,
1001
0001
0100
0010
,
1010
0100
0101
0001
,
1001
0000
1000
0000
0100
0100
0000
0010
,
0000
0001
0001
0000
1000
0000
0001
0000
,
0101
0100
0010
0010
,
0010
0000
0000
1000
0000
0000
0001
0000
,
0010
0000
0000
0100
0000
0000
1000
0000
,
1000
0010
0100
0100
,
0101
0001
1000
0100
,
0011
0100
1010
0100
,
1001
0000
0001
0000
0100
0100
0000
0010
,
0000
1000
0001
0010
,
0002
0000
0203
0000
,
0320
0000
2030
0000
,
3002
0000
2003
0000
,
0002
0000
0000
3003
,
1000
0100
0010
0001
,
0100
0100
0100
0100
,
0010
1000
0010
0100
,
0001
0001
0001
0001
,
0010
0100
1000
0010
,
0100
0001
0010
0100
,
1000
1000
0001
0001
,
0100
0000
0010
0000
1000
0001
1000
0000
,
0001
0001
0100
0100
,
0010
1000
0010
0100
,
0001
0001
0010
0010
,
0100
1000
0100
0010
,
0001
0001
0100
0010
,
1000
0010
0100
0001
,
0010
0000
0100
0000
,
1000
0000
0010
0100
,
0001
0010
0100
1000
,
0001
0100
0001
0000
1000
0100
1000
0000
,
1001
0000
0000
0000
;

//---------------dance-single - ----------------
#NOTES:
     dance-single:
     :
     Easy:
     3:
     0.263,0.305,0.090,0.065,0.000:
0000
0000
0000
0000
,
0000
0000
0000
0000
,
0000
0000
0000
0000
,
0000
0000
0000
0000
,
0000
0000
0000
0000
,
1000
0000
0000
0000
,
0001
0000
0000
0000
,
0100
0000
0000
0000
,
2002
0000
0000
3003
,
1000
0000
0100
0000
,
0010
0000
0001
0100
,
0010
0000
1000
0000
,
0010
0000
0100
0001
,
1000
0000
0100
0000
,
0010
0000
0001
0010
,
0100
0100
1000
1000
,
0010
0100
0001
0001
,
1000
0000
0010
0000
,
0100
0000
0001
0010
,
0001
0000
0100
0000
,
0010
0000
1000
0100
,
0010
0000
0001
0000
,
0010
0000
0100
1000
,
2002
0000
0000
0000
,
0000
0000
3003
1001
,
1001
0000
0000
0000
,
0001
0000
0000
0000
,
0100
0000
0000
0000
,
0010
0000
1000
0000
,
1001
0000
0000
0000
,
0101
0000
0000
0000
,
0110
0000
0000
0000
,
1010
0000
0000
0000
,
1000
0100
1000
0100
,
0010
0001
0010
0001
,
1000
0010
1000
0010
,
0100
0001
2000
0000
,
3010
0100
0010
0100
,
0001
1000
0001
1000
,
0001
0010
0100
1000
,
0010
0100
0002
0000
,
1003
0010
0100
0010
,
1000
0100
0010
0001
,
0010
0100
1000
0010
,
0100
0001
0010
0100
,
1000
1000
1000
1000
,
0001
0001
0001
0001
,
0100
0100
0010
0010
,
1000
0100
0010
0001
,
1001
0000
1000
0000
,
0010
0000
0100
0000
,
0001
0010
0100
1000
,
0010
0100
0001
1000
,
1000
0000
0010
0000
,
0100
0000
0001
0000
,
0010
0000
0100
0000
,
1000
0000
0010
0010
,
0100
0000
1000
0000
,
0010
0000
0010
0000
,
0100
0001
1000
0010
,
0100
0001
0001
0001
,
0001
0000
0100
0000
,
0010
0000
1000
0000
,
0001
0000
1000
0000
,
2002
0000
0000
3003
,
1000
0000
1000
0010
,
0100
0100
0001
0001
,
1000
0000
0100
0010
,
0001
0100
0010
0010
,
1000
0000
0010
0000
,
0100
0000
0001
0000
,
0010
0000
0010
0100
,
1000
0000
0000
0000
,
0001
0000
0100
0010
,
1000
1000
0010
0100
,
0001
0000
0010
0000
,
0001
0100
0010
1000
,
0001
0000
0010
0000
,
0100
0000
1000
0000
,
0010
0000
0010
0000
,
0100
0000
0100
0001
,
1000
0000
0001
0000
,
1000
1000
0001
0001
,
1001
0000
0000
0000
;

//---------------dance-single - ----------------
#NOTES:
     dance-single:
     :
     Beginner:
     1:
     0.128,0.203,0.049,0.000,0.000:
0000
0000
0000
0000
,
0000
0000
0000
0000
,
0000
0000
0000
0000
,
0000
0000
0000
0000
,
0000
0000
0000
0000
,
1000
0000
0000
0000
,
1000
0000
0000
0000
,
0001
0000
0000
0000
,
1001
0000
0000
0000
,
0001
0000
0000
0000
,
0001
0000
0000
0000
,
0100
0000
0000
0000
,
0100
0000
0000
0000
,
0010
0000
0000
0000
,
0010
0000
0000
0000
,
1000
0000
1000
0000
,
1000
0000
1000
0000
,
1000
0000
0000
0000
,
0001
0000
0000
0000
,
0100
0000
0000
0000
,
0010
0000
0000
0000
,
1000
0000
0000
0000
,
0001
0000
0000
0000
,
1001
0000
0000
0000
,
0000
0000
1000
1000
,
1000
0000
0000
0000
,
0000
0000
0000
0000
,
0001
0000
0000
0000
,
0000
0000
0000
0000
,
0100
0000
0000
0000
,
0100
0000
0000
0000
,
0010
0000
0000
0000
,
0010
0000
0000
0000
,
1000
0000
1000
0000
,
0001
0000
0001
0000
,
0100
0000
0100
0000
,
0010
0000
0010
0000
,
1000
0000
1000
0000
,
0001
0000
0001
0000
,
0010
0000
0010
0000
,
0100
0000
0100
0000
,
1000
0000
1000
0000
,
0100
0000
0100
0000
,
0010
0000
0010
0000
,
0001
0000
0001
0000
,
1000
1000
1000
0000
,
0001
0001
0001
0000
,
1000
0000
0001
0000
,
0100
0000
0010
0000
,
1000
0000
0000
0000
,
0001
0000
0000
0000
,
0100
0000
0000
0000
,
0100
0000
0000
0000
,
0010
0000
0000
0000
,
1000
0000
0000
0000
,
0001
0000
0000
0000
,
1000
0000
0000
0000
,
1001
0000
0000
0000
,
0001
0000
0000
0000
,
0100
0000
0000
0000
,
0010
0000
0010
0000
,
0010
0000
0000
0000
,
0100
0000
0000
0000
,
0001
0000
0000
0000
,
1001
0000
0000
0000
,
1000
0000
1000
0000
,
1000
0000
0000
0000
,
0010
0000
0010
0000
,
0010
0000
0000
0000
,
0100
0000
0000
0000
,
0100
0000
0000
0000
,
0001
0000
0000
0000
,
1000
0000
0000
0000
,
1001
0000
0001
0000
,
0001
0000
0000
0000
,
1000
0000
1000
0000
,
0010
0000
0000
0000
,
0100
0000
0000
0000
,
0010
0000
0000
0000
,
1000
0000
0000
0000
,
0001
0000
0000
0000
,
1000
0000
0000
0000
,
0001
0000
1000
0000
,
1001
0000
0000
0000
;
