#TITLE:Marisa Stole the Precious Thing;
#SUBTITLE:;
#ARTIST:IOSYS;
#TITLETRANSLIT:;
#SUBTITLETRANSLIT:;
#ARTISTTRANSLIT:;
#CREDIT:IOSYS, Original movie by locker room production;
#BANNER:Marisa Stole the Precious Thing.png;
#BACKGROUND:Marisa Stole the Precious Thing - BG.png;
#LYRICSPATH:marisa.lrc;
#CDTITLE:cdtitlegpop.png;
#MUSIC:Marisa Stole the Precious Thing.ogg;
#OFFSET:1.220;
#SAMPLESTART:67.780;
#SAMPLELENGTH:15.980;
#SELECTABLE:YES;
#BPMS:0.000=170.000;
#STOPS:;
#BGCHANGES:-1.400=marisa.avi=1.000=0=0=0,
0.000=Marisa Stole the Precious Thing - BG.png=1.000=0=0=1,
3.250=marisa1.avi=1.000=0=0=1,
3.250=Marisa Stole the Precious Thing.avi=1.000=0=0=1,
99999=-nosongbg-=1.000=0=0=0 // don't automatically add -songbackground-
;

//---------------dance-single - ----------------
#NOTES:
     dance-single:
     :
     Easy:
     4:
     0.301,0.608,0.231,0.033,0.000:
0000
0000
0000
0000
,
0000
0000
0000
0000
,
0000
0000
0000
0000
,
0000
0000
0000
0000
,
0000
0000
1000
0000
,
0000
0000
0001
0000
,
0000
0000
0100
0000
,
0010
0100
0001
0000
,
1001
1000
0010
0100
,
0001
0010
0100
0000
,
1001
1000
0010
0100
,
0001
0010
0100
0000
,
1001
1000
0010
0100
,
0001
0010
0001
0000
,
1000
0100
0010
0010
,
0001
0100
0001
0001
,
1001
1000
0100
0010
,
0001
0100
0010
1000
,
0011
0100
0010
1000
,
0010
0100
0001
0010
,
1100
0010
0100
0001
,
1000
0010
0100
0001
,
2002
0000
0000
0000
,
0000
3003
1001
0000
,
1001
0000
0000
0000
,
1000
0000
0000
0000
,
0010
0000
0000
0000
,
0100
0000
0000
0000
,
1001
0000
1000
0000
,
0010
0000
0100
0000
,
0001
0000
0010
0000
,
1000
0000
0000
0000
,
1001
1000
1000
1000
,
1000
1000
1000
1000
,
0001
0001
0001
0001
,
0001
0001
0002
0000
,
0103
0100
0100
0100
,
0100
0100
0100
0100
,
0010
0010
0010
0010
,
0010
0010
0020
0000
,
1030
0100
1000
0100
,
1000
0100
1000
0100
,
0010
0001
0010
0001
,
0010
0001
0010
0001
,
1100
1100
1100
1100
,
0011
0011
0011
0011
,
1100
1001
0101
1001
,
0011
0110
1010
0000
,
1001
0000
1000
0000
,
0010
0000
0100
0000
,
0001
1000
0010
0100
,
0001
1000
0100
0010
,
0010
0000
0001
0100
,
0010
0000
1000
0000
,
0100
0000
0010
0000
,
0001
0000
0100
0100
,
0100
0000
0010
0000
,
1000
0000
0010
0000
,
0100
0010
1000
0100
,
0010
0001
0001
0001
,
0001
0000
0100
0000
,
0010
0000
1000
0000
,
0100
0000
0001
0000
,
0100
0010
1000
0001
,
0100
0000
0100
0000
,
0001
0001
1000
1000
,
0010
0000
0100
0000
,
0010
0010
0100
0100
,
0001
0000
1000
0000
,
0001
0000
0100
0000
,
0010
0000
1000
1000
,
1000
0000
0000
0000
,
0001
0000
0100
0000
,
0010
1000
0100
0010
,
0001
0000
0100
0000
,
0010
1000
0010
0100
,
0001
0000
0100
0000
,
0010
0000
1000
0000
,
0100
0000
0000
0000
,
0001
0000
0100
0100
,
0100
0000
0010
0000
,
1000
1000
0001
0001
,
1001
0000
0000
0000
;

//---------------dance-single - ----------------
#NOTES:
     dance-single:
     :
     Hard:
     8:
     0.589,0.912,0.156,0.000,0.070:
0000
0000
0000
0000
,
0000
0000
0000
0000
,
0000
0000
0000
0000
,
0000
0000
0000
0000
,
0000
0000
0000
0000
1000
0100
0010
0001
,
0000
0000
0000
0000
0001
0010
0100
1000
,
0000
0000
0000
0000
1000
0010
0100
0001
,
0100
0100
0010
0010
1000
0010
0100
0000
,
0001
0100
0010
1000
0100
0010
0001
0010
,
0100
1000
0010
0100
0001
0001
0001
0000
,
1000
0100
0010
0001
0010
0100
1000
0010
,
0100
0001
0010
0100
1000
1000
1000
0000
,
0001
0100
0010
1000
0010
0100
0001
0010
,
0100
0010
0001
0100
0010
0010
0010
0000
,
1100
0000
1001
0000
0001
0100
0010
0010
,
1000
0100
1000
0100
0010
0010
0010
0010
,
0001
0100
0010
1000
0100
0010
0001
0100
,
0010
1000
0010
0100
0001
0010
0100
0000
,
0001
0100
0010
1000
0010
0100
0001
0010
,
0100
1000
0100
0010
0001
0100
0010
0000
,
1000
0010
0100
0001
0010
0100
0010
0001
,
0100
0010
1000
0001
0100
0010
1000
0000
,
0001
1000
0001
1000
0001
1000
0001
1000
0001
1000
0001
1000
0001
1000
0001
1000
,
0001
1000
0001
1000
0001
1000
0001
1000
0001
0000
0000
0000
1001
0000
0000
0000
,
0000
1000
0000
0010
0000
0100
0000
0001
,
0000
0010
0000
0100
0000
1000
0000
0010
,
0000
0101
0000
1000
0000
0010
0000
0100
,
0000
0001
0000
0010
0011
0000
0001
1000
,
0010
0100
0001
0010
,
0100
1000
0010
0100
,
1010
0100
0001
0010
,
0110
0000
0000
1001
0000
0000
0110
0000
,
0001
0010
0001
0100
0001
1000
0001
0100
,
0001
0010
0001
1000
0001
0100
0001
0100
,
0010
0100
0010
1000
0010
0001
0010
0100
,
0010
1000
0010
0100
0010
0000
0000
0000
,
1000
0100
1000
0001
1000
0010
1000
0100
,
1000
0001
1000
0100
1000
0010
1000
0001
,
0100
0010
0100
0001
0100
1000
0100
0010
,
0100
0001
0100
0010
0100
0000
0000
0000
,
1000
0100
0010
0001
0100
0010
1000
0010
,
0100
0010
1000
0100
0010
0001
0010
0100
,
1000
0010
0100
0001
0100
0010
1000
0001
,
1000
0100
0010
0001
0010
0100
1000
0010
,
1000
0100
1000
0100
0010
0001
0010
0001
,
1000
0010
1000
0010
0100
0001
0100
0001
,
1000
1000
0100
0100
0010
0010
0001
0001
,
0100
0100
0010
0010
1000
0100
0010
0001
,
1000
0010
0100
0001
,
0100
0010
1000
0010
,
0100
0000
0001
0100
0010
1000
0010
0100
,
0001
0010
0100
1000
0100
0010
0001
0001
,
0001
1000
0100
0010
,
0001
0000
0000
0100
0000
0000
0010
0000
,
1000
0000
0000
0100
0000
0000
0010
0000
,
0001
0000
1001
0000
0110
0000
1000
0100
,
0010
0001
0100
0010
,
1100
0010
0101
1000
,
0110
0000
0001
0100
0010
1000
0010
0100
,
0001
0000
0001
0000
0000
0000
0000
0000
0001
0000
0000
0100
0000
0000
0010
0000
,
0000
0000
0000
1000
0000
0000
0100
0000
,
0010
0000
0000
0001
0000
0000
0100
0000
,
0010
1000
0100
0010
,
0100
0010
1000
0100
0010
0001
0100
0010
,
1001
0000
0000
0000
0001
0000
0000
0000
1000
0000
0000
1000
0000
0000
1000
0000
,
0001
0100
0010
1000
0100
0010
0001
0100
,
0010
0000
0000
0000
1000
0000
0000
0000
0100
0000
0000
0100
0000
0000
0100
0000
,
0010
0001
0100
0010
1000
0010
0100
0001
,
1000
0000
0100
0000
0010
0001
0010
0000
,
0100
0010
1000
0010
,
0001
0010
0001
0000
1000
0010
0100
0001
,
1000
0110
0001
1100
,
0011
0000
0000
0000
1000
0000
0000
0000
0010
0000
0000
0010
0000
0000
0010
0000
,
1000
0100
0010
0001
0100
0010
1000
0001
,
0100
0000
0000
0000
0010
0000
0000
0000
0001
0000
0000
0001
0000
0000
0001
0000
,
1000
0010
0100
0001
0100
0010
1000
0001
,
1000
0000
0100
0000
0010
0001
0100
0000
,
0010
0000
1000
0000
0100
0010
0001
0000
,
1000
0000
0100
0000
,
0001
0000
0100
0010
,
1000
0100
0010
0001
0100
0010
1000
0010
,
0100
0001
0010
0100
1000
0100
0010
0001
,
1001
0000
0000
0000
;

//---------------dance-single - ----------------
#NOTES:
     dance-single:
     :
     Medium:
     6:
     0.469,0.574,0.231,0.115,0.008:
0000
0000
0000
0000
,
0000
0000
0000
0000
,
0000
0000
0000
0000
,
0000
0000
0000
0000
,
0000
0000
0000
0000
1000
0100
1000
0100
,
0000
0000
0000
0000
0001
0010
0001
0010
,
0000
0000
0000
0000
1000
0001
1000
0001
,
1001
1100
0011
1001
,
1000
0100
0010
0001
,
1000
0010
1000
0010
1000
0010
1000
0000
,
0001
0100
0010
1000
,
0100
0010
0100
0010
0100
0010
0100
0000
,
0001
0100
0010
1000
,
0001
0100
0001
0100
0001
0100
0001
0000
,
1000
0000
0100
0000
0010
0001
0100
0000
,
0010
0000
1000
0000
0001
0100
0010
1000
,
0001
0100
0010
1000
,
0001
0000
0100
0000
0010
1000
0100
0010
,
0001
0100
0010
1000
,
0010
0000
0100
0000
0001
0100
0010
1000
,
0001
0100
0010
1000
,
0100
0000
0010
0000
0001
0100
0010
1000
,
2002
0000
0000
0000
,
0000
3003
1001
0000
,
1001
0000
1000
0000
,
0010
0000
0001
0000
,
0100
0000
0010
0000
,
1000
0000
1001
0000
,
1001
1000
0010
0100
,
0001
0010
0100
1000
,
0100
0010
0001
0100
,
0010
0000
0000
0100
0000
0000
1000
0000
,
0001
0010
0001
0010
0001
0010
0001
0010
,
0001
0010
0001
0010
0001
0010
0001
0010
,
0100
1000
0100
1000
0100
1000
0100
1000
,
0100
1000
0100
1000
0200
0000
0000
0000
,
1300
0010
1000
0010
1000
0010
1000
0010
,
1000
0010
1000
0010
1000
0010
1000
0010
,
0100
0001
0100
0001
0100
0001
0100
0001
,
0100
0001
0100
0001
0200
0000
0000
0000
,
0301
0001
0001
0001
,
1000
1000
1000
1000
,
0010
0010
0010
0010
,
0100
0100
0100
0100
,
0101
1001
1100
1001
,
1010
0110
0011
0110
,
1000
1000
0100
0100
0010
0010
0001
0001
,
1000
0000
0010
0000
0100
0001
1000
0010
,
0100
0001
0100
0010
,
1000
0100
0010
0001
,
0100
0010
2000
0000
,
3001
0000
0100
0000
0010
0000
1000
0100
,
1000
0000
0100
0001
,
0010
0000
0000
1000
0000
0000
0010
0000
,
0100
0000
0000
0001
0000
0000
0010
0000
,
0100
0000
1000
0010
,
1001
1000
0010
0100
,
0001
0100
0010
1000
,
0001
0100
0020
0000
,
1030
0000
0100
0000
0100
0000
0000
0000
0010
0000
0000
0010
0000
0000
0020
0000
,
0000
0000
0000
2030
0000
0000
3200
0000
,
0320
0000
0000
0032
0000
0000
2003
0000
,
3020
0000
0000
0200
0000
0000
0330
0000
,
0001
0010
0100
1000
0010
0100
0001
0010
,
0001
0100
0010
0010
,
1001
0000
1000
0000
0100
0010
0001
1000
,
0010
0100
0001
1000
,
0110
0000
0001
0000
0100
0010
1000
0100
,
1000
0010
0100
0001
,
1000
0100
0010
0001
,
0100
0000
0000
0000
0010
0000
0000
0000
1000
0000
0000
1000
0000
0000
1000
0000
,
0001
0000
0100
0000
0010
0000
1000
0100
,
1000
0010
0100
0001
,
1100
0000
0001
0100
0010
1000
0100
0010
,
0001
0100
0010
1000
,
0101
0000
0010
1000
0100
0010
0001
0100
,
0001
1000
0010
0100
,
0101
1000
0100
0010
,
0011
0000
1001
0000
,
1100
0000
0001
0100
,
1001
1000
0010
0100
,
0001
0001
0100
0100
0010
0010
1000
1000
,
1001
0000
0000
0000
;

//---------------dance-single - ----------------
#NOTES:
     dance-single:
     :
     Beginner:
     1:
     0.189,0.304,0.091,0.000,0.000:
0000
0000
0000
0000
,
0000
0000
0000
0000
,
0000
0000
0000
0000
,
0000
0000
0000
0000
,
0000
0000
1000
0000
,
0000
0000
0001
0000
,
0000
0000
0100
0000
,
0010
0010
0010
0000
,
1000
0000
0000
0000
,
0100
0000
0000
0000
,
0001
0000
0000
0000
,
0100
0000
0000
0000
,
0010
0000
0000
0000
,
0100
0000
0000
0000
,
0001
0001
0001
0000
,
0010
0000
1000
1000
,
1000
0000
0100
0000
,
0010
0000
0001
0000
,
0100
0000
0010
0000
,
1000
0000
0100
0000
,
0010
0000
0001
0000
,
0100
0000
0010
0000
,
1001
0000
0000
0000
,
0000
0000
1001
0000
,
1001
0000
0000
0000
,
0000
0000
0000
0000
,
1000
0000
0000
0000
,
0000
0000
0000
0000
,
0001
0000
0000
0000
,
1000
0000
0000
0000
,
0010
0000
0000
0000
,
0100
0000
0100
0000
,
1000
1000
1000
1000
,
1000
1000
1000
1000
,
1000
1000
1000
1000
,
1000
1000
1000
0000
,
0001
0001
0001
0001
,
0001
0001
0001
0001
,
0001
0001
0001
0001
,
0001
0001
0001
0000
,
0100
0100
0100
0100
,
0100
0100
0100
0000
,
0010
0010
0010
0010
,
0010
0010
0010
0000
,
1000
1000
1000
0000
,
0001
0001
0001
0000
,
0100
0000
0010
0000
,
0100
0100
0100
0000
,
1001
0000
0000
0000
,
1000
0000
0010
0000
,
0100
0000
0000
0000
,
0001
0000
0000
0000
,
0100
0000
0010
0000
,
1000
0000
0100
0000
,
0010
0000
0000
0000
,
0001
0000
0100
0100
,
0100
0000
0000
0000
,
0010
0000
1000
0000
,
0100
0000
0000
0000
,
0001
0000
0100
0100
,
0100
0000
0010
0000
,
1000
0000
0100
0000
,
0001
0000
0000
0000
,
0100
0000
0010
0000
,
1001
0000
0000
0000
,
1000
0000
0001
0000
,
1001
0000
0000
0000
,
0100
0000
0010
0000
,
0110
0000
0000
0000
,
1000
0000
0000
0000
,
0010
0000
0100
0000
,
0001
0000
0000
0000
,
1001
0000
0000
0000
,
1000
0000
0001
0000
,
1001
0000
0000
0000
,
0100
0000
0010
0000
,
0110
0000
0000
0000
,
1000
0000
0000
0000
,
0010
0000
0100
0000
,
0001
0000
0010
0010
,
0010
0000
0000
0000
,
0100
0100
0100
0000
,
1001
0000
0000
0000
;

//---------------dance-single - Copied from MASTER----------------
#NOTES:
     dance-single:
     Copied from MASTER:
     Challenge:
     12:
     1.000,1.000,1.000,0.091,0.708: // measure 1
0000
0000
0000
0000
,  // measure 2
0000
0000
0000
0000
,  // measure 3
0000
0000
0000
0000
,  // measure 4
0000
0000
0000
0000
,  // measure 5
0000
0000
0000
0000
,  // measure 6
1000
0000
0000
0100
0000
0000
0010
0000
0001
0010
0001
0000
0100
0000
0010
0000
,  // measure 7
1000
0000
0000
0010
0000
0000
0100
0000
0001
0100
0001
0000
0100
0000
0010
0000
,  // measure 8
1000
0000
0000
0001
0000
0000
0100
0000
0010
0100
0010
0000
1000
0000
0100
0000
,  // measure 9
1000
0000
1000
0000
0010
0000
0010
0000
0100
0001
0000
0001
0100
0000
0010
0000
,  // measure 10
1000
0100
0010
0001
0100
0010
1000
0010
,  // measure 11
0100
0000
0001
0000
0010
0000
0100
0000
1000
0100
0010
0000
0002
0000
0000
0000
,  // measure 12
1003
1000
0010
0100
0001
0010
0100
1000
,  // measure 13
0100
0000
0010
0000
0001
0000
0100
0000
0010
1000
0100
0000
2000
0000
0000
0000
,  // measure 14
3100
0100
0010
0001
0010
0100
1000
0010
,  // measure 15
0100
0000
0001
0000
0010
0000
0100
0000
0010
0001
1000
0000
0200
0000
0300
0000
,  // measure 16
0110
0000
0000
0000
1001
0000
0000
0000
1100
0000
1001
0000
0001
0100
0001
0000
,  // measure 17
1100
0100
0110
0010
0001
0001
0001
0001
,  // measure 18
1000
0100
0010
0001
0100
0010
1000
0010
0100
0001
0010
0100
1000
0100
0010
0001
,  // measure 19
0100
0010
1000
0100
1000
0010
0100
0001
0010
0100
1000
0100
0010
0001
0010
0100
,  // measure 20
1000
0100
1000
0100
0010
0001
0010
0001
1000
0010
1000
0010
0100
0001
0100
0001
,  // measure 21
0100
0010
0100
0010
1000
0001
1000
0001
1000
0010
1000
0010
0100
0001
0100
0001
,  // measure 22
1000
0010
1000
0010
0100
0001
0010
0100
1000
0001
0010
0100
1000
0010
0100
0001
,  // measure 23
1000
0010
0100
0001
0010
0100
1000
0100
0010
0001
0100
0010
1000
0010
0100
0001
,  // measure 24
1000
0001
1000
0001
1000
0001
1000
0001
1000
0001
1000
0001
1000
0001
1000
0001
,  // measure 25
1000
0001
1000
0001
1000
0001
1000
0001
1000
0100
1000
0000
0001
0100
0001
0000
,  // measure 26
0001
0101
0000
0110
0000
1010
0000
1001
,  // measure 27
0000
1100
0000
0110
0000
0011
0000
1001
,  // measure 28
0000
1100
0000
1001
0000
0101
0000
0110
,  // measure 29
0000
0000
1010
0000
0000
0000
1001
0000
1000
0100
0010
0000
0001
0000
0100
0000
,  // measure 30
1001
0000
1000
0100
0010
0000
0001
0000
0100
0000
0100
0000
0001
0010
0100
1000
,  // measure 31
0001
0000
0100
0010
1000
0000
0001
0000
0100
0000
0100
0000
0010
1000
0010
0100
,  // measure 32
0001
0000
0010
0100
1000
0000
0100
0000
0010
0000
0001
0000
0100
0010
1000
0001
,  // measure 33
1000
0100
1000
0000
0000
0000
0001
0010
0001
0000
0000
0000
1000
0001
1000
0000
,  // measure 34
1100
0100
0110
0010
0011
0001
1001
1000
,  // measure 35
1010
0010
0110
0100
0101
0001
1001
1000
,  // measure 36
1010
0010
0110
0100
0101
0001
1001
1000
,  // measure 37
1100
0100
0110
0010
0011
1001
2200
3300
,  // measure 38
1001
1000
1010
0010
0110
0100
0101
0001
,  // measure 39
1001
1000
1100
0100
0110
0010
0011
0001
,  // measure 40
1001
1000
1010
0010
0110
0100
0101
0001
,  // measure 41
0011
0000
0010
0000
0110
0000
0100
0000
1000
0100
0010
0001
2000
0000
3100
0000
,  // measure 42
1000
0100
1000
0000
0001
0010
0001
0000
1000
0010
1000
0000
0001
0100
0001
0000
,  // measure 43
0010
0100
0010
0000
1000
0001
1000
0000
0001
0010
0001
0000
0100
0010
0100
0000
,  // measure 44
0001
0010
0100
0000
1000
0100
0010
0000
0001
0100
0010
0000
1000
0010
0100
0000
,  // measure 45
0001
1000
0010
0000
1000
0001
0010
0000
0001
1000
0100
0000
1000
0001
0100
0000
,  // measure 46
1001
1000
1100
0100
0110
0010
0011
0001
,  // measure 47
1001
1001
1100
1100
0011
0011
0101
0101
,  // measure 48
1100
0000
0100
0000
0110
0000
0010
0000
0001
0010
0001
0000
1001
0000
1000
0000
,  // measure 49
1010
0000
0100
0000
0011
0000
1000
0000
0001
0100
0020
0000
0000
0000
1000
0000
,  // measure 50
1030
0000
0100
0000
0010
0000
0001
0000
1001
0000
0000
1100
0000
0000
0011
0000
,  // measure 51
1001
0000
1000
0000
0010
0000
0100
0000
1001
0000
0000
1100
0000
0000
0011
0000
,  // measure 52
1001
1000
1100
0100
0110
0011
0001
1001
,  // measure 53
1000
1100
0110
0001
1001
1000
1100
0110
,  // measure 54
0011
0001
0100
0010
1010
1000
1100
0100
,  // measure 55
0110
0010
0001
1001
1000
0010
0110
0100
,  // measure 56
0101
0001
1000
1001
1000
0100
1100
1000
,  // measure 57
1001
0000
1000
0000
0010
0000
0100
0000
0101
0000
0000
1010
0000
0000
1001
0000
,  // measure 58
1001
0000
1000
0000
0010
0000
0100
0000
0101
0000
0000
1001
0000
0000
1000
0100
,  // measure 59
0010
0001
0100
0010
0110
0100
0001
1000
,  // measure 60
1001
0001
0110
0100
0101
1001
1000
1100
,  // measure 61
0100
0000
0110
0000
0011
0000
0001
0000
1001
0000
0000
0110
0000
0000
1001
0000
,  // measure 62
1000
0010
0100
0101
1000
0100
0110
0010
,  // measure 63
0011
0001
1000
1010
0010
0100
0101
0001
,  // measure 64
1001
1000
0100
0011
0001
0100
0010
1000
,  // measure 65
0001
0100
0010
1000
0010
0100
0001
0010
0100
1000
0100
0010
0001
0100
0010
1000
,  // measure 66
1001
0000
1000
0000
1010
0000
0010
0000
0110
0000
0000
1001
0000
0000
0101
0000
,  // measure 67
1001
0000
1000
0100
0010
0001
0100
0010
1000
0100
0000
0010
0002
0000
0203
0000
,  // measure 68
0301
0000
0100
0000
0110
0000
0010
0000
1010
0000
0000
1001
0000
0000
0101
0000
,  // measure 69
0001
0010
0100
0000
1000
0010
0100
0001
0100
0010
1000
0010
0100
0001
0010
0001
,  // measure 70
1000
0000
0100
0000
0110
0000
0010
0000
0011
0000
0000
1001
0000
0000
1010
0000
,  // measure 71
1000
1100
0100
0110
0011
0001
1001
1000
,  // measure 72
1010
0000
0010
0000
0110
0000
0100
0000
0101
0000
0000
1001
0000
0000
1100
0000
,  // measure 73
1000
0100
0010
0001
0100
0010
1000
0010
0100
0001
0010
0100
1000
0100
0010
0001
,  // measure 74
1000
0000
1000
0000
1010
0000
0010
0000
0110
0000
0000
0101
0000
0000
1001
0000
,  // measure 75
1001
0000
1000
0001
0100
0010
1000
0001
1000
0001
0000
0001
2000
0000
3020
0000
,  // measure 76
1030
0000
0001
0000
1001
0000
1000
0000
1010
0000
0000
0110
0000
0000
0101
0000
,  // measure 77
0001
0100
0010
0000
1000
0100
0010
0001
0100
0010
1000
0010
0100
0001
0010
0100
,  // measure 78
1000
0000
0010
0000
1010
0000
0010
0000
0110
0000
0000
0101
0000
0000
1010
0000
,  // measure 79
1000
1100
0100
0110
0110
0010
0011
0001
,  // measure 80
1001
1000
0010
0100
0110
0100
0001
0010
,  // measure 81
0011
0000
0001
0000
1000
0000
0110
0000
0110
0000
0000
1001
0000
0000
0110
0000
,  // measure 82
1001
0000
1000
0010
0100
0001
0010
0100
1000
0100
0010
0001
0100
0010
1000
0001
,  // measure 83
0100
0000
0001
0010
0001
0000
1000
0100
1000
0000
0010
0100
0010
0000
1000
0001
,  // measure 84
1001
0000
0000
0000
;
