#TITLE:Marisa Stole the Precious Thing;
#SUBTITLE:-Ambition of the DAWNTO Count-;
#ARTIST:REDALICE;
#TITLETRANSLIT:;
#SUBTITLETRANSLIT:;
#ARTISTTRANSLIT:;
#CREDIT:;
#BANNER:Marisa Stole the Precious Thing - BN.png;
#BACKGROUND:Marisa Stole the Precious Thing - BG.png;
#LYRICSPATH:;
#CDTITLE:cdtitlegpop.png;
#MUSIC:Marisa Stole the Precious Thing -Ambition of the DAWNTO Count-.ogg;
#OFFSET:-1.000;
#SAMPLESTART:95.680;
#SAMPLELENGTH:11.980;
#SELECTABLE:YES;
#BPMS:0.000=21.600,2.000=87.500,4.000=175.000,32.000=350.001,35.000=175.000,64.000=350.001,67.000=175.000,96.000=87.500,98.000=175.000,129.000=35.030,130.000=43.750,145.000=87.500,175.000=350.001,177.500=175.000;
#STOPS:32.000=0.160
,33.000=0.180
,34.000=0.180
,64.000=0.120
,64.750=0.140
,65.500=0.120
,66.000=0.140
,175.000=0.120
,175.750=0.140
,176.500=0.140
;
#BGCHANGES:;

//---------------dance-single - ----------------
#NOTES:
     dance-single:
     :
     Challenge:
     11:
     0.775,1.000,0.254,0.254,0.631: // measure 1
0000
0000
0000
0000
0000
0000
0000
0000
0000
0000
0000
0000
0000
0000
0000
0000
1000
0000
0001
0000
1000
0100
1000
0000
0001
0100
0001
0000
1001
0000
0000
0000
,  // measure 2
1000
0100
0010
0001
1000
1000
0100
0100
,  // measure 3
0010
0001
0100
0010
1000
1000
0001
0001
,  // measure 4
1000
0010
0100
0001
0010
0010
0100
0100
,  // measure 5
1000
0010
0100
0010
1000
1000
0001
0001
,  // measure 6
0100
0010
1000
0010
0100
0100
0001
0001
,  // measure 7
1000
0100
0010
0001
0100
0100
0001
0001
,  // measure 8
1000
0010
0100
0010
0100
0100
0010
0010
,  // measure 9
M22M
0330
0000
0000
0000
0000
0000
0000
2MM2
3003
0000
0000
0000
0000
0000
0000
M22M
0330
0000
0000
0000
0000
0000
0000
1MM1
0000
0000
0000
0001
0000
0000
0000
,  // measure 10
1MM1
010M
10M0
010M
10M0
010M
10M0
010M
,  // measure 11
10M0
0M01
10M0
0M01
10M0
0100
0010
0001
,  // measure 12
100M
01M0
100M
01M0
100M
01M0
100M
01M0
,  // measure 13
100M
0M10
100M
0M10
200M
0001
3002
1000
,  // measure 14
1M03
001M
1M00
001M
1M00
001M
1M00
001M
,  // measure 15
1M00
00M1
1M00
00M1
1M00
0010
0100
0001
,  // measure 16
10M0
0000
0M01
0000
10M0
0000
0M01
0000
10M0
0000
0M01
0000
10M0
0100
0010
0001
,  // measure 17
1M00
0000
0000
11MM
0000
0000
M11M
0000
MM11
0000
0001
0000
1MM0
0000
0001
0000
,  // measure 18
2000
0100
3200
0010
0320
0001
0031
0100
,  // measure 19
0010
0000
0000
1000
0000
0000
0001
0000
0100
0000
0020
0000
1030
0000
0100
0000
,  // measure 20
2000
0001
3002
0100
0203
0010
0310
1000
,  // measure 21
0001
0010
0100
1000
0001
0000
0100
0000
0001
0000
0001
0000
1001
0000
1000
0000
,  // measure 22
0001
0000
0010
0000
0001
0100
0001
0000
2000
0000
0000
0000
3002
0000
0000
0000
,  // measure 23
1003
0100
1000
0000
0001
0100
0001
0000
2000
0000
0000
0000
3002
0000
0000
0000
,  // measure 24
1003
0100
0010
0000
0001
0010
0100
0000
1000
0010
0100
0000
0001
0100
0010
0000
,  // measure 25
100M
0100
002M
0000
M000
0032
0M00
0000
10M3
0000
0010
0000
0100
0000
0001
0000
,  // measure 26
0010
0100
2000
0100
3001
0001
0100
0100
,  // measure 27
0010
1000
0200
1000
0310
0010
0001
0100
,  // measure 28
0010
0000
1000
0000
0200
0000
1000
0000
0310
0001
1000
0000
0010
0000
0100
0000
,  // measure 29
0001
2000
3002
1000
1003
1000
0010
0200
,  // measure 30
0301
0001
0010
0002
0103
0100
0010
2000
,  // measure 31
3010
0000
0010
0000
0100
0000
0020
0000
1030
0100
1000
0100
0010
0001
0010
0001
,  // measure 32
1000
0010
1000
0010
0100
0001
0100
0001
10M0
0000
1000
0000
0M01
0000
0001
0000
,  // measure 33
10M0
0100
0000
0010
0002
0000
0000
0000
0000
0000
0000
0000
0000
0000
0000
0000
,  // measure 34
1003
1000
0001
0001
1000
1000
0001
0001
1000
1000
0001
0001
1000
1000
0001
0001
,  // measure 35
1000
1000
0001
0001
1000
1000
0001
0001
1000
1000
0001
0001
1000
1000
0001
0001
,  // measure 36
1000
1000
0001
0001
1000
1000
0001
0001
1000
1000
0001
0001
1000
1000
0001
0001
,  // measure 37
1000
0000
1000
0000
0001
0000
0001
0000
1001
0000
0000
0000
1000
0000
0000
0000
0010
0000
0000
0000
0100
0000
0000
0001
1000
0000
0000
0000
0010
0000
0000
0000
,  // measure 38
1100
0000
0001
0000
0110
0000
1000
0000
0001
0100
0000
0110
0000
0010
1000
0000
,  // measure 39
1001
0000
1000
0100
0010
0000
0001
0000
1100
0000
0110
0000
0011
0000
0001
0100
,  // measure 40
0000
0010
1000
0001
1000
0000
0100
0010
0000
0001
0010
0100
1000
0000
0001
0000
,  // measure 41
1000
0000
0000
0100
0000
0000
0001
0000
1001
0000
0000
0000
1001
0000
0000
0000
1000
0000
0000
0000
0010
0000
1000
0100
1000
0000
0000
0000
0010
0000
0000
0000
,  // measure 42
0101
0000
0010
0000
1100
0000
1001
0000
1000
0100
0000
0110
0000
0010
0001
0000
,  // measure 43
1001
0000
0000
1001
0000
0000
1001
0000
1000
0100
1000
0100
1000
0100
1000
0100
1000
0100
1000
0100
1000
0100
1000
0100
0010
0001
0010
0001
0010
0001
0010
0001
,  // measure 44
0010
0001
0010
0001
0010
0001
0010
0001
1000
0010
1000
0010
1000
0010
1000
0010
0100
0001
0100
0001
0100
0001
0100
0001
10M0
0000
0000
0000
0000
0000
M11M
0000
,  // measure 45
0000
0000
1001
0000
MMMM
0000
1001
0000
1000
0001
1000
0001
1000
0000
0010
0000
,  // measure 46
0100
0000
0001
0010
0100
0000
1000
0000
0010
0000
0100
0000
0001
0000
0010
0000
,  // measure 47
1000
0010
0001
0100
0010
1000
0001
0010
,  // measure 48
0100
0000
1000
0100
0010
0000
0001
0000
1000
0000
0100
0000
0010
0000
0001
0000
,  // measure 49
1000
0000
0010
0000
1000
0100
1000
0010
1000
0000
0001
0010
0100
0000
1000
0000
,  // measure 50
0001
0000
0100
0000
0010
0000
1000
0100
1000
0000
0100
0000
0001
0000
0100
0000
,  // measure 51
1000
0000
0010
0100
0001
0000
1000
0000
0001
0000
1000
0000
0100
0000
0010
0000
,  // measure 52
0001
0100
0000
0100
0010
1000
0001
0100
0001
0000
1000
0100
0010
0001
0000
0001
,  // measure 53
0100
0000
0000
0000
0000
0000
0100
0000
0000
0010
0000
0000
0000
0000
0000
0010
0000
0000
1000
0000
0000
0000
0000
0000
0001
0000
1000
0000
0001
0000
1000
0000
0001
0000
1000
0000
0001
0000
0000
0000
0000
0000
0100
0000
0000
0000
0000
0000
,  // measure 54
0010
0000
1000
0100
0010
0000
0001
0000
0100
0000
1000
0000
0100
0000
0001
0000
,  // measure 55
0010
1000
0010
0001
0100
0010
1000
0100
,  // measure 56
0001
0000
0100
1000
0001
0000
0100
0000
0010
0000
1000
0000
0100
0000
0001
0000
,  // measure 57
0100
0000
0010
0000
0001
0010
0001
0100
0001
0000
1000
0100
0010
0000
0001
0000
,  // measure 58
0100
0000
0010
0000
0001
0000
0010
0100
0001
0000
1000
0000
0100
0000
0010
0000
,  // measure 59
0001
0000
0010
0100
1000
0000
0001
0000
1000
0000
0010
0000
0100
0000
0001
0000
,  // measure 60
1000
0100
0000
0100
1000
0010
0100
0001
1000
0000
0001
0010
0100
1000
0000
1000
,  // measure 61
0001
0000
0001
0100
0000
0100
0010
0000
0010
1000
0000
1000
1MM1
0000
MMMM
0000
;

//---------------dance-single - ----------------
#NOTES:
     dance-single:
     :
     Hard:
     8:
     0.545,0.548,0.180,0.189,0.156:
0000
0000
0000
0000
0000
0000
0000
0000
1000
0100
1000
0100
0010
0001
1001
0000
,
1000
1000
0100
0010
0001
0100
0010
0010
,
1000
1000
0001
0010
0100
1000
0001
0001
,
0100
0100
0010
1000
0010
0100
0010
0010
,
1000
1000
0001
0010
0100
1000
0100
0100
,
0010
0010
0001
0010
0001
0100
0010
0010
,
1000
1000
0001
0100
0010
1000
0001
0001
,
0010
0010
0001
0100
0010
0100
0001
0001
,
1001
1001
1001
1001
,
1000
0100
1000
0100
1000
0100
1000
0100
,
1000
0100
1000
0100
1000
0100
0010
0001
,
1000
0001
1000
0001
1000
0001
1000
0001
,
1000
0001
1000
0001
2000
0000
3002
0000
,
1003
0010
1000
0010
1000
0010
1000
0010
,
1000
0010
1000
0010
1000
0010
0100
0001
,
1000
0001
1000
0001
1000
0001
1000
0001
,
1000
0000
0000
0100
0000
0000
0010
0000
0001
0000
0000
0000
1001
0000
0000
0000
,
2000
0000
3020
0000
0230
0000
0301
0010
,
0100
0000
0000
0100
0000
0000
0100
0000
0100
0000
1000
0000
0010
0000
0100
0000
,
0002
0000
0023
0000
0230
0000
1300
0010
,
1000
0100
1000
0000
0010
0000
0100
0000
0001
0000
0001
0000
1001
0000
0000
0000
,
2000
0000
3010
0100
0002
0000
1000
0000
,
1003
0100
1000
0100
2000
0000
0001
0000
,
3001
0100
0001
0100
0010
1000
0010
1000
,
0001
1000
0001
0000
0000
0200
0000
0000
0301
0000
0010
0000
0100
0000
1000
0000
,
0010
0100
0001
0000
1000
0010
0100
0001
,
0100
0010
1000
0000
0001
0010
0100
1000
,
0010
0100
0001
0000
0100
0010
1000
0010
,
0100
0001
0001
0000
1000
0100
0010
0010
,
0001
0100
0010
0010
1000
0010
0100
0100
,
0001
0010
0001
0001
1001
0000
0101
0000
,
0110
0000
1010
0000
1001
1000
0010
0100
,
0001
1000
0000
0001
2000
0000
0000
0000
0000
0000
0000
0000
0000
0000
0000
0000
,
0000
0000
0000
0000
,
0000
0000
0000
0000
,
0000
0000
0000
0000
,
0000
0000
0000
0000
3001
0000
0000
0000
0100
0000
0000
0010
1000
0000
0000
0000
,
0101
0000
0000
0000
2001
0000
0001
0000
0001
0001
0000
0001
0000
0001
0001
0000
,
3001
0000
0100
0010
0100
0000
0000
0000
0001
0000
1000
0000
0100
0000
0000
0010
,
0000
0000
0001
0000
0001
0000
0000
0100
0000
0000
0010
0000
1000
0000
0000
0000
,
0001
0000
0000
0100
0000
0000
1000
0000
1001
0000
0000
0000
1000
0000
0000
0000
0001
0000
0000
0000
0000
0000
1000
0000
1000
0000
0000
0000
0010
0000
0000
0000
,
0101
0000
0010
0000
1001
0000
1000
0000
0100
0010
0000
0001
0000
1000
1000
0000
,
0001
0000
0000
0100
0000
0000
0020
0000
0000
0000
0000
0000
0000
0000
2030
0000
0000
0000
0000
0000
3002
0000
0000
0000
0023
0000
0000
0000
0000
0000
0230
0000
,
0000
0000
2300
0000
3002
0000
0000
2000
0000
0000
3003
0000
1001
0000
0000
1001
,
0000
1001
0000
1000
0001
0000
1001
1000
,
0100
0010
0001
0100
0010
1000
0010
0100
,
0010
1000
0010
0100
0001
0010
1000
0010
,
0001
0100
1000
0100
0001
0010
0100
1000
,
0010
0100
0001
1000
0100
1000
0010
0100
,
0001
0100
0001
0100
0010
1000
0010
0100
,
0001
0100
0010
1000
0100
0010
0001
0100
,
0010
0000
0100
0000
0001
0000
0010
0000
1000
0000
0010
0000
0001
1000
0000
0001
,
1000
0000
0001
1000
0000
0001
1000
0000
0002
0000
0000
0000
1003
0000
0100
0000
,
0001
0100
1000
0010
0100
0001
0010
1000
,
0010
0100
1000
0010
0100
1000
0100
0001
,
0010
0100
1000
0010
0100
0001
0010
0100
,
0001
0100
1000
0010
0100
0001
0100
0010
,
1000
0010
0100
0001
0010
0100
1000
0100
,
0010
0100
0010
0001
0100
1000
0100
0001
,
0100
0000
1000
0000
0100
0000
0001
0000
0010
0000
0100
0000
1000
0001
0000
1000
,
0001
0000
1000
0001
0000
1000
0001
0000
1000
0001
0000
0000
1001
0000
0000
0000
;

//---------------dance-single - ----------------
#NOTES:
     dance-single:
     :
     Medium:
     6:
     0.377,0.374,0.123,0.049,0.012:
0000
0000
0000
0000
1000
0001
1000
1001
,
1001
0000
1000
0000
0010
0000
0100
0001
,
1000
0000
0001
0000
0010
0000
0100
1000
,
0100
0000
0010
0000
0001
0000
0100
0100
,
0010
0000
1000
0000
0001
0000
1000
1000
,
0001
0000
0010
0000
0100
0000
1000
1000
,
0100
0000
0010
0000
0001
0000
0100
0010
,
0100
0000
0001
0000
1000
0000
0001
1000
,
1001
1001
1001
1001
,
1001
1000
0000
0010
0000
0100
0000
0001
,
0000
0010
0000
0001
1000
0001
1000
0001
,
1000
1000
0000
0010
0000
0100
0000
0001
,
0000
0010
0000
0100
0200
0000
0320
0000
,
0031
0001
0000
0100
0000
0010
0000
0100
,
0000
0001
0000
1000
0100
1000
0100
1000
,
0100
0100
0000
0010
0000
0001
0000
1000
,
0001
0000
0000
0001
0000
0000
0001
0000
0001
0000
0000
0000
0001
0000
0000
0000
,
1000
1000
1000
0010
,
0100
0001
1000
0000
0001
0010
0001
0000
,
0100
0100
0100
0010
,
1000
0100
0010
0001
1000
1000
1000
0000
,
0001
0010
0001
0000
1000
0000
1000
0000
,
0010
0100
0010
0100
0010
0000
0010
0000
,
1000
0001
1000
0001
1000
0001
1000
0001
,
2000
0000
0000
0000
0000
0001
0000
0000
3001
0000
0100
0000
0010
0000
0000
0000
,
1000
0000
0101
0000
0010
0100
0001
0100
,
0010
0000
1100
0000
0001
0010
0100
0000
,
1000
0000
1001
0000
0100
0010
1000
0000
,
0001
1000
1000
0000
0010
0100
0001
0000
,
1000
0100
0010
0000
0001
0010
0100
0000
,
1000
0001
0010
0100
0100
0000
1100
0000
,
0101
1001
1000
0100
,
0010
0001
2000
0000
0000
0000
0000
0000
,
0000
0000
0000
0000
,
0000
0000
0000
0000
,
0000
0000
0000
0000
,
0000
3001
0100
0010
,
0010
0000
0020
0100
0100
0100
0100
0100
,
0130
0001
0001
0000
0010
0000
0100
0000
,
1000
0010
0010
0010
,
0100
1001
0000
0001
,
0010
0000
0002
1000
1000
1000
1003
0010
,
0100
0001
1000
0000
0001
0000
0010
0000
,
0100
0000
0000
0000
1000
0000
0100
0000
1000
0000
0001
0000
1000
0000
0000
1000
,
0000
1000
0000
0001
1000
0000
0001
0100
,
0010
0000
1000
0000
0100
0000
0010
0001
,
0010
0000
0100
0000
1000
0000
0010
0100
,
0001
0000
0100
0000
0010
0000
1000
0100
,
0010
0000
0001
0000
0100
0000
0010
1000
,
0010
0000
0100
0000
0001
0000
0010
0100
,
1000
0000
0100
0000
0010
0000
0100
0010
,
0001
0000
0100
0000
0010
0000
1000
0100
,
1000
0100
0010
0001
0010
0001
1000
0010
,
1000
0000
0001
0000
0100
0000
0010
1000
,
0010
0000
0100
0000
0001
0000
0010
0100
,
1000
0000
0100
0000
0010
0000
0001
0100
,
1000
0000
0010
0000
0100
0000
0001
0010
,
1000
0000
0001
0000
0001
0000
0100
0010
,
1000
0000
0001
0000
0010
0000
0100
1000
,
0100
0000
0010
0001
0010
0000
1000
0001
,
1000
0000
0100
0010
1000
0001
1001
0000
;

//---------------dance-single - ----------------
#NOTES:
     dance-single:
     :
     Easy:
     3:
     0.230,0.274,0.049,0.057,0.000:
0000
0000
1001
0000
,
1000
0000
0010
0000
,
0100
0000
0001
0000
,
0001
0000
0010
0000
,
0100
0000
1000
0000
,
1000
0000
0010
0000
,
0001
0000
0100
0000
,
0100
0000
0010
0000
,
1000
1000
1000
1000
,
0001
0001
0001
0001
,
0001
0001
0001
0100
,
0010
0010
0010
0010
,
0010
0010
0110
1001
,
1000
1000
1000
1000
,
1000
1000
1000
0010
,
0100
0100
0100
0100
,
0002
0000
0000
1000
,
1003
1000
1000
0010
,
0100
0000
0001
0000
,
0010
0010
0010
0100
,
1000
0000
0001
0000
,
0100
0010
1000
1000
,
0001
0100
0010
0010
,
1000
1000
0001
0001
,
2000
0000
3001
0000
,
0100
0010
1000
0000
,
0001
0010
0001
0000
,
0100
0010
0100
0000
,
0001
0001
0100
0000
,
0010
0000
1000
0000
,
0001
0000
1000
1000
,
1000
1000
0001
0000
,
0001
0002
0000
0000
,
0000
0000
0000
0000
,
0000
0000
0000
0000
,
0000
0000
0000
0000
,
0000
1003
0000
0100
,
0010
0002
1000
1000
,
1003
0001
0001
0100
,
0000
0010
0000
1000
,
1000
0001
0000
0010
,
0100
2000
0001
3001
,
0100
0010
0000
1000
,
0000
0001
0000
2002
,
0000
0000
3003
1000
,
0100
1000
0100
0010
,
0001
0010
0001
1000
,
0010
1000
0010
0100
,
0001
0100
0001
1000
,
0100
0010
0001
1000
,
0100
0010
0001
1000
,
0010
0100
0001
1000
,
0010
0100
0001
1001
,
1000
0010
0010
0100
,
0001
0010
0010
1000
,
0001
0100
0100
0001
,
0010
0001
0001
0100
,
0010
1000
1000
0010
,
0100
0001
0001
0010
,
0000
0100
0000
1000
,
0000
0001
1000
1001
;

//---------------dance-single - ----------------
#NOTES:
     dance-single:
     :
     Beginner:
     2:
     0.134,0.174,0.049,0.000,0.000:
0000
0000
0000
0000
,
1000
0000
0000
0000
,
1000
0000
0000
0000
,
0001
0000
0000
0000
,
0001
0000
0000
0000
,
0100
0000
0000
0000
,
0100
0000
0000
0000
,
0010
0000
0000
0000
,
1001
0000
0000
0000
,
1000
0000
1000
0000
,
1000
0000
1000
0000
,
0001
0000
0001
0000
,
0001
0000
0001
0000
,
0100
0000
0100
0000
,
0100
0000
0100
0000
,
0010
0000
0010
0000
,
0010
0000
0000
0000
,
1000
1000
1000
0000
,
1000
0000
0000
0000
,
0010
0010
0010
0000
,
0010
0000
0000
0000
,
0100
0100
0100
0000
,
0001
0001
0001
0000
,
1000
0000
0001
0000
,
1001
0000
1000
0000
,
1000
0000
0010
0000
,
0010
0000
0100
0000
,
0100
0000
0001
0000
,
0001
0000
1000
0000
,
0100
0000
0010
0000
,
0001
0000
1000
1000
,
1000
1000
1000
0000
,
0000
1001
0000
0000
,
0000
0000
0000
0000
,
0000
0000
0000
0000
,
0000
0000
0000
0000
,
0000
1000
0000
1000
,
1000
1000
0000
0000
,
0000
0001
0000
0100
,
0000
0010
0000
1000
,
0000
1001
0000
0001
,
0001
0001
0000
0000
,
0100
0100
0000
0010
,
0000
1000
0000
1001
,
0000
0000
0000
1000
,
0000
1000
0000
0100
,
0000
0100
0000
0010
,
0000
0010
0000
0001
,
0000
0001
0000
1000
,
0000
1000
0000
0010
,
0000
0010
0000
0100
,
0000
0100
0000
0001
,
0000
0001
0000
1000
,
0000
0100
0000
1000
,
0000
0100
0000
0010
,
0000
0001
0000
0010
,
0000
0001
0000
1000
,
0000
0010
0000
0100
,
0000
0001
0000
1000
,
0000
0001
0000
0100
,
0000
0001
0000
1001
;
