#TITLE:Maiden's Capriccio;
#SUBTITLE:~ Dream Battle;
#ARTIST:ZUN;
#TITLETRANSLIT:;
#SUBTITLETRANSLIT:;
#ARTISTTRANSLIT:;
#GENRE:;
#CREDIT:;
#BANNER:maidenscapriccio-banner.png;
#BACKGROUND:maidenscapriccio-bg.png;
#LYRICSPATH:;
#CDTITLE:cdtitleGpop.png;
#MUSIC:maidenscapriccio.ogg;
#OFFSET:-3.940;
#SAMPLESTART:36.940;
#SAMPLELENGTH:12.000;
#SELECTABLE:YES;
#BPMS:0.000=80.000,3.500=160.000,76.000=150.000,78.000=143.000,80.000=136.000,82.000=128.000,83.000=160.000,244.000=80.000,260.000=160.000;
#STOPS:3.500=0.185
,82.750=0.020
;
#BGCHANGES:;
#KEYSOUNDS:;

//---------------dance-single - ----------------
#NOTES:
     dance-single:
     :
     Challenge:
     13:
     1.000,1.000,0.831,0.222,1.000:
0000
0000
0000
0000
0000
0000
0000
1001
,
11MM
0000
0000
0000
1MM1
0000
0000
0000
M11M
0000
0000
0011
0000
0000
1MM1
0000
,
0000
0000
0101
0000
M1M1
0000
0000
0000
M11M
0000
0000
1010
0000
0000
1000
0100
,
100M
0000
0000
0000
M1M1
0000
0000
0000
M11M
0000
0000
1010
0000
0000
1MM1
0000
,
0000
0000
1100
0000
11MM
0000
0000
0000
M11M
0000
0000
0011
0000
0000
1001
0000
,
1MM1
0000
0000
0000
M1M1
0000
0000
0000
M11M
0000
0000
1010
0000
0000
1MM1
0000
,
0000
0000
1100
0000
MM11
0000
0000
0000
M1M1
0000
0000
1001
0000
0000
1000
0100
,
001M
0000
0000
0000
MM11
0000
0000
0000
M11M
0000
0000
1010
0000
0000
1MM1
0000
,
0000
0000
0101
0000
M1M1
0000
0000
0000
M11M
0000
0000
0110
0000
0000
1MM1
0000
,
1000
0100
0010
0001
0100
0010
1000
0010
0100
0001
0010
0100
1000
0001
0010
0100
,
1000
0100
0010
0001
0100
0010
1000
0100
0010
0100
1000
0010
0100
0001
0100
0010
,
1000
0100
0010
0001
1000
0100
0010
0001
1000
0010
0100
0001
1000
0010
0100
0001
,
1000
0100
0010
0001
0010
0100
1000
0100
0010
0001
0100
0010
1000
0001
0010
0001
,
1000
0100
0010
0001
00M0
0001
0010
0100
1000
0100
1000
0M00
0001
0100
0001
M000
,
0001
0010
0100
1000
0010
0100
0001
0010
0100
1000
0100
0010
0001
0100
0010
1000
,
0100
1000
0100
0010
0001
0010
0001
0100
0010
1000
0100
0010
0001
0010
0100
1000
,
0001
0100
0010
1000
0100
1000
0001
0010
0001
0100
0010
1000
0010
0100
0001
0010
,
0001
0010
0100
1000
0100
0010
0001
0010
0100
1000
0100
0010
M000
0001
0100
0010
,
1000
0100
0010
0001
0010
0100
1000
0010
0100
0001
0010
0001
0100
0010
1000
0100
,
100M
0100
0010
0001
0010
0001
0100
0010
100M
0100
0010
0001
0010
0100
1000
0100
,
M010
0001
0100
0010
1000
0100
1000
0001
0M10
0001
1000
0001
10M1
0000
1100
0000
,
012M
0000
0031
1001
12M0
0000
0310
0001
,
2M01
0000
0000
0000
3010
0000
0100
0001
10M0
0000
1100
0000
M110
0000
0011
0000
,
2M01
0000
3010
0110
M201
0000
0310
1000
,
10M1
0000
1000
0100
0010
0001
0010
0100
1000
0010
0100
0001
0010
0001
0100
0010
,
201M
0000
3100
0110
M012
0000
1003
0010
,
M210
0000
0000
0000
0301
0000
1000
0100
001M
0000
0011
0000
10M1
0000
1100
0000
,
012M
0000
0000
0000
0031
0000
1001
0000
21M0
0000
0002
0000
3000
0000
1003
0100
,
1000
0010
0100
0001
0010
0001
0100
0010
1000
0100
0010
0001
0010
0100
1000
0100
,
210M
0000
3001
1001
02M1
0000
0310
1000
,
10M2
0000
0000
0000
1003
0000
0010
0100
M001
0000
1001
0000
11M0
0000
0110
0000
,
M012
0000
1003
1010
021M
0000
0301
1000
,
10M1
0000
1000
0100
0010
0001
0010
0100
1000
0010
0100
0001
0100
0010
1000
0001
,
2M01
0000
3010
0110
M102
0000
1003
0100
,
M120
0000
0000
0000
0031
0000
0100
0010
100M
0000
1100
0000
011M
0000
0011
0000
,
2M01
0000
0000
0000
3010
0000
0110
0000
M102
0000
2000
0000
0003
0000
3001
0010
,
0001
0100
0010
1000
0100
0010
0001
1000
0100
1000
0001
0010
0001
0100
0010
1000
,
0001
0010
0001
0010
0100
1000
0010
0100
0001
0010
0001
0100
0010
1000
0010
0100
,
0001
0010
0100
1000
0100
0010
0001
0100
0010
1000
0010
0100
0001
0010
0100
1000
,
0001
0100
0001
0100
0010
1000
0100
0010
0001
0010
0100
1000
0010
0100
0001
0010
,
0001
1000
0100
1000
0010
0100
0001
0010
0100
1000
0100
0010
0001
0100
0001
1000
,
0001
0010
0001
0010
0100
1000
0010
0100
0001
0100
0010
1000
0100
0010
0100
1000
,
0010
0100
0001
0010
0100
1000
0100
0010
0001
0100
0010
1000
0001
0010
0100
1000
,
0001
0100
0001
0100
0010
1000
0100
0010
0001
1000
0100
0010
0001
0100
0010
1000
,
0001
0100
0010
1000
0100
0010
0001
0100
0010
1000
0100
1000
0010
0100
0001
1000
,
0001
0100
0010
1000
0001
0100
0010
1000
0001
0010
0100
1000
0001
0010
0100
1000
,
0001
0100
0010
1000
0010
0100
0001
0010
0100
1000
0100
0010
0001
0100
0010
1000
,
0001
0100
1000
0100
0001
0010
0100
1000
0100
0010
0001
0100
0010
1000
0010
0100
,
0001
0010
1000
0010
0001
0100
0010
1000
0100
0010
0001
0010
0100
1000
0001
1000
,
0001
0010
1000
0010
0001
0100
0010
1000
0100
0010
0001
1000
0100
0010
0001
0100
,
0010
0100
0001
0010
0001
0100
0010
0100
0001
1000
0001
0100
0010
1000
0100
0010
,
0001
0100
1000
0100
0001
0100
0010
1000
0100
0010
0001
0010
0100
1000
0010
0100
,
0004
4000
0000
0000
0000
0000
0000
0000
0000
0000
0000
0000
0000
0000
3003
0000
,
1000
0010
0100
0001
0010
0100
1000
0100
0010
0001
0100
0010
1000
0100
1000
0100
,
0010
0001
0010
0100
1000
0100
1000
0010
0100
0001
0100
0010
1000
0100
1000
0100
,
0010
0001
0010
0001
0100
0010
1000
0100
1000
0010
0100
0001
0010
0001
0100
0010
,
1000
0100
0010
0001
0010
0100
0010
0001
0100
0010
1000
0100
1000
0010
0100
0010
,
1000
0100
0010
0001
0M00
0001
0010
0100
1000
0010
1000
00M0
0001
0100
0001
00M0
,
1000
0100
0010
0001
0010
0100
1000
0010
0100
0001
0010
0001
0100
0010
1000
0100
,
0010
0100
1000
0010
0100
0001
0010
0100
1000
0001
0010
0100
1000
0010
0100
0001
,
1000
0010
0100
0001
0010
0100
1000
0100
0010
0001
1000
0100
0010
0001
1000
0010
,
1000
0100
0001
0100
1000
0010
0100
0001
0010
0100
1000
0010
0100
0001
0010
0001
1000
0010
0001
0010
1000
0100
0010
0001
0010
0100
1000
0010
0100
0001
0010
0001
,
1000
0100
0001
0100
1000
0010
0100
0001
0010
0001
0100
0010
1000
0100
0010
0001
1000
0010
0001
0010
1000
0010
0100
0001
0010
0001
0100
0010
1000
0010
0100
0001
,
1000
0100
0010
0000
0001
0100
0010
1000
0100
0010
0001
0000
0001
0010
0100
0000
1000
0010
0100
0001
0100
0010
1000
0100
0010
0001
0010
0100
1000
0001
0010
0100
,
1000
0100
0001
0100
1000
0010
0100
0001
0010
0100
1000
0001
0010
0100
1000
0010
1000
0010
0001
0010
1000
0100
0010
0001
0100
0010
1000
0100
1000
0010
0100
0001
,
2001
0000
3010
0110
0102
0000
1003
0100
,
0021
0000
0000
0000
0031
0000
0100
0010
1000
0000
1100
0000
0110
0000
0011
0000
,
2001
0000
3010
0110
1002
0000
1003
0100
,
0011
0000
0001
0100
0010
1000
0100
0010
0001
0010
0100
1000
0001
0010
0100
1000
,
1002
0000
1003
1010
0201
0000
0310
1000
,
0102
0000
0000
0000
1003
0000
1000
0100
0010
0000
0011
0000
1001
0000
1010
0000
,
0210
0000
0000
0000
0301
0000
1001
0000
1001
0000
0001
0100
0010
1000
0100
0010
,
0001
0100
0010
1000
0100
0010
0100
1000
0001
0010
0100
1000
0100
0010
0001
1000
,
1001
MMMM
1001
0101
0120
0000
1030
0001
,
0101
0000
MMMM
0000
0101
0000
0001
0010
0100
0000
1100
0000
1001
0000
0101
0000
,
1001
MMMM
1001
0101
0120
0000
1030
0001
,
1001
0000
0100
0000
1001
0001
0100
0010
1000
0100
0010
0001
0010
0100
1000
0010
,
1010
MMMM
1010
0110
0102
0000
1003
0010
,
1001
0000
MMMM
0000
1001
0000
0001
1000
0001
0000
1001
0000
1100
0000
0110
0000
,
0012
0000
0000
0000
1003
0000
1010
0000
0101
0000
0001
0100
0010
1000
0100
1000
,
000M
4004
0000
0000
0000
0000
0000
0000
0000
0000
0000
0000
0000
0000
3003
0000
,
0001
0100
0010
1000
0100
0010
0001
0010
0100
1000
0010
0100
0001
0010
0100
1000
,
0001
0010
0100
1000
0100
0010
0001
0100
0010
1000
0100
0010
0001
1000
0100
0010
,
0001
1000
0010
0100
0001
1000
0010
0100
0001
0100
0010
1000
0100
1000
0001
0010
,
0001
0100
0010
1000
0100
0010
0001
0010
0100
1000
0001
0010
0100
1000
0010
0100
,
0001
0100
0010
1000
0100
0010
0001
0010
0100
1000
0010
0100
0001
0010
0001
0100
,
0010
1000
0010
0100
0001
0010
0100
1000
0001
0010
0100
1000
0010
0100
0001
0010
,
0001
0100
0010
1000
0100
0010
0001
1000
0100
0010
0001
0100
0010
1000
0001
1000
,
0100
1000
0010
1000
0100
0010
0001
0100
0010
1000
0010
0100
0001
0010
0001
0000
,
10M0
0100
0001
0100
1000
0010
0100
0001
0010
0100
1000
0100
0010
0001
1000
0010
,
1M00
0010
0001
0010
1000
0100
0010
0001
0010
0100
1000
0010
0100
0001
0010
0001
,
10M0
0100
0001
0100
1000
0010
0100
0001
0010
0100
1000
0100
0010
0001
0100
0010
,
100M
0010
0001
0010
1000
0100
0010
0100
1000
0010
0100
0001
0010
0001
1000
0010
,
100M
0100
0001
0100
0010
0001
0100
0010
100M
0010
0100
0001
0010
0100
1000
0001
,
1M00
0010
0001
0010
0100
0001
0010
0100
100M
0100
0010
0001
0100
0010
1000
0001
,
10M0
0100
0001
0100
100M
0100
0010
0001
1M00
0010
0001
0010
100M
0100
0010
0001
,
4M00
0004
00M0
0000
0M00
0000
00M0
0000
0M00
0000
00M0
0000
0M00
0000
00M0
0000
,
3M03
MMMM
1001
0000
0000
0000
0000
0000
;

//---------------dance-single - ----------------
#NOTES:
     dance-single:
     :
     Hard:
     9:
     0.709,0.863,0.317,0.304,0.257:
0000
0000
0000
0000
0000
0000
0000
1001
,
1001
0000
0000
0000
1001
0000
0000
0000
0010
0000
0000
1000
0000
0000
0100
0000
,
0000
0000
0010
0000
0010
0000
0000
0000
0001
0000
0000
0100
0000
0000
0001
0010
,
0001
0000
0000
0000
1000
0000
0000
0000
0100
0000
0000
0010
0000
0000
0001
0000
,
0000
0000
1000
0000
1000
0000
0000
0000
0010
0000
0000
0100
0000
0000
0001
0000
,
1001
0000
0000
0000
1001
0000
0000
0000
1000
0000
0000
0100
0000
0000
0001
0000
,
0000
0000
0001
0000
0100
0000
0000
0000
1000
0000
0000
0010
0000
0000
1000
0100
,
1000
0000
0000
0000
1001
0000
0000
0000
0001
0000
0000
0100
0000
0000
0010
0000
,
0000
0000
1000
0000
0100
0000
0000
0000
0010
0000
0000
0001
0000
0000
1000
0000
,
0001
0100
0010
1000
0100
0010
0001
0010
,
0100
1000
0010
0100
0001
0010
0001
0100
,
0010
1000
0010
0100
0001
0010
0001
1000
,
0001
0100
0010
1000
0100
0001
0100
1000
,
0001
0010
0001
0010
0000
0100
1000
0100
1000
0100
1000
0000
0001
1000
0001
0000
,
1000
0100
0010
0001
0100
0010
1000
0010
,
0100
0001
0010
0100
1000
0100
0010
0001
,
0100
0010
1000
0100
0001
0100
1000
0001
,
1000
0100
0000
0100
0010
0000
0010
0001
0000
0001
0100
0000
0000
0100
0010
0000
,
1000
0100
0010
0001
0100
1000
0100
0001
,
0010
0100
1000
0100
0010
0001
0010
1000
,
0010
0001
0100
0010
1000
0001
1001
1001
,
1002
0000
0000
1000
2003
0000
0000
0000
,
3020
0000
0000
0000
0000
0000
0130
0001
0100
0000
0010
0000
1000
0000
0100
0000
,
2000
0000
0000
0001
0002
0000
3003
0000
,
1001
0001
0100
0010
1000
0100
0010
0001
,
2000
0000
0000
0010
3020
0000
0000
0000
,
0230
0000
0000
0000
0000
0000
0301
0100
0001
0000
0100
0000
0010
0000
1000
0000
,
0002
0000
0000
0010
0023
0100
0030
0100
,
1100
1000
0010
0100
0001
0010
0001
1000
,
0002
0000
0000
0100
0203
0000
0000
0000
,
0320
0000
0000
0000
0000
0000
1030
0100
1000
0000
0010
0000
0100
0000
0001
0000
,
2000
0000
0000
0001
0002
0000
3003
0000
,
1001
1000
0010
0100
0001
0010
0100
1000
,
0002
0000
0000
0100
0203
0000
0000
0000
,
0320
0000
0000
0000
0000
0000
1030
0001
1000
0000
0100
0000
0010
0000
0001
0000
,
2000
0000
0000
0010
3020
0100
0000
0130
,
0001
0010
0100
1000
0100
0010
0001
1000
,
1001
0000
0001
0100
0010
1000
0100
0001
,
0100
1000
0010
0100
0001
0010
0001
1000
,
1001
0000
0001
0100
0010
1000
0100
1000
,
2002
0000
0000
3003
,
1100
0000
0100
0010
0001
0100
0010
1000
,
0100
0001
0100
0010
0001
0100
0010
1000
,
1100
0000
1000
0010
0100
0001
0010
1000
,
0010
0001
0100
0010
1000
0100
1000
0001
,
1001
0000
0001
0100
0010
1000
0100
0010
,
0001
0010
1000
0010
0100
1000
0010
0100
,
0101
0000
1000
0010
0100
0001
0010
0001
,
2002
0000
0000
3003
,
1100
0000
0001
0100
0010
1000
0100
0001
,
0100
1000
0010
0100
0001
0010
0001
1000
,
1001
0000
0001
0100
0010
1000
0100
1000
,
0001
1000
0001
1000
0001
1000
0001
1000
0001
1000
0001
1000
0001
1000
0001
1000
,
0001
0100
0010
1000
0100
0010
0001
0010
,
0100
1000
0010
0100
0001
0010
0001
0100
,
0010
1000
0100
0001
0100
1000
0010
0100
,
0001
0010
0001
0100
0010
1000
0100
1000
,
0001
0100
0001
0100
0000
0010
1000
0010
1000
0010
1000
0000
0010
0100
0010
0000
,
1000
0100
0010
0001
0010
1000
0010
0001
,
0100
0010
1000
0100
0001
0100
1000
0010
,
0001
0010
1000
0100
0001
0100
0010
0001
,
1001
0000
0000
0000
0101
0000
0000
0000
0010
0000
0000
1000
0000
0000
0100
0000
0000
0000
0011
0000
0011
0000
0000
0000
0001
0000
0000
0100
0000
0000
1000
0100
,
1000
0000
0000
0000
0110
0000
0000
0000
1000
0000
0000
0100
0000
0000
0001
0000
0000
0000
0101
0000
0101
0000
0000
0000
0100
0000
0000
1000
0000
0000
0001
0000
,
1001
0000
0000
0000
1100
0000
0000
0000
0010
0000
0000
0001
0000
0000
0100
0000
0000
0000
0101
0000
0101
0000
0000
0000
0001
0000
0000
1000
0000
0000
0100
0010
,
0001
0000
0000
0000
1001
0000
0000
0000
1000
0000
0000
0010
0000
0000
0100
0000
0001
0000
1001
0000
1001
0000
1000
0000
0010
0000
0000
0001
0000
0000
1000
0000
,
0002
0000
0000
0100
0203
0000
0000
0000
,
0320
0000
0000
0000
0000
0000
1030
0100
0010
0000
0001
0000
0100
0000
0010
0000
,
2000
0000
0000
0010
0020
0000
3030
0000
,
1001
1000
0010
0100
0001
0010
1000
0010
,
0002
0000
0000
0100
0203
0000
0000
0000
,
0320
0000
0000
0000
0000
0000
1030
0100
0010
0000
0100
0000
1000
0000
0001
0000
,
0200
0000
0000
0010
0320
1000
0000
1030
,
0100
0010
0001
0100
0010
1000
0010
0100
,
0002
0000
1000
1000
2003
0000
0000
0000
,
3020
0000
0000
0000
0100
0000
0130
0001
1000
0000
0100
0000
0010
0000
0001
0000
,
2000
0000
0010
0010
0020
0000
3030
0000
,
1010
0010
0110
0100
0001
0010
0100
1000
,
0002
0000
1000
0100
0203
0000
0000
0000
,
0302
0000
0000
0000
1000
0000
1003
0010
0100
0000
0001
0000
0010
0000
0100
0000
,
2000
0000
0000
0001
3002
0100
0000
0103
,
1000
0001
1000
0001
1000
0001
1000
0001
1000
0001
1000
0001
1000
0001
1000
0000
,
1001
0001
0100
0010
1000
0100
1000
0010
,
0001
0010
1000
0100
0010
0001
1000
0100
,
0110
0010
0001
0100
0010
1000
0010
0100
,
2002
0000
0000
3003
,
1001
1000
0010
0100
0001
0010
0100
1000
,
0100
0010
0001
0010
1000
0010
0001
0100
,
0110
0010
1000
0100
0010
0001
0100
0010
,
1000
0100
0001
0100
0010
0001
0100
0010
,
1001
1000
0010
0100
0001
0010
0100
0010
,
0001
0100
0010
1000
0100
0001
0100
1000
,
1001
0001
0100
0010
1000
0001
0100
0010
,
2002
0000
0000
3003
,
1001
1000
0010
0100
0001
0010
0001
0100
,
0010
1000
0100
0001
0100
0010
0001
1000
,
1001
0001
0100
0010
1000
0100
0010
0001
,
1000
0100
1000
0100
1000
0100
1000
0100
1000
0001
1000
0001
1000
0001
1000
0001
,
1000
1001
0000
0000
;

//---------------dance-single - ----------------
#NOTES:
     dance-single:
     :
     Medium:
     7:
     0.552,0.555,0.127,0.438,0.025:
0000
0000
0000
0000
0000
0000
0000
1001
,
1001
0000
0000
0000
0001
0000
0000
0000
0100
0000
0000
0100
0000
0000
0100
0000
,
0000
0000
0010
0000
0010
0000
0000
0000
1000
0000
0000
1000
0000
0000
1000
0000
,
1000
0000
0000
0000
0010
0000
0000
0000
0100
0000
0000
0100
0000
0000
0100
0000
,
0000
0000
0001
0000
0001
0000
0000
0000
0010
0000
0000
0010
0000
0000
0010
0000
,
0100
0000
0000
0000
1000
0000
0000
0000
0001
0000
0000
0001
0000
0000
0001
0000
,
0000
0000
0100
0000
0100
0000
0000
0000
0010
0000
0000
0010
0000
0000
0010
0000
,
1000
0000
0000
0000
0001
0000
0000
0000
0100
0000
0000
0100
0000
0000
0100
0000
,
0000
0000
0010
0000
0010
0000
0000
0000
1000
0000
0000
1000
0000
0000
1000
0000
,
0001
0100
0001
0100
0001
0100
0001
0100
,
0010
1000
0010
1000
0010
1000
0010
1000
,
0001
0010
0001
0010
0001
0010
0001
0010
,
0100
1000
0100
1000
0100
1000
0100
1000
,
0001
0001
0000
0100
0010
1000
0001
0001
,
1000
0100
0010
0001
1000
0100
0010
0001
,
1000
0010
0100
0001
1000
0010
0100
0001
,
1000
0100
0010
0001
0010
0100
1000
0001
,
1000
0100
0010
0001
,
0100
0010
1000
0100
1000
0010
0100
0001
,
1000
1000
0100
0100
0010
0010
0001
0001
,
0100
0100
0010
0010
1000
1000
0001
0001
,
0002
0000
0203
0000
,
0320
0000
0000
0000
1030
0100
0010
0001
,
2000
0000
3020
0000
,
0130
0000
0001
0010
0100
1000
0010
0000
,
0002
0000
0023
0000
,
0230
0000
0000
0000
1300
0010
0100
0001
,
2000
0000
3200
0000
,
0310
0001
0100
0010
1000
0100
1000
0000
,
0020
0000
0230
0000
,
0302
0000
0000
0000
1003
0100
1000
0100
,
2000
0000
3020
0000
,
0230
0000
0301
0010
0100
0010
0001
0000
,
0002
0000
0203
0000
,
0320
0000
0000
0000
1030
0100
1000
0010
,
2000
0000
3020
0000
,
1030
0100
0010
0001
0010
0100
1000
0000
,
0002
1000
2003
0000
,
3020
0000
0100
0000
0130
0001
0100
0001
,
0200
0010
0320
0000
,
1030
0000
1001
0000
0001
0100
0010
1000
,
0002
0100
0203
0000
,
0320
0000
1000
0000
1030
0100
0010
0100
,
2000
0001
3002
0000
,
1003
0000
1001
0000
0001
0010
0100
1000
,
0002
1000
2003
0000
,
3020
0000
0100
0000
0130
0010
0100
0010
,
0200
0001
0302
0000
,
1003
0000
1001
0000
1000
0100
0010
0001
,
2000
0010
3020
0000
,
0230
0000
0001
0000
0301
0010
0001
0010
,
0002
0000
0000
1000
2003
0000
3000
0000
,
2002
0000
0000
3003
,
0001
0100
0001
0100
0001
0100
0001
0100
,
0010
1000
0010
1000
0010
1000
0010
1000
,
0001
0010
0001
0010
0001
0010
0001
0010
,
0100
1000
0100
1000
0100
1000
0100
1000
,
0001
0001
0000
1000
0010
0100
0001
0001
,
1000
0100
0010
0001
0010
0100
1000
0100
,
0010
0001
0010
0100
1000
0100
0010
0001
,
1000
0010
0100
0001
0010
0001
0100
0010
,
1000
0100
0010
0001
0100
0010
1000
0010
,
0100
0001
0010
0100
1000
0100
0010
0001
,
1100
0010
0100
0001
1010
0100
0001
0010
,
1100
0010
1000
0100
0011
1000
0010
0100
,
0002
0000
2003
0000
,
3020
0000
0000
0000
0130
0001
0010
0100
,
2000
0000
3020
0000
,
2030
0000
3010
0010
0100
0010
1000
0000
,
0002
0000
0203
0000
,
0320
0000
0000
0000
1030
0100
0010
0100
,
2000
0000
3020
0000
,
1030
1000
0001
0010
0100
1000
0010
0000
,
2000
0000
3020
0000
,
0230
0000
0000
0000
0301
0010
0100
1000
,
0002
0000
0203
0000
,
0320
0000
1030
0100
0010
0001
1000
0000
,
0020
0000
0230
0000
,
0302
0000
0000
0000
1003
0010
0100
0001
,
2000
0000
3002
0003
,
2002
0000
0000
3003
,
1000
0100
1000
0100
1000
0100
1000
0100
,
0010
0001
0010
0001
0010
0001
0010
0001
,
1000
0001
1000
0001
1000
0001
1000
0000
,
2002
0000
0000
3003
,
1000
0010
1000
0010
1000
0010
1000
0010
,
0100
0001
0100
0001
0100
0001
0100
0001
,
0100
0010
0100
0010
0100
0010
0100
0010
,
1000
0100
0010
0001
0010
0100
1000
0100
,
1000
0000
1001
0000
0001
0100
0010
1000
,
0001
0000
0101
0000
0100
0010
1000
0100
,
0010
0000
0011
0000
0001
0100
0010
1000
,
0100
0000
1100
0000
0100
0010
0001
0100
,
0001
0000
0101
0000
0001
0100
0010
1000
,
0001
0000
1001
0000
1000
0010
0100
0001
,
0010
0000
0011
0000
1000
0010
0100
0001
,
1000
0001
1000
0001
1000
0001
1000
0001
,
1000
1001
0000
0000
;

//---------------dance-single - ----------------
#NOTES:
     dance-single:
     :
     Easy:
     5:
     0.375,0.370,0.146,0.425,0.000:
0000
0000
0000
0000
,
1000
0100
0010
0001
,
0100
0010
1000
0010
,
0100
0001
0010
0001
,
0100
0010
1000
0100
,
1001
0010
0100
0001
,
0010
0001
0100
0010
,
1000
0100
0010
0100
,
1000
0001
0100
0010
,
1000
0100
1000
0000
0010
0000
0100
0000
,
0001
0010
0100
1000
,
0010
0100
0001
0010
,
0001
0100
0010
1000
,
0001
0001
0000
1000
1000
0000
0010
0010
,
0100
0001
0010
0100
,
0010
0001
0100
0010
,
1000
0100
0001
0100
,
1000
1000
0010
0010
,
0100
0100
0001
0010
,
0100
1000
0001
0100
,
0010
1000
0001
1000
,
1002
0000
0203
0000
,
0320
0000
1030
0100
,
0002
0000
0203
0000
,
0310
1000
0001
0010
,
0002
0000
0203
0000
,
0320
0000
1030
0100
,
2000
0000
3020
0000
,
0130
0001
0010
0100
,
2000
0000
3200
0000
,
0320
0000
0031
0100
,
2000
0000
3020
0000
,
0130
0001
0010
0001
,
2000
0000
3020
0000
,
0230
0000
0301
0010
,
0002
0000
0203
0000
,
0310
1000
0100
1000
,
0002
0000
0023
0000
,
0230
0000
1300
0100
,
0020
0000
0032
0003
,
2002
0000
0000
3003
,
2000
0000
3200
0000
,
0320
0000
0031
0100
,
0002
0000
1003
0100
,
0010
0001
0010
0100
,
2000
0000
3020
0000
,
0230
0000
0301
0010
,
0002
0000
0203
0300
,
2002
0000
0000
3003
,
2000
0000
3002
0000
,
0023
0000
0130
1000
,
0002
0000
2000
3003
,
1000
0010
0100
0001
,
1000
1000
0010
0010
,
0100
0100
0001
0001
,
0010
0010
0100
0100
,
1000
1000
0010
0010
,
1000
1000
0000
0100
0100
0000
0001
0001
,
1000
0010
0100
0001
,
0010
0001
0100
0010
,
1000
0100
0010
0001
,
1000
0010
0100
0001
,
0010
0100
1000
0010
,
0100
0001
1000
0100
,
0010
0001
0100
0001
,
2000
0000
3020
0000
,
0230
0000
0301
0010
,
0200
0000
2300
0000
,
3001
0100
0010
1000
,
0002
0000
0023
0000
,
0230
0000
1300
0010
,
2000
0000
3002
0000
,
0013
0100
1000
0010
,
0200
0001
0302
0000
,
2003
0100
3100
0010
,
0002
0010
0023
0000
,
1030
1010
0010
0100
,
0002
1000
2003
0000
,
3020
0100
0130
0001
,
2000
0000
3200
0000
,
0310
0001
0100
0010
,
1001
0100
0010
1000
,
0100
0010
0001
1000
,
1010
0010
0100
0010
,
2002
0000
0000
3003
,
1001
1000
0010
0100
,
0001
0010
0001
0100
,
0101
0001
1000
0100
,
0010
0001
0010
0100
,
0110
0010
1000
0100
,
1000
0010
0100
0001
,
0101
0100
0010
1000
,
2002
0000
0000
3003
,
1001
1000
0010
0100
,
0001
0010
0100
1000
,
1001
1100
0110
0011
,
1001
1010
0110
0101
,
0000
1001
0000
0000
;

//---------------dance-single - ----------------
#NOTES:
     dance-single:
     :
     Beginner:
     2:
     0.181,0.185,0.140,0.000,0.000:
0000
0000
0000
0000
,
1000
0000
0000
0000
,
0001
0000
0000
0000
,
0100
0000
0000
0000
,
0010
0000
0000
0000
,
1000
0000
0000
0000
,
1000
0000
0000
0000
,
0100
0000
0000
0000
,
0010
0000
0000
0000
,
0001
0000
0010
0000
,
0100
0000
1000
0000
,
0010
0000
0100
0000
,
0001
0000
0100
0000
,
0010
0000
0000
0000
,
1000
0000
0100
0000
,
0010
0000
0001
0000
,
0010
0000
0100
0000
,
1000
0000
0000
0000
,
0001
0000
0100
0000
,
0010
0000
0000
0000
,
1000
0000
0000
0001
,
0001
0000
0010
0000
,
1000
0000
0010
0010
,
0010
0000
0100
0000
,
1001
0000
0000
0000
,
1000
0000
0010
0000
,
0100
0000
0001
0001
,
0001
0000
0010
0000
,
1001
0000
0000
0000
,
1000
0000
0010
0000
,
0100
0000
0001
0001
,
0001
0000
0010
0000
,
1001
0000
0000
0000
,
1000
0000
0100
0000
,
0010
0000
1000
1000
,
1000
0000
0001
0000
,
1001
0000
0000
0000
,
0001
0001
0000
0000
,
0100
0100
0000
0000
,
0010
0010
0000
0000
,
1001
1001
0000
0000
,
1000
1000
0000
0000
,
0100
0100
0000
0000
,
0010
0010
0000
0000
,
0001
0001
0000
0000
,
1000
1000
0000
0000
,
0010
0010
0000
0000
,
0100
0100
0000
0000
,
0110
0110
0000
0000
,
1000
1000
0000
0000
,
0010
0010
0000
0000
,
1000
0000
0001
0000
,
1001
1001
0000
0000
,
1000
0000
0100
0000
,
0010
0000
0001
0000
,
0100
0000
0010
0000
,
1000
0000
0100
0000
,
1000
0000
0000
0000
,
0001
0000
0100
0000
,
1000
0000
0100
0000
,
0001
0000
1000
0000
,
0001
0000
1000
0000
,
0010
0000
0100
0000
,
0001
0000
1000
0000
,
0010
0000
0100
0000
,
0001
0000
0100
0000
,
0010
0000
1000
1000
,
1000
0000
0100
0000
,
1001
0000
0000
0000
,
0001
0000
0100
0000
,
0010
0000
1000
1000
,
1000
0000
0100
0000
,
0110
0000
0000
0000
,
0001
0001
0000
0000
,
0100
0100
0000
0000
,
1000
1000
0000
0000
,
1001
1001
0000
0000
,
1000
1000
0000
0000
,
0010
0010
0000
0000
,
0001
0000
1000
0000
,
1001
0000
0000
0000
,
1000
0000
0100
0000
,
0010
0000
0001
0000
,
0100
0000
0010
0000
,
1001
0000
0000
0000
,
0001
0000
0100
0000
,
0010
0000
1000
0000
,
0100
0000
0010
0000
,
0110
0000
0000
0000
,
1000
1000
0000
0000
,
0010
0010
0000
0000
,
0100
0100
0000
0000
,
0110
0110
0000
0000
,
0001
0001
0000
0000
,
0100
0100
0000
0000
,
1000
0000
0001
0000
,
1001
1001
0000
0000
,
0000
1001
0000
0000
;
