#TITLE:Love-Coloured Master Spark;
#SUBTITLE:;
#ARTIST:ZUN;
#TITLETRANSLIT:;
#SUBTITLETRANSLIT:;
#ARTISTTRANSLIT:;
#GENRE:;
#CREDIT:;
#BANNER:lovecolouredmasterspark-banner.png;
#BACKGROUND:lovecolouredmasterspark-bg.png;
#LYRICSPATH:;
#CDTITLE:cdtitleGpop.png;
#MUSIC:lovecolouredmasterspark.ogg;
#OFFSET:-0.480;
#SAMPLESTART:34.580;
#SAMPLELENGTH:19.860;
#SELECTABLE:YES;
#BPMS:0.000=169.000,152.000=84.500,160.000=169.000;
#STOPS:;
#BGCHANGES:;
#KEYSOUNDS:;

//---------------dance-single - ----------------
#NOTES:
     dance-single:
     :
     Challenge:
     11:
     0.872,0.958,0.428,0.573,0.406:
0000
0000
0000
0000
,
0000
0000
0000
0000
,
0000
0000
0000
0000
,
0000
0000
0000
0000
0000
0000
0000
0000
0000
0000
0000
0000
0000
0000
1000
0100
,
2000
0000
0000
0000
0000
0000
3100
0010
0001
0100
0010
0100
0001
0000
1000
0000
,
0M20
023M
03M2
M203
,
032M
0000
0000
0000
0000
0000
1030
0010
0100
0001
0010
0100
1000
0000
0100
0000
,
1000
0100
0010
0001
1000
0100
0010
0001
1000
0010
0100
0001
1000
0010
0100
0001
,
10M0
000M
0100
M000
001M
0000
MMMM
0000
M001
0M00
0010
000M
0100
0000
MMMM
0000
,
1M00
0000
0000
000M
0000
0000
M010
0000
0000
000M
0000
0000
0100
0000
0000
0000
0000
0000
MMMM
0000
0000
0000
0000
0000
M001
0000
0000
0000
0000
0000
1000
0000
0100
0000
1000
0000
010M
0000
0000
0000
0000
0000
M010
0000
0000
0000
0000
0000
,
0001
M000
0100
000M
M010
0000
MMMM
0000
M001
00M0
1000
000M
0010
0000
MMMM
0000
,
100M
0000
0000
00M0
0000
0000
0100
0000
0000
M000
0000
0000
0010
0000
0000
0000
0000
0000
MMMM
0000
0000
0000
0000
0000
M001
0000
0000
0000
0000
0000
0100
0000
0010
0000
0100
0000
001M
0000
0000
0000
0000
0000
1000
0000
0000
0000
0000
0000
,
10M0
000M
M100
0000
0010
0000
MMMM
0000
M001
0000
M010
000M
0100
0000
MMMM
0000
,
100M
0000
0000
0000
0000
0000
001M
0000
0000
M000
0000
0000
0100
0000
0000
0000
0000
0000
MMMM
0000
0000
0000
0000
0000
0M01
0000
0000
0000
0000
0000
1000
0000
0100
0000
1000
0000
010M
0000
0000
0000
0000
0000
0010
0000
0000
0000
0000
0000
,
M010
MMM1
0020
0000
M23M
0000
23MM
0000
,
3M1M
0010
01M0
0100
0M02
0003
1000
0100
,
1100
0000
0001
0101
0000
0100
0110
0010
,
1010
0000
1000
1001
0000
0001
0011
0010
,
0110
0000
0100
1100
1001
0001
0101
0100
,
0110
0000
0010
1010
0000
1000
1001
0001
,
0201
0010
0310
1000
0100
0010
0011
1001
,
2100
0100
3100
0010
0001
1000
1001
0101
,
0120
0100
0130
0010
2000
0001
3002
1000
,
1003
0000
0100
0000
1000
0000
0100
0000
1000
0000
0100
0000
1000
0000
0000
0000
0000
0000
0001
0000
0000
0000
0000
0000
0001
0000
0000
0100
0000
0000
0010
0000
0000
1000
0000
0000
0100
0000
0000
0010
0000
0000
0001
0000
0000
0100
0000
0000
,
0002
0100
0103
0010
1000
0100
0010
0002
,
1000
1000
0010
0010
1000
0100
0103
0010
,
1020
1000
1030
0100
1000
0010
0100
0020
,
1000
1000
0100
0100
1000
1030
0100
0010
,
0102
0100
0103
0010
0100
0001
1000
0200
,
1000
0000
1300
0000
0100
0000
0010
0000
0100
0000
1000
0000
0001
0100
0010
1000
,
1001
0100
0020
1000
1030
0100
0010
0002
,
1000
1000
0100
0100
0010
1000
1003
0010
,
0110
0100
0002
0010
0013
0100
1000
0200
,
0010
0010
0001
0001
1000
0310
0001
1000
,
1010
0100
0002
0100
0103
0010
1000
0002
,
1000
1003
0010
0100
0001
0010
0100
1000
,
0101
0000
0001
0000
1000
0000
MMMM
0000
0011
0000
0001
0000
1000
0000
1000
0100
,
0010
0001
0100
0010
1000
0100
1000
0010
0100
0001
0010
0100
1000
0001
0010
0100
,
2000
0000
0000
0000
0001
0010
0100
0010
,
3002
0000
0000
0000
1000
0000
0000
0000
1000
0000
0000
0000
1000
0000
0000
0000
1000
0000
0000
0000
0100
0000
0000
0000
0010
0000
0000
0000
0103
0000
1000
0100
,
2000
0000
0000
0000
0000
0000
3100
0010
0001
0100
0010
1000
0001
0000
0100
0000
,
0002
0100
0203
0010
0310
1010
2001
0001
,
3002
0000
0000
0000
0000
0000
0103
0010
1000
0100
0010
0001
0100
0000
0010
0000
,
1000
0100
0010
0001
0100
0010
1000
0100
1000
0010
0100
0001
0010
0100
1000
0001
,
1000
1000
0010
1010
0010
0100
0110
0100
,
0101
0001
1001
1000
1100
0100
0110
0010
,
0011
0001
1000
1010
0010
0100
0101
0001
,
1001
1000
1100
0100
0110
0010
0011
0001
,
1002
1000
1000
0100
1000
1000
0100
1000
,
2003
0010
3020
0100
0230
0001
0302
1000
,
1003
0100
0010
0001
1001
1000
0010
0110
,
0200
0001
0302
0010
0013
0100
1000
0001
,
10M1
0M00
00M0
M000
0M00
00M0
100M
0M00
00M1
M000
00M0
M100
000M
0M00
001M
0M00
,
4000
0004
0000
0000
0000
0000
0000
0000
0000
0000
0000
0000
0000
0000
3003
0000
,
1000
0010
0200
0001
0301
0010
0100
2000
,
0100
0100
0010
0010
0001
0001
3020
0000
,
0130
0001
2000
0100
3100
0010
0001
0200
,
0010
0010
1000
1000
0001
0301
0010
0100
,
1000
0100
0020
0001
0031
0100
0010
2000
,
0001
0000
3001
0000
0100
0000
0010
0000
1000
0000
0100
0000
1000
0100
0010
0001
,
1001
1000
0020
0100
0130
0001
0010
0200
,
0010
0010
0001
0001
1000
1000
0320
0000
,
0031
1000
0020
0100
0130
0001
1000
0002
,
0010
0010
0100
0100
1000
1003
0010
0100
,
0001
0000
0010
0000
0200
0000
1000
0000
4300
0400
0000
0000
0000
0000
0000
0000
,
0000
0000
0000
0000
0000
0000
0000
3300
,
100M
0010
M200
0000
M301
0010
0100
200M
,
000M
0010
0M10
0000
00M1
0001
3M02
0000
,
M103
0010
200M
0000
310M
0010
0001
M002
,
M000
0010
0M10
0000
10M0
1003
010M
0010
,
M001
0100
002M
0000
103M
0100
0010
M002
,
0M00
0000
0103
0000
001M
0000
1000
0000
0100
0000
0010
0000
0001
0010
0100
1000
,
00M1
1000
0M02
0000
M103
0010
1000
002M
,
100M
1000
0M01
0001
M100
0100
023M
0000
,
M301
0010
020M
0000
130M
0010
0100
M002
,
M010
0010
M100
0100
10M0
1003
010M
0010
,
0M01
0000
1000
0000
02M0
0000
0000
0000
M310
0000
0001
0000
0100
0000
001M
1000
,
0100
0010
0001
0100
0010
1000
0100
1000
0010
0100
0010
1000
0100
0010
0001
1000
,
1001
0000
0110
0000
1001
0000
0000
0000
4000
0004
0000
0000
0000
0000
0000
0000
,
0000
0000
0000
0000
,
3003
0000
0000
0000
;

//---------------dance-single - ----------------
#NOTES:
     dance-single:
     :
     Hard:
     8:
     0.611,0.547,0.376,0.299,0.013:
0000
0000
0000
0000
,
0000
0000
0000
0000
,
0000
0000
0000
0000
,
0000
0000
0000
0000
,
1001
0000
1000
0100
0010
0001
0100
0010
,
1000
1100
0110
0011
,
1001
0000
0001
0100
0010
0100
0001
1000
,
0001
0101
0110
1010
,
1000
0100
0010
0000
0001
0010
0100
0000
,
1000
0000
0010
0000
0100
0000
0000
0000
0001
0000
1000
0100
1000
0000
0010
0000
,
0100
0001
0010
0000
0100
1000
0100
0000
,
0010
0000
0001
0000
0100
0000
0000
0000
0010
0000
1000
0001
1000
0000
0100
0000
,
0010
0001
0010
0000
0100
1000
0100
0000
,
0001
0000
1000
0000
0001
0000
0000
0000
1000
0000
0010
0100
0010
0000
1000
0000
,
0100
0010
0002
0000
0023
0000
0230
0000
,
2300
0000
3020
0000
0230
0000
0301
0010
,
0002
0000
1000
1000
0000
1000
1003
0100
,
0020
0000
0001
0001
0000
0001
0031
0010
,
0200
0000
1000
1000
2300
0000
3020
0000
,
2030
0000
0100
0100
0000
0100
3100
0010
,
1001
0000
0001
0100
0010
1000
0001
0001
,
1001
0000
1000
0010
0100
0001
0010
0010
,
0110
0000
0100
1000
1100
0000
0110
0000
,
0012
0000
0000
0000
1003
0010
0100
0001
,
1000
0100
1000
0000
0001
0010
0100
2000
,
0000
0010
0000
3001
,
0001
0010
0100
0000
1000
0010
0100
0002
,
0000
0000
0100
0000
0000
1000
1003
0100
,
1000
0001
0010
0000
0100
1000
0010
0100
,
0000
0001
0010
0100
1000
0100
0010
0001
,
1000
0100
0010
0000
0001
0010
0100
2000
,
0000
0010
0000
3100
,
0010
0001
1000
0000
0100
0010
0001
0200
,
0000
0000
0010
0000
0000
0001
0301
0010
,
0001
0100
0001
0000
0100
0010
1000
0001
,
0000
1000
0100
0010
0001
0100
0010
1000
,
1001
1000
0100
0000
1001
0001
1000
2002
,
0000
0000
0000
3003
,
0020
0000
0000
0000
1000
0100
0001
0100
,
2030
0000
0000
0000
0100
0010
0001
3010
,
1001
0000
0001
0100
0010
1000
0100
0010
,
0001
0011
0110
1100
,
1001
0000
0001
0100
0010
1000
0100
1000
,
0001
1001
1010
0110
,
0101
0000
0001
0100
0010
1000
0100
0010
,
0001
0110
1001
0110
,
1001
0000
1000
0010
0100
0001
0010
0100
,
1000
1100
0011
0101
,
2010
0000
0100
0100
0000
0001
3001
0000
,
0101
1010
1100
0011
,
1002
0000
0100
0100
0000
0010
0013
0000
,
0110
0000
1001
0000
1000
0100
0010
0001
,
0000
0000
0000
0000
,
0000
0000
0000
0000
,
1000
0100
0010
0000
0001
0100
0010
2000
,
0000
0010
0000
3001
,
0100
0010
1000
0000
0100
0010
0001
0020
,
0000
0000
1000
0000
0000
0001
0031
0010
,
0100
1000
0010
0000
0100
0001
1000
0100
,
0000
0010
0001
0100
0010
1000
0100
0010
,
0001
0010
0100
0000
1000
0010
0100
0002
,
0000
0010
0000
1003
,
0100
0010
1000
0000
0001
0100
0010
0200
,
0000
0000
0001
0000
0000
1000
1300
0100
,
0010
0001
1000
0000
0001
0100
0010
1000
,
0000
0001
0100
0010
1000
0100
0010
0001
,
2000
0100
3100
0000
0001
0100
0010
1000
,
0000
0001
0001
0000
0100
0010
0010
0000
,
0002
0100
0103
0000
0010
1000
0100
0010
,
0000
0001
0001
0000
0010
0001
0001
0010
,
0200
1000
1300
0000
0001
0100
0010
1000
,
0000
0001
0010
0100
1000
0100
0010
0001
,
2000
0001
3001
0000
0001
0100
0010
1000
,
0000
0001
0000
0010
0000
0100
0100
0000
,
2000
0010
3010
0000
0100
0001
0010
0100
,
0000
1000
0000
0010
0000
0100
0100
0010
,
0020
1000
1030
0000
1000
0100
0010
0001
,
0000
0001
0010
0100
1000
0010
0100
0001
,
1001
1000
0100
0000
1001
0001
1000
2002
,
0000
0000
0000
0000
,
3003
0000
0000
0000
;

//---------------dance-single - ----------------
#NOTES:
     dance-single:
     :
     Medium:
     6:
     0.484,0.479,0.051,0.265,0.000:
0000
0000
0000
0000
,
0000
0000
0000
0000
,
0000
0000
0000
0000
,
0000
0000
0000
0000
,
2000
0000
0000
0000
,
3010
0100
0001
0010
,
0200
0000
0000
0000
,
1300
0010
0100
0001
,
1000
0100
1000
0000
0001
0010
0001
0000
,
1000
0010
1000
0000
0001
0000
0100
1000
,
0001
0010
0001
0000
1000
0100
1000
0000
,
0010
0100
0010
0000
1000
0000
0100
0010
,
0001
1000
0001
0000
1000
0001
1000
0000
,
0010
0100
0010
0000
1000
0000
0100
0010
,
0001
0100
0010
0000
1000
0000
0100
0000
,
0010
0000
0001
0000
0100
0000
0010
0100
,
0020
0000
0000
1000
0000
0000
0130
0001
,
0200
0000
0000
0010
0000
0000
0301
0010
,
0002
0000
1000
0100
,
2003
0000
0000
0010
0000
0000
3001
0100
,
0001
0000
1000
0000
0010
0000
1000
0100
,
1000
0000
0010
0000
0100
0000
0001
0010
,
0002
0000
1003
0010
,
2002
0000
3000
0000
1003
0100
0010
0001
,
1000
0100
1000
0000
0001
0010
0001
0020
,
0000
0000
0000
0130
,
1000
0010
1000
0000
0001
0100
0001
0200
,
0000
0000
0000
0000
0000
0310
1000
0010
,
1000
0100
1000
0000
0010
0001
0010
0001
,
0000
1000
0100
0010
0001
0010
0100
1000
,
0001
0010
0001
0000
1000
0100
1000
0200
,
0000
0000
0000
0310
,
0001
0100
0001
0000
1000
0010
1000
0020
,
0000
0000
0000
0000
0000
0130
0001
0100
,
0010
1000
0010
0000
1000
0100
0010
0001
,
0000
0001
0010
0100
1000
0010
0100
0001
,
1000
0100
1000
0000
0001
1000
0001
2002
,
0000
0000
0000
3003
,
2001
0000
0000
0000
0001
0001
0001
0001
,
3002
0000
0000
0000
1000
1000
1000
1000
,
2003
0000
0000
0000
0000
0010
0010
0010
,
3010
0100
0001
0010
,
0200
0000
0000
0000
0000
1000
1000
1000
,
1300
0100
0010
0001
,
2000
0000
0000
0010
0000
0000
0001
0000
,
3001
0010
0100
1000
,
0020
0000
0000
0100
0000
0000
1000
0000
,
1030
0100
0010
0001
,
2001
0000
0000
0010
0000
0000
0001
0000
,
3001
0010
0100
1000
,
1002
0000
0000
1000
1000
0000
0000
1000
,
1003
0000
0010
0000
1000
0001
1000
0001
,
0000
0000
0000
0000
,
0000
0000
0000
0000
,
1000
0100
1000
0000
0001
0010
0001
0020
,
0000
0000
0000
0130
,
1000
0100
1000
0000
0010
0100
0010
0200
,
0000
0000
0000
0000
0000
0310
1000
0100
,
0010
0001
0010
0000
0100
1000
0100
1000
,
0000
1000
0100
0010
0001
1000
0100
0010
,
0001
0100
0001
0000
1000
0100
1000
0200
,
0000
0000
0000
0310
,
0001
1000
0001
0000
1000
0010
1000
0020
,
0000
0000
0000
0000
0000
1030
0100
0010
,
0001
0010
0001
0000
1000
0100
0010
0100
,
0000
0100
1000
0100
0010
0001
1000
0100
,
1000
0010
1000
0000
0001
0100
0001
0100
,
0000
0000
0010
0000
1000
0100
0100
0000
,
0001
0010
0001
0000
1000
0100
1000
0100
,
0000
0000
0010
0000
0001
1000
0100
0010
,
0001
1000
0001
0000
1000
0001
1000
0001
,
0000
1000
0100
0010
0001
0010
0100
1000
,
0001
0010
0001
0000
1000
0100
1000
0200
,
0000
0010
0000
0301
,
1000
0010
1000
0000
0001
0100
0001
0200
,
0000
0000
0010
0000
0000
0001
0301
0010
,
0100
1000
0100
0000
0010
0001
0010
0001
,
0000
1000
0100
0010
0001
0010
0100
1000
,
0001
1000
0001
0000
1000
0001
1000
2002
,
0000
0000
0000
0000
,
3003
0000
0000
0000
;

//---------------dance-single - ----------------
#NOTES:
     dance-single:
     :
     Easy:
     3:
     0.308,0.411,0.137,0.180,0.000:
0000
0000
0000
0000
,
0000
0000
0000
0000
,
0000
0000
0000
0000
,
0000
0000
0000
0000
,
1001
0000
1000
0000
,
0001
0100
0010
1000
,
0001
0000
0100
0000
,
0010
1000
0100
0010
,
0001
0000
1000
0000
,
0100
0000
0010
0001
,
0100
0000
0010
0000
,
1000
0000
0100
0010
,
0001
0000
0010
0000
,
0100
0000
1000
0010
,
0100
0001
0001
0001
,
1000
1000
1000
0010
,
0200
0000
0000
0310
,
0020
0000
0000
1030
,
2000
0000
0001
3001
,
0002
0000
0000
0103
,
1001
1000
0010
0100
,
0100
0001
0010
1000
,
1000
0010
0100
0100
,
0200
0000
0001
0301
,
0001
0000
0000
0000
1000
0000
0000
0002
,
0000
0000
0000
1003
,
1000
0000
0000
0000
0001
0000
0000
0200
,
0000
0000
0000
0310
,
0010
0000
1000
0001
,
0100
0010
1000
0100
,
0010
0000
0000
0000
0001
0000
0000
2000
,
0000
0000
0000
3010
,
0100
0000
0000
0000
0001
0000
0000
0020
,
0000
0000
0000
0130
,
1000
0000
0010
0100
,
0001
0010
0100
1000
,
0001
0000
0000
0000
1000
0000
0000
2002
,
0000
0000
0000
3003
,
0002
0000
0000
0000
1003
1000
1000
1000
,
2000
0000
0000
0000
3010
0010
0010
0010
,
0110
0000
0100
0000
,
0001
0010
0100
1000
,
1001
0000
0001
0000
,
0100
0010
1000
0100
,
0110
0000
0001
0000
,
0100
0010
1000
0100
,
1100
0000
0001
0000
,
0100
0010
1000
0001
,
2001
0000
0001
0000
,
3001
0100
0010
1000
,
1002
0000
0100
0000
,
0103
0010
1000
0001
,
1001
0000
0000
0000
,
0000
0000
0000
0000
,
1000
0000
0100
0000
0010
0000
0000
0002
,
0000
0000
0000
1003
,
0010
0000
0010
0000
0100
0000
0000
0002
,
0000
0000
0000
1003
,
0100
0100
0010
0001
,
0100
0010
1000
0001
,
1000
0000
1000
0000
0010
0000
0000
0200
,
0000
0000
0000
0310
,
1000
0000
1000
0000
0001
0000
0000
0020
,
0000
0000
0000
0130
,
0010
0010
0001
1000
,
0010
0100
0001
1000
,
1001
0000
0001
0000
,
0100
0000
0010
0000
,
1000
0000
0100
0000
,
0010
0000
0001
0000
,
0010
0000
0100
0000
,
1000
0000
0001
0000
,
1001
1000
0010
0100
,
0001
0010
0100
1000
,
0100
0010
0001
0100
,
0010
1000
0010
0100
,
0001
0010
0100
1000
,
0100
0010
0001
1000
,
0110
0000
0110
0000
1001
0000
0000
2002
,
0000
0000
0000
0000
,
3003
0000
0000
0000
;

//---------------dance-single - ----------------
#NOTES:
     dance-single:
     :
     Beginner:
     2:
     0.187,0.236,0.051,0.000,0.000:
0000
0000
0000
0000
,
0000
0000
0000
0000
,
0000
0000
0000
0000
,
0000
0000
0000
0000
,
1000
0000
0000
0000
,
0010
0010
0010
0010
,
0010
0000
0000
0000
,
0100
0100
0100
0100
,
0100
0000
0001
0000
,
0010
0000
0100
0000
,
1000
0000
1000
0000
,
0010
0000
0100
0000
,
0001
0000
1000
0000
,
0100
0000
0010
0000
,
0001
0001
0001
0001
,
0001
0001
0001
0000
,
1001
0000
0000
0000
,
1000
0000
0000
0000
,
0010
0000
0100
0100
,
0100
0000
0000
0000
,
0001
0000
0000
0000
,
1000
0000
0000
0000
,
0100
0000
0010
0010
,
0010
0000
0001
0001
,
0001
0000
1000
0000
,
1000
0000
0001
0000
,
0100
0000
0010
0000
,
1000
0000
0100
0000
,
0010
0000
0001
0000
,
1000
0000
0010
0000
,
0100
0000
0001
0000
,
1000
0000
0100
0000
,
0010
0000
0001
0000
,
0010
0000
0100
0000
,
1000
0000
0001
0000
,
1000
0000
0010
0000
,
0100
0000
1001
0000
,
1001
0000
0000
0000
,
1000
0000
0000
0000
,
0001
0000
0000
0000
,
0100
0000
0010
0000
,
1000
1000
1000
1000
,
1000
0000
0100
0000
,
0010
0010
0010
0010
,
0010
0000
0001
0000
,
0100
0100
0100
0100
,
0100
0000
0010
0000
,
1000
1000
1000
1000
,
1000
0000
0100
0000
,
0010
0010
0010
0010
,
0010
0000
0001
0000
,
1000
1000
1000
0000
,
1001
0000
0000
0000
,
0000
0000
0000
0000
,
1000
0000
0100
0000
,
0010
0000
0000
0000
,
0001
0000
0100
0000
,
0010
0000
0000
0000
,
1000
0000
0010
0000
,
0100
0000
0001
0000
,
1000
0000
0010
0000
,
0100
0000
0000
0000
,
0001
0000
0010
0000
,
0100
0000
0000
0000
,
1000
0000
0010
0000
,
0100
0000
0001
0000
,
1000
0000
0000
0000
,
0100
0000
0000
0000
,
0010
0000
0000
0000
,
0001
0000
0000
0000
,
1000
0000
0000
0000
,
0010
0000
0000
0000
,
0100
0000
0001
0000
,
0100
0000
0000
0000
,
0010
0000
1000
0000
,
0010
0000
0000
0000
,
1000
0000
0001
0000
,
1000
0000
0100
0000
,
0010
0000
1001
0000
,
1001
0000
0000
0000
;
