#TITLE:Kanbu de Tomatte Sugu Tokeru;
#SUBTITLE:(Overdrive);
#ARTIST:IOSYS;
#TITLETRANSLIT:;
#SUBTITLETRANSLIT:;
#ARTISTTRANSLIT:;
#GENRE:;
#CREDIT:;
#BANNER:Kanbu de Tomatte Sugu Tokeru (Overdrive).png;
#BACKGROUND:Kanbu de Tomatte Sugu Tokeru (Overdrive) - bg.png;
#LYRICSPATH:udonge.lrc;
#CDTITLE:cdtitlegpop.png;
#MUSIC:Kanbu de Tomatte Sugu Tokeru (Overdrive).ogg;
#OFFSET:0.800;
#SAMPLESTART:19.600;
#SAMPLELENGTH:15.000;
#SELECTABLE:YES;
#BPMS:0.000=200.000;
#STOPS:;
#BGCHANGES:0.000=udonge-bg.png=1.000=0=0=1=====,
2.000=Kanbu de Tomatte Sugu Tokeru (Overdrive).avi=1.000=0=0=1=====,
439.000=Overdrive - BG.png=1.000=1=0=1===CrossFade==,
99999=-nosongbg-=1.000=0=0=0 // don't automatically add -songbackground-
;
#KEYSOUNDS:;

//---------------dance-single - ----------------
#NOTES:
     dance-single:
     :
     Beginner:
     2:
     0.199,0.280,0.031,0.000,0.000:
0000
0000
0000
0000
,
0000
0000
0000
0000
,
0000
0000
0000
0000
,
0000
0000
0000
0000
,
0000
0000
0000
0000
,
1000
0000
0000
0000
,
0000
0000
0000
0000
,
0001
0000
0000
0000
,
0000
0000
0000
0000
,
1000
0000
0000
0000
,
1000
0000
0000
0000
,
0100
0000
0000
0000
,
0100
0000
0000
0000
,
0010
0000
0000
0000
,
0010
0000
0000
0000
,
0001
0001
0001
0001
,
0001
0000
0000
0000
,
1000
1000
1000
1000
,
1000
1000
1000
1000
,
1000
0000
0000
0000
,
0001
0000
0000
0000
,
0001
0001
0001
0001
,
0001
0001
0001
0001
,
0001
0000
0000
0000
,
0100
0000
0000
0000
,
0100
0100
0100
0100
,
0100
0100
0100
0100
,
0100
0000
0000
0000
,
0010
0000
0000
0000
,
0010
0010
0010
0010
,
0010
0010
0010
0010
,
0010
0000
0000
0000
,
1000
0000
0001
0000
,
1001
0000
0000
0000
,
1000
0000
0000
0000
,
0100
0000
0000
0000
,
0010
0000
0000
0000
,
0001
0000
0000
0000
,
0001
0000
0000
0000
,
1000
0000
0000
0000
,
1000
0000
0000
0000
,
0001
0000
0000
0000
,
0000
0000
0000
0000
,
1000
0000
0000
0000
,
0000
0000
0000
0000
,
0010
0000
0000
0000
,
0000
0000
0000
0000
,
0100
0000
0000
0000
,
0000
0000
0000
0000
,
0001
0001
0000
1000
,
1000
1000
0000
0001
,
0001
0001
0000
1000
,
1000
1000
0000
0001
,
0001
0001
0001
0001
,
0001
0000
1000
0000
,
1001
0000
0000
0000
,
0000
0000
0000
0000
,
1000
0000
0000
0000
,
0100
0000
0000
0000
,
1000
0000
0000
0000
,
0100
0000
0000
0000
,
0010
0000
0000
0000
,
0001
0000
0000
0000
,
0010
0000
0000
0000
,
0001
0000
0000
0000
,
1000
1000
1000
1000
,
1000
1000
1000
1000
,
1000
0000
0000
0000
,
0010
0000
0000
0000
,
0100
0100
0100
0100
,
0100
0100
0100
0100
,
0100
0000
0000
0000
,
0010
0000
0000
0000
,
0001
0001
0001
0001
,
0001
0001
0001
0001
,
0001
0000
0000
0000
,
0100
0000
0000
0000
,
0010
0000
1000
0000
,
0100
0000
0010
0000
,
0001
0000
1000
0000
,
1001
0000
0000
0000
,
1000
0000
1000
0000
,
1000
0000
1000
0000
,
0100
0000
0100
0000
,
0100
0000
0100
0000
,
0010
0000
0010
0000
,
0010
0000
0010
0000
,
0001
0000
0001
0000
,
0001
0000
0001
0000
,
1000
0000
0100
0000
,
1000
0000
0100
0000
,
0010
0000
0001
0000
,
0010
0000
0001
0000
,
1000
0000
0010
0000
,
1000
0000
0010
0000
,
0100
0000
0001
0000
,
0100
0000
0001
0000
,
1000
0000
0100
0000
,
0010
0000
0001
0000
,
0010
0000
0100
0000
,
1000
0000
0010
0000
,
1000
0000
0010
0000
,
0100
0000
0001
0000
,
0100
0000
0010
0000
,
1000
0000
0001
0000
,
1001
0000
0000
0000
;

//---------------dance-single - ----------------
#NOTES:
     dance-single:
     :
     Challenge:
     13:
     1.000,1.000,0.336,0.336,0.530:
0000
0000
0000
0000
,
0000
0000
0000
0000
,
0000
0000
0000
0000
,
0000
0000
0000
0000
,
0000
0000
0000
0000
,
1001
0000
0001
0100
0010
0010
0000
1001
,
0000
1000
0100
0010
0001
0001
0000
0000
,
1001
0000
0001
1000
0100
0100
0000
1001
,
0000
0000
0001
0000
0100
0000
0010
0000
1000
0100
1000
0100
1000
0000
0000
0000
,
1100
1000
0010
0100
0001
0010
0100
1000
,
0100
0010
0001
0100
0010
1000
0010
0100
,
0101
0001
1000
0100
1000
0010
0100
0001
,
0010
0100
1000
0100
0010
0001
0100
0001
,
1000
0100
1000
0100
1000
0100
1000
0100
0010
0001
0010
0001
0010
0001
0010
0001
,
1000
0010
1000
0010
1000
0010
1000
0010
0100
0001
0100
0001
0100
0001
0100
0001
,
1000
1MM1
M11M
1MM1
,
1000
0100
1000
0100
1000
0100
1000
0100
0010
0001
0010
0001
0010
0001
0010
0001
,
10M0
1000
0M10
0010
010M
0100
M001
0001
,
1M00
1000
01M0
0100
001M
0010
M001
0001
,
1000
1000
1000
1000
0001
0001
0001
0001
,
1000
0100
1000
0000
0010
0000
0100
0000
0001
0100
0001
0000
1000
0000
0001
0000
,
10M0
0100
M001
0100
10M0
0100
M001
0100
,
100M
0010
0M01
0010
100M
0010
0M01
0010
,
1000
0100
0000
0000
0100
0010
0000
0000
0010
0001
0000
0000
0001
1000
0000
0000
,
1000
0100
0010
0000
0001
0000
0100
0000
0001
0010
0100
0000
1000
0000
0100
0000
,
110M
0100
M110
0010
0M11
0001
10M1
1000
,
101M
0010
M110
0100
01M1
0001
1M01
1000
,
0001
0000
0001
0000
1000
0000
1000
0000
0001
0010
0001
0000
1000
0100
1000
0000
,
0100
0100
0010
0001
0100
0100
0001
1000
,
0M01
0000
0001
0000
1000
0100
0010
0000
M001
0000
0100
0000
0001
0010
0100
0000
,
100M
0000
0100
0000
1000
0010
0100
0000
0001
0100
0010
0000
1000
0000
0001
0000
,
1000
0000
0000
0100
0000
0000
1000
0000
0000
0100
0000
0000
1000
0000
0000
0100
0000
0000
1000
0000
0000
0100
0000
0000
0040
0000
0004
0000
0000
0000
0000
0000
0000
0000
0000
0000
0000
0000
0000
0000
0000
0000
0033
0000
0000
0000
0000
0000
,
1000
0001
1000
0000
0001
1000
0001
0000
1001
0000
1000
0000
1001
0000
0001
0000
,
1000
0100
0010
0000
0001
0010
0100
0000
1000
0010
0100
0000
0001
0100
0010
0000
,
1000
0100
1000
0000
0001
0010
0001
0000
1100
0000
0000
0110
0000
0000
0011
0000
,
1000
0001
1000
0000
0001
1000
0001
0000
0100
0010
0100
0000
0010
0100
0010
0000
,
1000
0100
0010
0000
0001
0010
0100
0000
1000
0010
0100
0000
0001
0100
0010
0000
,
1001
1000
0010
0100
0002
0000
M1M0
0000
,
0203
0010
0010
0320
1000
1000
2030
3001
,
1001
1000
0010
0100
0002
0000
MM10
0000
,
1003
0100
1000
0100
1000
0000
0001
0100
0001
0100
0001
0100
0010
1000
0010
1000
,
0001
0100
0001
0100
0001
0100
0001
0100
,
0010
1000
0010
1000
0010
1000
0010
1000
,
0001
0010
0001
0010
0001
0010
0001
0010
,
0100
1000
0100
1000
0100
1000
0100
1000
,
0010
0100
0010
0100
0010
0100
0010
0100
,
0001
1000
0001
1000
0001
1000
0001
1000
,
0001
0001
0010
0010
0100
0100
1000
1000
,
0010
0100
0010
0100
0010
0100
0010
0100
0001
1000
0001
1000
0001
1000
0001
1000
,
0M01
0000
10M0
0000
0M00
0001
10M0
0000
,
0M01
0000
10M0
0000
0M00
0001
10M0
0000
,
0M01
0000
10M0
0000
0M00
0001
10M0
0000
,
0M01
0000
10M0
0000
0M00
0001
10M0
0000
,
0M01
10M0
0M01
10M0
,
0M01
1000
00M1
1000
0M01
1000
00M1
1000
,
0001
0010
0100
1000
0001
0010
0100
1000
0001
0010
0100
1000
0001
0010
0100
1000
,
0002
0000
0000
0000
0000
0000
0013
0100
1000
0000
0001
0000
0010
0000
0100
0000
,
2000
0000
0010
0000
3020
0000
0130
0001
,
0010
0100
1000
0100
2000
0001
0001
3001
,
1001
1000
0010
0100
0001
1000
0100
0020
,
0000
0000
0031
0000
0100
0000
0001
0010
0200
0000
1000
0000
1000
0000
1000
0000
,
2300
0001
0001
0001
3002
0100
0100
0103
,
0010
1000
0100
0010
0002
1000
1000
1000
,
1003
0100
0010
0001
0010
0100
1000
0010
0100
0001
0100
0010
1000
0100
0010
0001
,
4000
0004
0000
0000
0000
0000
0000
0000
0000
0000
0000
0000
0000
0000
0000
0000
0000
0000
0000
0000
0000
3003
0000
0000
,
001M
0010
M001
0001
10M0
1000
0M10
0010
,
010M
0100
M001
0001
10M0
1000
0010
0010
,
1000
0000
0010
0000
0100
0000
0001
0100
0000
0000
0010
0000
0010
0000
1000
0100
,
1000
0000
0001
0010
0100
1000
0001
0000
0100
0000
0001
0000
0001
0000
0001
0000
,
10M0
0100
M001
0100
10M0
0100
M001
0100
,
100M
0010
0M01
0010
100M
0010
0M01
0010
,
1000
0000
0100
0000
0010
0000
0001
0100
0001
0100
0001
0100
0001
0000
1000
0100
,
1000
0100
1000
0000
0001
0000
1000
0001
1000
0001
1000
0001
1000
0001
1000
0000
,
110M
0100
M110
0010
0M11
0001
1M01
1000
,
101M
0010
M110
0100
01M1
0001
1M01
1000
,
1001
0001
0100
0010
1000
0002
0010
0010
,
0103
1000
0010
0100
0002
1000
1000
1000
,
2003
0010
0010
0010
3020
0100
0130
0001
,
1000
0100
0010
0001
2000
0001
0001
0001
,
3001
0100
0010
1000
0010
0100
0001
0010
,
0001
1000
0001
1000
0001
1000
0001
0000
0200
0000
0001
0000
0001
0000
0001
0000
,
0302
1000
1000
1000
2003
0100
3100
0010
,
0001
0100
0010
1000
0020
0100
0100
0230
,
0001
0301
0010
0100
1000
0010
0100
0002
,
0000
1003
0010
1000
0200
0010
0310
0000
,
0002
1000
1000
1000
2003
0010
0010
3010
,
0100
0001
0010
0100
2000
0001
0001
3002
,
0100
0103
0010
1000
0010
0100
0001
0010
,
0011
0000
0000
0110
0000
0000
1100
0000
1000
0000
0010
0000
0100
0000
0001
0000
,
1001
0000
0001
0100
0010
0010
0000
1001
,
0000
1000
0010
0100
0001
0002
0000
1003
,
1001
0000
1000
0010
0100
0100
0000
1001
,
0000
0000
0001
0000
0100
0000
0010
0000
1000
0100
0010
0001
1000
0000
0000
0000
,
1001
0000
1000
0100
0001
0200
0000
2300
,
0000
3001
0010
1000
0010
0002
0000
1003
,
1001
0001
0010
0100
1000
0010
0100
0001
,
1000
0100
0010
0001
0100
0010
1000
0001
1000
0100
1000
0100
1000
0000
0000
0000
,
2001
0001
0001
0001
3002
0100
0103
0010
,
1000
0010
0100
0001
0020
0100
0100
0230
,
1000
1000
1300
0010
0100
0001
0100
0020
,
0000
0000
1030
0000
0100
0000
0010
0000
0001
1000
0001
1000
0001
0000
0000
0000
,
2000
0010
0010
0010
3020
0100
0100
0130
,
0001
0010
0100
1000
0002
1000
1000
1000
,
1003
0100
1000
0100
1000
0100
1000
0100
0010
0001
0010
0001
0010
0001
0010
0001
,
1000
0001
1000
0001
1000
0001
1000
0001
1000
0001
1000
0001
1000
0001
1000
0002
,
2000
0000
0000
0000
,
0000
0000
0000
0000
,
0000
0000
0000
0000
,
0000
0000
0000
0000
,
0000
0000
0000
0000
0000
0000
0000
3003
;

//---------------dance-single - ----------------
#NOTES:
     dance-single:
     :
     Hard:
     9:
     0.775,1.000,0.114,0.176,0.179:
0000
0000
0000
0000
,
0000
0000
0000
0000
,
0000
0000
0000
0000
,
0000
0000
0000
0000
,
0000
0000
0000
0000
,
1001
0000
0001
1000
0100
0100
0000
0010
,
0000
0001
0100
0010
1000
1000
0000
0000
,
1001
0000
1000
0100
1000
1000
0000
0010
,
0000
0100
0001
1000
1000
1000
0000
0000
,
0001
0100
0001
0100
0001
0100
0001
0100
,
0010
1000
0010
1000
0010
1000
0010
1000
,
0001
0010
0001
0010
0001
0010
0001
0010
,
0100
1000
0100
1000
0100
1000
0100
1000
,
0001
0100
0010
1000
0010
0100
0001
0010
,
0100
0010
0001
0100
0010
1000
0100
1000
,
1100
0110
0011
1001
,
1000
0001
1000
0001
1000
0001
1000
0001
1000
0001
1000
0001
1000
0001
1000
0001
,
1000
0100
1000
0100
1000
0100
1000
0100
,
0010
0001
0010
0001
0010
0001
0010
0001
,
1000
0010
0100
0001
0100
0010
1000
0001
,
1000
0100
1000
0000
0000
0000
0000
0000
0001
0100
0001
0000
0000
0000
0000
0000
,
0001
0100
0001
0100
0001
0100
0001
0100
,
0010
1000
0010
1000
0010
1000
0010
1000
,
0001
0001
1000
1000
,
0001
0010
0001
0000
0000
0000
0000
0000
1000
0010
1000
0000
0000
0000
0000
0000
,
0100
0010
0100
0010
0100
0010
0100
0010
,
1000
0001
1000
0001
1000
0001
1000
0001
,
1000
0100
0010
0001
0100
0000
0010
0000
,
0100
0100
0000
0000
0010
0010
0000
0000
,
1000
1000
0100
0000
0001
0001
0100
0000
,
1000
1000
0100
0000
0010
0000
0001
0100
,
0001
1000
0001
1000
0001
1000
0001
1000
0001
1000
0001
1000
0001
1000
0001
1000
,
0001
0000
1001
0000
1000
0100
1000
0100
,
1100
0000
0100
0010
0001
0100
0010
1000
,
0010
0000
0100
0000
0001
0000
0010
0000
0001
0000
0000
0100
0000
0000
0010
0000
,
1000
0100
1000
0010
0100
0001
0100
0010
,
1000
0100
0010
0001
0010
0100
1000
0000
,
1001
0001
0100
0010
2000
0000
0000
0000
,
3002
0000
0000
0100
0000
0000
0100
0000
,
0103
0010
1000
0100
0020
0000
0000
0000
,
0032
0000
0000
1000
0000
0000
1000
0000
,
1003
0100
0010
0001
,
0100
0010
1000
0010
,
0100
0001
0010
0100
,
0010
0001
0100
0010
,
1000
0010
0100
0001
,
0100
0010
1000
0100
,
0010
0001
0010
0100
,
1000
0001
1000
1001
,
0001
0000
1000
0000
0000
0001
1000
0000
,
0001
0000
1000
0000
0000
0001
1000
0000
,
0001
0000
1000
0000
0000
0001
1000
0000
,
0001
0000
1000
0000
0000
0001
1000
0000
,
0001
1000
0001
1000
,
0001
1000
0001
1000
0001
1000
0001
1000
,
0001
1000
0001
1000
0001
1000
0001
1000
0001
1000
0001
1000
0001
1000
0001
1000
,
0002
0000
0000
1000
1000
1000
1000
1000
,
2003
0000
0000
0000
3200
0000
0010
0010
,
0310
0001
0100
0010
2000
0000
0000
0001
,
3001
0100
0010
1000
0010
0100
0001
1000
,
0000
0001
1000
0010
2000
0000
0000
0000
,
3002
0000
0000
0000
0023
0000
0100
0100
,
0130
1000
0010
0100
0002
0000
0000
0000
,
1003
0100
0010
0001
0100
0010
1000
0010
,
2000
0000
0002
3000
,
1003
0100
1000
0100
1000
0100
1000
0100
,
0010
0001
0010
0001
0010
0001
0010
0001
,
1000
0010
0100
0001
0100
0010
1000
0100
,
0010
0001
0010
0100
1000
0010
1000
0000
,
0001
0100
0001
0100
0001
0100
0001
0100
,
0010
1000
0010
1000
0010
1000
0010
1000
,
0001
0010
0100
1000
0010
0100
0001
0100
,
1000
0100
0001
0010
1000
0010
0001
0000
,
0100
0010
0100
0010
0100
0010
0100
0010
,
1000
0001
1000
0001
1000
0001
1000
0001
,
1000
0100
0001
0100
1000
0010
0001
0010
,
1000
0100
0010
0001
0100
0010
1000
0000
,
0001
0100
0010
1000
0010
0100
0001
0010
,
0100
1000
0100
0010
0001
0100
0001
0000
,
1000
0010
0100
0001
0100
0010
1000
0010
,
0100
0001
0010
0100
1000
0001
1001
0000
,
2000
0000
0000
0000
3200
0000
0310
0001
,
0100
0010
1000
0010
0200
0000
0000
0001
,
0301
0010
0100
1000
0010
0100
0001
1000
,
0000
1000
0010
0100
0002
0000
0000
0000
,
2003
0000
0000
0000
3020
0000
0130
0001
,
1000
0010
0100
0001
0020
0000
0000
0100
,
0130
1000
0010
0100
0010
1000
0100
1000
,
0001
1000
0001
1000
0001
1000
0001
1000
0001
1000
0001
1000
0001
1000
0001
1000
,
0001
0000
0100
0010
1000
1000
0000
0100
,
0000
0010
0001
0100
0010
0010
0000
0000
,
1001
0000
1000
0010
0100
0100
0000
0001
,
0000
0000
0010
0000
0100
0000
1000
0000
0001
1000
0001
1000
0001
0000
0000
0000
,
1001
0000
1000
0010
0100
0100
0000
0001
,
0000
0010
0100
1000
0001
0001
0000
0000
,
1001
0000
1000
0010
0100
0100
0000
0001
,
0000
0000
0010
0000
0100
0000
1000
0000
0001
0100
0001
0100
0001
0000
0000
0000
,
1000
0010
0100
0001
0100
0010
1000
0100
,
0010
0001
0010
0100
1000
0010
0100
0001
,
0100
0010
1000
0100
0010
0100
1000
0010
,
0100
0001
0100
1000
0100
0001
0010
1000
,
0010
0001
0100
1000
0100
0010
1000
0100
,
0010
0001
0010
1000
0010
0100
1000
0010
,
0100
0001
0010
0100
0001
0100
1000
0001
,
1000
0001
1000
0001
1000
0001
1000
0001
1000
0001
1000
0001
1000
0000
0000
0000
,
2002
0000
0000
0000
,
0000
0000
0000
0000
,
0000
0000
0000
0000
,
0000
0000
0000
0000
,
0000
0000
0000
3003
;

//---------------dance-single - ----------------
#NOTES:
     dance-single:
     :
     Medium:
     7:
     0.588,0.670,0.565,0.206,0.000:
0000
0000
0000
0000
,
0000
0000
0000
0000
,
0000
0000
0000
0000
,
0000
0000
0000
0000
,
0000
0000
0000
0000
,
1000
0000
0001
0010
0001
0000
0000
1000
,
0000
0000
0001
0100
0001
0000
0000
0000
,
1000
0000
0001
0010
0001
0000
0000
1000
,
0000
0000
0010
0100
0001
0000
1001
0000
,
1000
0100
1000
0100
1000
0100
1000
0100
,
0010
0001
0010
0001
0010
0001
0010
0001
,
1000
0010
1000
0010
1000
0010
1000
0010
,
0100
0001
0100
0001
0100
0001
0100
0000
,
0100
0010
0100
0010
0100
0010
0100
0010
,
1000
0001
1000
0001
1000
0001
1000
0000
,
1100
1100
0101
0101
,
2002
0000
0000
3003
,
1100
1100
1100
1100
,
0101
0101
0101
0101
,
1001
1000
0010
0100
,
0001
0001
0000
0000
1000
1000
0000
0000
,
0011
0011
0011
0011
,
1010
1010
1010
1010
,
1000
1000
0001
0001
,
0100
0100
0000
0000
0010
0010
0000
0000
,
0110
0110
0110
0110
,
1001
1001
1001
1001
,
1000
0100
0010
0001
,
1000
1000
0000
0000
0001
0001
0000
0000
,
1000
1100
0001
0101
,
0100
0000
0110
0000
1001
0000
1000
0001
,
2002
0000
0000
3003
,
1100
0101
0011
1010
,
1001
1000
0001
0100
,
0010
1000
0020
0000
,
1030
1000
0001
0001
,
0100
0100
0010
0010
,
1000
0000
0001
0100
0002
0000
0000
0000
,
1003
0000
0000
1000
0000
0000
1000
0000
,
0010
0000
0100
0001
0200
0000
0000
0000
,
0310
0000
0000
0010
0000
0000
0010
0000
,
1000
1000
1000
1000
,
0001
0001
0001
0001
,
0100
0100
0100
0100
,
0010
0010
0010
0010
,
1000
0100
1000
0100
,
0010
0001
0010
0001
,
1000
0010
1000
0010
,
0100
0001
1000
1001
,
0001
0000
1000
0000
0000
0001
1000
0000
,
0001
0000
1000
0000
0000
0001
1000
0000
,
0001
0000
1000
0000
0000
0001
1000
0000
,
0001
0000
1000
0000
0000
0001
1000
0000
,
0001
1000
0001
1000
,
0001
1000
0001
1000
0001
1000
0001
1000
,
0002
0000
0000
0000
,
2000
0000
0000
3003
0000
0000
0000
0000
,
2000
0000
0000
0000
0001
0000
3001
0100
,
0001
0000
1000
0100
1000
0000
0000
0000
,
0001
0100
0010
1000
0001
0000
0000
0000
,
1000
0100
0010
0001
1000
0000
0000
0000
,
0002
0000
0000
0000
1000
0000
1003
0100
,
1000
0000
0001
0100
0001
0000
0000
0000
,
1000
0100
0010
0001
1000
0000
0001
1000
,
2002
0000
0000
3003
,
1100
1100
1100
1100
,
0101
0101
0101
0101
,
0001
0100
0010
0000
1000
0100
0010
0000
,
0001
0100
0001
0000
1000
0100
1000
0000
,
0011
0011
0011
0011
,
1010
1010
1010
1010
,
0001
0010
0100
0000
1000
0100
0010
0000
,
0001
1000
0100
0000
1000
0001
0100
0000
,
0110
0110
0110
0110
,
1001
1001
1001
1001
,
1000
0100
1000
0000
0001
0100
0001
0000
,
1000
0010
1000
0000
0001
0010
0001
0000
,
1000
0100
0010
0000
0001
0010
0100
0000
,
1000
0010
0100
0000
0001
0100
0010
0000
,
1000
0001
0100
0000
0001
1000
0100
0000
,
2002
0000
0000
3003
,
2000
0100
3200
0010
,
0310
0001
1000
0000
0001
0000
1000
0000
,
0001
0100
0010
0000
1000
0100
0010
0000
,
0001
1000
1001
0000
,
0002
0100
0203
0010
,
0310
1000
0100
0000
0010
0000
0001
0000
,
1000
0100
1000
0100
1000
0000
0001
0000
,
2002
0000
0000
3003
,
1000
0000
0010
0100
0001
0000
0000
1000
,
0000
0000
0001
0100
0001
0000
0000
0000
,
1000
0000
0100
0010
0001
0000
0000
0100
,
0000
0000
0010
1000
0010
0000
0110
0000
,
0100
0000
0001
0010
0100
0000
0000
1000
,
0000
0000
0100
0010
0001
0000
0000
0000
,
1000
0000
0001
0100
0100
0000
0000
0001
,
0000
0000
1000
0010
0010
0000
1001
0000
,
2000
0000
3020
0000
,
0130
0001
1000
0000
0001
0000
1000
0000
,
0001
0000
0100
0010
1000
0000
0010
0000
,
0100
0001
1000
0000
1001
0000
0000
0000
,
2000
0000
3002
0000
,
0103
0010
1000
0000
0010
0000
0100
0000
,
0001
0010
0100
0000
1000
0100
0010
0000
,
0001
1000
0001
0000
1000
0001
1000
0000
,
2002
0000
0000
0000
,
0000
0000
0000
0000
,
0000
0000
0000
0000
,
0000
0000
0000
0000
,
0000
0000
0000
3003
;

//---------------dance-single - ----------------
#NOTES:
     dance-single:
     :
     Easy:
     4:
     0.308,0.377,0.053,0.099,0.000:
0000
0000
0000
0000
,
0000
0000
0000
0000
,
0000
0000
0000
0000
,
0000
0000
0000
0000
,
0000
0000
0000
0000
,
1000
0000
1000
0000
,
0001
0000
0001
0000
,
0100
0000
0100
0000
,
0010
0000
0010
0000
,
1000
0000
0000
0000
,
0001
0000
0000
0000
,
0100
0000
0000
0000
,
0010
0000
0000
0000
,
1000
0000
0000
0000
,
0100
0000
0000
0000
,
1000
1000
0001
0001
,
2002
0000
0000
3003
,
1000
1000
1000
1000
,
0100
0100
0100
0100
,
0010
0001
1000
0010
,
0100
0000
0001
0000
,
0010
0010
0010
0010
,
0001
0001
0001
0001
,
1000
1000
0001
0001
,
1000
0000
0100
0000
,
0100
0100
0100
0100
,
0010
0010
0010
0010
,
0001
1000
0010
0100
,
0001
0000
1000
0000
,
0001
0001
1000
1000
,
0010
0100
0100
0001
,
2002
0000
0000
3003
,
1000
1000
0001
0001
,
1001
1000
1000
1000
,
0010
0010
0020
0000
,
0130
0100
0100
0100
,
0001
0001
0001
0001
,
1000
0000
1000
0000
,
0100
0000
0100
0000
,
0010
0000
0010
0000
,
0001
0000
0001
0000
,
1000
0000
0000
0000
,
1000
0000
0000
0000
,
0100
0000
0000
0000
,
0100
0000
0000
0000
,
0010
0000
0000
0000
,
0010
0000
0000
0000
,
0001
0000
0000
0000
,
0001
0000
0000
0000
,
0001
1000
0000
1000
,
0001
1000
0000
1000
,
0001
1000
0000
1000
,
0001
1000
0000
1000
,
0001
1000
0001
1000
,
0001
0001
1000
1000
,
2002
0000
0000
0000
,
0000
0000
3003
0000
,
1000
0000
1000
0000
,
0001
0001
0100
0000
,
0010
0000
1000
0000
,
0100
0100
0010
0000
,
0001
0000
0010
0000
,
0100
0100
1000
0000
,
0010
0000
0100
0000
,
2002
0000
0000
3003
,
1000
1000
1000
1000
,
0100
0100
0100
0100
,
0010
0001
1000
0010
,
0100
0001
1000
0000
,
0010
0010
0010
0010
,
0001
0001
0001
0001
,
1000
0010
0100
0001
,
1000
0010
0100
0000
,
0001
0001
0001
0001
,
1000
1000
1000
1000
,
0010
0100
0001
1000
,
0100
0010
0001
0000
,
1000
1000
0100
0100
,
0010
0010
0001
0001
,
1000
0010
0100
0001
,
2002
0000
0000
3003
,
1000
0000
0010
0000
,
0100
0001
1000
0000
,
0001
0000
0010
0000
,
0100
1000
0010
0000
,
0100
0000
0001
0000
,
1000
0010
0100
0000
,
0001
0000
0100
0000
,
1000
0100
0010
0001
,
1000
0000
0010
0000
,
0100
0000
0001
0000
,
0010
0000
0100
0000
,
1000
0000
0010
0010
,
1000
0000
0001
0000
,
0010
0000
0100
0000
,
1000
0000
0001
0000
,
0100
0000
0010
0010
,
1000
0000
0010
0000
,
0100
0001
1000
0000
,
0100
0000
0010
0000
,
0001
0010
0100
0000
,
1000
0000
0010
0000
,
0100
0001
1000
0000
,
0010
0000
0100
0000
,
0001
0010
0100
1000
,
2002
0000
0000
0000
,
0000
0000
0000
0000
,
0000
0000
0000
0000
,
0000
0000
0000
0000
,
0000
0000
0000
3003
;
