#TITLE:Heian Alien;
#SUBTITLE:;
#ARTIST:ZUN;
#TITLETRANSLIT:;
#SUBTITLETRANSLIT:;
#ARTISTTRANSLIT:;
#CREDIT:;
#BANNER:Heian Alien - BN.png;
#BACKGROUND:Heian Alien - BG.png;
#LYRICSPATH:;
#CDTITLE:;
#MUSIC:Heian Alien.ogg;
#OFFSET:-0.060;
#SAMPLESTART:45.000;
#SAMPLELENGTH:12.000;
#SELECTABLE:YES;
#BPMS:0.000=171.000,192.000=85.500,240.000=171.000,336.000=85.500,352.000=171.000;
#STOPS:;
#BGCHANGES:;

//---------------dance-single - ----------------
#NOTES:
     dance-single:
     :
     Challenge:
     11:
     0.839,1.000,1.000,0.551,0.378:
0000
0000
0000
0000
,
0000
0000
0000
0000
,
0000
0000
0000
0000
,
0000
0000
0000
0000
,
1100
0100
0010
0001
0011
0010
0100
1000
,
1001
0001
0100
0010
1010
1000
0001
0100
,
0110
0000
0010
0000
1000
0000
0001
0000
0011
0000
0010
0000
0100
0000
1000
0100
,
1000
0000
0100
0000
0010
0000
0001
0000
0011
0000
0001
0100
0001
0000
1000
0100
,
10MM
11MM
M11M
MM11
,
1MM1
M1M1
M11M
1M1M
,
1MM1
11MM
MM11
11MM
,
1MM1
0000
M1M1
0000
21M2
0000
3003
0001
,
1MM1
M1M1
M11M
1M1M
,
1MM1
11MM
M11M
MM11
,
11MM
M1M1
11MM
M1M1
,
MM11
1M1M
2M12
3003
,
0001
0100
0110
0010
1000
0001
0011
0010
,
0100
0000
1000
0000
1001
0000
0001
0000
0100
0000
0010
1000
0002
0000
1000
0000
,
2003
0010
0010
0010
3010
0100
0101
0001
,
1000
0010
0110
0100
0202
0000
0000
0303
,
2002
0000
3003
0000
1000
0100
0010
0001
,
2000
0010
0010
0010
3020
0100
0100
0130
,
0220
0330
0202
0000
,
0010
0000
1000
0303
,
1001
1000
0100
0100
0010
0001
0100
0100
,
0010
1000
0001
0001
0010
0100
1000
1000
,
1001
0001
0100
0010
1010
1000
0100
1000
,
1010
0000
0010
0000
0100
0000
0001
0000
0011
0000
0001
0010
0100
0000
1000
0100
,
0010
0001
0100
0010
1010
1000
0100
0010
,
0011
0001
0010
0100
1100
1000
0001
1000
,
1100
0000
0100
0000
0010
0000
0001
0000
0101
0000
0100
0000
0010
0000
1000
0100
,
1000
0000
0010
0000
0100
0000
0001
0000
1001
0000
1000
0100
0010
0000
0001
0010
,
M100
11MM
1MM1
M1M1
,
M11M
1M1M
1MM1
11MM
,
M11M
MM11
1MM1
M1M1
,
1M1M
M11M
21M2
3003
,
11MM
M11M
MM11
1MM1
,
0202
0000
0010
0000
1000
0000
0010
0303
,
0101
M11M
1M1M
1MM1
,
11MM
0000
0000
0000
M11M
0000
0000
0000
2M12
0000
3003
0000
0001
1000
0001
1000
,
0001
1001
1100
1100
,
0110
0000
0000
0000
0110
0000
0000
0000
0011
0000
0001
0010
0100
0000
0000
0000
,
2100
0100
3100
1001
,
0101
0000
0110
0000
2002
0000
0000
3003
,
2100
0000
3100
0000
1000
1000
0100
0010
,
0002
0010
0010
0010
0023
0100
0100
0130
,
0220
0330
2200
0000
,
0010
0000
0001
3300
,
2001
0000
0001
0000
0001
0000
0001
0000
0001
0000
0001
0000
0001
0000
0001
3001
,
1001
1000
0100
0010
0001
0100
0010
1000
1001
0000
1100
0000
0110
0010
0011
0001
,
2002
0000
0000
0000
0000
0000
3003
0000
1000
0000
0010
0000
0100
0000
0001
0000
1100
0000
0100
0010
0000
0001
0000
0100
0000
0020
0000
0000
1030
0000
0100
0000
,
2200
0000
0000
0000
0000
0000
0000
0000
0000
0000
0000
0000
0000
0000
0000
0000
0000
0000
0000
0000
0000
0000
0000
0000
0300
0000
0000
0000
0000
0000
0000
0000
0000
0000
0000
0000
3002
0000
0000
0000
0000
0000
0000
0000
0000
0000
0000
0000
0000
0000
0000
0000
0000
0000
0000
0000
0000
0000
0000
0000
0100
0000
0000
0000
0000
0000
0000
0000
0000
0000
0000
0000
0103
0000
0000
0000
0000
0000
0000
0000
0000
0000
0000
0000
0010
0000
0000
0000
0000
0000
0000
0000
0000
0000
0000
0000
1010
0000
0000
0000
0000
0000
0000
0000
0000
0000
0000
0000
0000
0000
0000
0000
0000
0000
1001
0000
0000
0000
0000
0000
0000
0000
0000
0000
0000
0000
0000
0000
0000
0000
0000
0000
0000
0000
0000
0000
0000
0000
0202
0000
0000
0000
0000
0000
0000
0000
0000
0000
0000
0000
0000
0000
0000
0000
0000
0000
0303
0000
0000
0000
0000
0000
0000
0000
0000
0000
0000
0000
0001
0000
0000
0000
0000
0000
0000
0000
0100
0000
0000
0000
0000
0000
0000
0000
0010
0000
0000
0000
0000
0000
0000
0000
,
2020
0000
0000
0000
3030
0000
0000
0000
1001
0000
0000
0001
0000
0000
0100
0000
0020
0000
0100
0000
0030
0000
0000
0000
1001
0000
0000
1000
0000
0000
0100
0000
,
0220
0000
0000
0000
0000
0000
0000
0000
0000
0000
0000
0000
0000
0000
0000
0000
0000
0000
0000
0000
0000
0000
0000
0000
0330
0000
0000
0000
0000
0000
0000
0000
0000
0000
0000
0000
0000
0000
0000
0000
0000
0000
0000
0000
0000
0000
0000
0000
0011
0000
0000
0000
0000
0000
0000
0000
0000
0000
0000
0000
0000
0000
0000
0000
0000
0000
0001
0000
0000
0000
0000
0000
0000
0000
0000
0000
0000
0000
0000
0000
0000
0000
0000
0000
0100
0000
0000
0000
0000
0000
0000
0000
0000
0000
0000
0000
0010
0000
0000
0000
1000
0000
0000
0000
0010
0000
0000
0000
1000
0000
0000
0000
0000
0000
0000
0000
0000
0000
0000
0000
0001
0000
0000
0000
0000
0000
0000
0000
0000
0000
0000
0000
0010
0000
0000
0000
0000
0000
0000
0000
0000
0000
0000
0000
0100
0000
0000
0000
0000
0000
0000
0000
0000
0000
0000
0000
1000
0000
0000
0000
0000
0000
0000
0000
0000
0000
0000
0000
0100
0000
0000
0000
0000
0000
0000
0000
0000
0000
0000
0000
1000
0000
0000
0000
0000
0000
0000
0000
0000
0000
0000
0000
,
0002
0000
0100
0000
0003
0000
0000
0000
0101
0000
0001
0100
0000
0000
0010
0000
2000
0000
0001
0000
3000
0000
0000
1000
0001
0000
0000
1000
0000
0000
0010
0000
,
0200
0000
0000
0001
0000
0000
0001
0000
0301
0010
0000
0100
0000
1000
0000
0001
2000
0000
0000
0000
0000
0000
0000
0000
3002
0000
0000
0000
0000
0000
0003
0000
,
2002
0000
0000
0000
3003
0000
0000
0000
1001
0000
0000
0001
0000
0000
0100
0000
0020
0000
1000
0000
0030
0000
0000
0000
1010
0000
0000
1000
0000
0000
0001
0000
,
0202
0000
0000
0000
0000
0000
0000
0000
0000
0000
0000
0000
0000
0000
0000
0000
0000
0000
0000
0000
0000
0000
0000
0000
0303
0000
0000
0000
0000
0000
0000
0000
0000
0000
0000
0000
0000
0000
0000
0000
0000
0000
0000
0000
0000
0000
0000
0000
1001
0000
0000
0000
0000
0000
0000
0000
0000
0000
0000
0000
0000
0000
0000
0000
0000
0000
1000
0000
0000
0000
0000
0000
0000
0000
0000
0000
0000
0000
0000
0000
0000
0000
0000
0000
0100
0000
0000
0000
0000
0000
0000
0000
0000
0000
0000
0000
0010
0000
0000
0000
0001
0000
0000
0000
0010
0000
0000
0000
0001
0000
0000
0000
0000
0000
0000
0000
0000
0000
0000
0000
1000
0000
0000
0000
0000
0000
0000
0000
0000
0000
0000
0000
0010
0000
0000
0000
0000
0000
0000
0000
0000
0000
0000
0000
0100
0000
0000
0000
0000
0000
0000
0000
0000
0000
0000
0000
0001
0000
0000
0000
0000
0000
0000
0000
0000
0000
0000
0000
0100
0000
0000
0000
0000
0000
0000
0000
0000
0000
0000
0000
0001
0000
0000
0000
0000
0000
0000
0000
0000
0000
0000
0000
,
2000
0000
0001
0000
3000
0000
0000
0000
0001
0000
0100
0010
0000
0000
1000
0000
0002
0000
0010
0000
0003
0000
0000
0010
0001
0000
0000
0100
0000
0000
0010
0000
,
2020
0000
0000
0000
0000
0000
0000
0000
0000
0000
0000
0000
3030
0000
2000
0000
0000
0000
3001
0000
0100
0000
0010
0000
1000
0000
0001
0100
0010
0000
1000
0000
,
1001
0001
0100
0100
0010
1000
0001
0001
,
0010
0100
1000
1000
0100
0010
0001
0001
,
0100
0010
1000
1000
0010
0100
0001
0001
,
0010
0000
1000
0000
0010
0000
0010
0000
0001
0000
0100
0000
1000
0000
1000
0100
,
0001
0100
0010
1000
1100
0100
0010
0001
,
1001
1000
0010
0100
0101
0001
1000
0010
,
0110
0000
0100
0000
0001
0000
0010
0000
0110
0000
0100
0000
1000
0000
0001
0100
,
0001
0000
0100
0000
0010
0000
1000
0000
1100
0000
1000
0100
0001
0000
0001
0100
,
10M0
11MM
M11M
MM11
,
1MM1
M1M1
1M1M
1MM1
,
11MM
M1M1
MM11
1M1M
,
1MM1
M11M
21M2
3003
,
1MM1
11MM
M11M
MM11
,
0202
0000
0010
0000
1000
0000
0010
0303
,
0101
M11M
1M1M
1MM1
,
11MM
0000
0000
0000
MM11
0000
0000
0000
2M12
0000
3003
0000
0001
1000
0001
1000
,
0001
0100
0011
0100
0010
1000
0101
0010
,
0100
0000
0001
0000
1100
0000
0010
0000
0001
0000
1000
0100
0020
0000
0001
0000
,
0032
1000
1000
1000
1003
0100
0011
0001
,
1001
1000
1010
0010
0220
0000
0000
0330
,
0202
0000
0303
0000
0001
0010
0100
1000
,
0002
0100
0100
0100
0203
0010
0010
0310
,
0220
0330
2002
0000
,
0010
0000
0010
3003
,
2100
0000
0000
0000
0000
0000
0000
0000
0100
0000
0000
0100
0000
0000
0100
0000
0100
0000
0100
0000
0000
0000
0000
0000
0100
0000
0000
0100
0000
0000
3100
0000
,
0220
0000
0000
0000
0000
0000
0000
0000
0000
0000
0000
0000
0000
0000
0000
0000
0000
0000
0000
0000
0000
0000
0000
0000
0330
0000
0000
0000
0000
0000
0000
0000
0000
0000
0000
0000
0000
0000
0000
0000
0000
0000
0000
0000
0000
0000
0000
0000
0011
0000
0000
0000
0000
0000
0000
0000
0000
0000
0000
0000
0000
0000
0000
0000
0000
0000
0001
0000
0000
0000
0000
0000
0000
0000
0000
0000
0000
0000
0000
0000
0000
0000
0000
0000
0100
0000
0000
0000
0000
0000
0000
0000
0000
0000
0000
0000
0001
0000
0000
0000
1000
0000
0000
0000
0001
0000
0000
0000
1000
0000
0000
0000
0000
0000
0000
0000
0000
0000
0000
0000
0001
0000
0000
0000
0000
0000
0000
0000
0000
0000
0000
0000
0010
0000
0000
0000
0000
0000
0000
0000
0000
0000
0000
0000
0100
0000
0000
0000
0000
0000
0000
0000
0000
0000
0000
0000
1000
0000
0000
0000
0000
0000
0000
0000
0000
0000
0000
0000
0100
0000
0000
0000
0000
0000
0000
0000
0000
0000
0000
0000
1000
0000
0000
0000
0000
0000
0000
0000
0000
0000
0000
0000
,
0200
0000
1000
0000
0300
0000
0000
0000
0100
0000
1000
0100
0000
0000
0010
0000
0002
0000
1000
0000
0003
0000
0000
1000
0001
0000
0000
1000
0000
0000
0010
0000
,
0200
0000
0000
0001
0000
0000
0001
0000
0301
0010
0000
0100
0000
1000
0000
0010
0200
0000
0000
0000
0000
0000
0300
0000
2002
0000
0000
0000
3003
0000
1000
0000
,
2002
0000
0000
0000
3003
0000
0000
0000
1100
0000
0000
0100
0000
0000
0010
0000
,
0022
0000
0000
0000
0033
0000
0000
0000
1001
0000
0000
0001
0000
0000
0100
0000
,
2020
0000
0000
0000
3030
0000
0000
0000
1001
0000
0000
0100
0000
0000
0010
0000
,
1000
0100
1000
0000
0010
0000
0100
0000
0001
0000
1000
0000
0001
0000
1000
0000
,
2002
0000
0000
0000
3003
0000
0000
0000
1001
0000
0000
0010
0000
0000
0100
0000
,
0022
0000
0000
0000
0033
0000
0000
0000
1100
0000
0000
0010
0000
0000
0100
0000
,
0000
2002
0000
0000
0000
0000
3003
2000
,
0000
0000
3010
0000
0100
0000
0001
0000
0010
0000
0010
0001
0010
0000
0010
0000
,
0011
0000
0001
0000
0100
0000
0010
0000
1010
0000
1000
0100
0010
0000
0011
0000
,
1001
0000
1000
0000
0010
0000
0100
0000
0101
0000
0001
1000
0100
0000
0110
0000
,
0011
0000
0001
0000
0100
0000
0010
0000
1010
0000
1000
0100
1000
0000
1100
0000
,
1001
0001
0100
0010
1001
0100
0010
1000
,
1100
0000
0100
0000
0010
0000
0001
0000
1001
0000
1000
0100
0010
0000
0011
0000
,
1001
0000
1000
0000
0010
0000
0100
0000
0101
0000
0001
1000
0100
0000
0110
0000
,
0011
0001
0100
0010
1000
0010
0100
0001
,
1001
1000
0100
0010
0002
0100
0100
0103
,
0101
0000
0100
0000
0010
0000
1000
0000
1100
0000
0100
0010
0001
0000
1001
0000
,
1100
0000
0010
0000
0100
0000
0001
0000
1100
0000
0010
0100
0001
0000
1001
0000
,
0101
0000
0001
0000
0100
0000
0010
0000
1001
0000
0100
0010
1000
0000
0101
0000
,
1001
0100
0010
1000
0101
0010
1000
0001
,
1100
0000
0100
0000
1000
0000
0010
0000
0101
0000
0001
0100
0001
0000
0101
0000
,
1001
0000
1000
0000
0100
0000
0010
0000
0011
0000
0001
0010
0100
0000
1100
0000
,
1001
1001
0001
0100
0010
1000
0010
0101
,
0101
0001
0010
0100
0100
1000
0010
0100
,
1001
0000
0000
0000
;

//---------------dance-single - ----------------
#NOTES:
     dance-single:
     :
     Hard:
     8:
     0.640,0.574,0.831,0.437,0.132:
0000
0000
0000
0000
,
0000
0000
0000
0000
,
0000
0000
0000
0000
,
0000
0000
0000
0000
,
1001
0001
0100
0100
0010
1000
0010
0010
,
0100
0001
0010
0010
1000
0010
0100
0100
,
1000
0010
0100
0100
0001
0100
0001
0001
,
1000
0100
0010
0010
0001
0010
0100
0100
,
1100
1001
0101
0110
,
1010
1001
1100
1001
,
0101
1100
1010
0011
,
1001
0110
2002
3003
,
1001
1100
0110
0011
,
1001
0101
0110
1010
,
1001
1100
0011
0101
,
1010
0110
2002
3003
,
1000
0100
0110
0000
0001
0100
0101
0000
,
1000
0000
0001
0000
0101
0000
0000
0000
0010
0000
1000
0100
2000
0000
0000
0000
,
3002
0000
0100
0000
0103
0010
1000
0000
,
1001
0101
2002
3003
,
2200
0000
3300
0000
1000
0100
0010
0001
,
2000
0010
3020
0130
,
0220
0330
2002
3003
,
2200
3300
0202
0303
,
2001
0010
0100
0010
,
0001
0100
0010
0100
,
3001
0100
0010
0010
1000
0100
1000
1000
,
0100
0001
0100
0100
0010
0001
1000
1000
,
0001
0100
1000
1000
0100
0001
0010
0010
,
0100
1000
0100
0100
0010
0001
1000
1000
,
0001
0010
1000
1000
0010
0001
0100
0100
,
0001
0010
0001
0001
1000
0100
1000
1000
,
1100
1001
0101
0110
,
1010
0101
1001
1100
,
1001
0101
0011
1010
,
0110
1001
0220
0330
,
1001
1100
0011
1100
,
0101
1010
0101
1001
,
1100
0101
0011
1010
,
0110
1001
2200
3300
,
1100
1100
0101
0101
,
1010
0000
0000
0000
1010
0000
0000
0000
0001
0000
1000
0100
2000
0000
0000
0000
,
3020
0100
0130
0101
,
1001
1100
2002
3003
,
2200
0000
3300
0000
1000
0100
1000
0100
,
0020
0001
0032
1003
,
2002
3003
2200
3300
,
0202
0303
0220
0330
,
2002
0000
0000
3003
,
1000
0100
0010
0001
1000
1000
0001
0001
,
1001
0000
1000
0010
0100
0001
0010
0100
,
1000
0000
0000
1000
0000
0000
0010
0100
0001
0000
0001
0000
0001
0000
1000
0100
,
1000
0000
0000
0000
0000
0000
0000
0000
0001
0000
0000
0100
0000
0000
0010
0000
1000
0000
0000
0000
0000
0000
0000
0000
0001
0000
0000
0010
0000
0000
0100
0000
,
1000
0000
0000
0000
0000
0000
0000
0000
0001
0000
0000
0010
0000
0000
0001
0000
0100
0000
0000
0000
0010
0000
1000
0000
0001
0000
0000
0000
0000
0000
0000
0000
,
1000
0000
0000
0000
0000
0000
0000
0000
1000
0000
0000
0100
0000
0000
0010
0000
0001
0000
0000
0000
0000
0000
0000
0000
1000
0000
0000
0010
0000
0000
0100
0000
,
0001
1000
1000
0100
0020
0000
0032
0000
,
1003
0000
0000
0000
0000
0000
0000
0000
1000
0000
0000
0010
0000
0000
0100
0000
0010
0000
0000
0000
0000
0000
0000
0000
1000
0000
0000
0100
0000
0000
1000
0000
,
0001
0000
0000
0000
0000
0000
0000
0000
1000
0000
0000
0001
0000
0000
1000
0000
0100
0000
0000
0000
0010
0000
0001
0000
0010
0000
0000
0000
0000
0000
0000
0000
,
0001
0000
0000
0000
0000
0000
0000
0000
0001
0000
0000
0100
0000
0000
0010
0000
0100
0000
0000
0000
0000
0000
0000
0000
0001
0000
0000
0010
0000
0000
0100
0000
,
0020
0000
0000
0000
0000
0000
0000
0031
0000
1000
0100
1000
0100
0010
0001
1000
,
0001
0100
0010
1000
,
0010
0100
0001
0010
,
0100
1000
0100
0010
,
0001
0100
0010
1000
,
1001
0100
0010
0010
1000
0100
0010
0010
,
0001
0010
0100
0100
1000
0010
0100
0100
,
0001
0100
1000
1000
0100
0001
0010
0010
,
1000
0010
0001
0001
0100
0010
1000
1000
,
1001
0101
0110
1010
,
1001
1100
0110
0011
,
1100
0101
0011
1010
,
1001
0110
2002
3003
,
1100
0110
0011
1001
,
0101
1010
1100
0011
,
0101
1100
0101
1100
,
1010
0011
2002
3003
,
1000
0100
0011
0000
0001
0100
1010
0000
,
0001
0000
0010
0000
1100
0000
0000
0000
1000
0000
0100
0010
0200
0000
0000
0000
,
2300
0000
0001
0000
3001
0100
1010
0000
,
1001
0101
2002
3003
,
2200
0000
3300
0000
1000
0100
0010
0001
,
2000
0010
3020
0130
,
0220
0330
2002
3003
,
2200
3300
0202
0303
,
2001
0000
0000
0000
0000
0000
0000
0000
0001
0000
0000
0001
0000
0000
0001
0000
0001
0000
0000
0000
0000
0000
0000
0000
0001
0000
0000
0001
0000
0000
0001
0000
,
3001
0000
0000
0000
0000
0000
0000
0000
1000
0000
0000
0010
0000
0000
0100
0000
0001
0000
0000
0000
1000
0000
0100
0000
1000
0000
0000
0000
0000
0000
0000
0000
,
0001
0000
0000
0000
0000
0000
0000
0000
0001
0000
0000
0100
0000
0000
0010
0000
1000
0000
0000
0000
0000
0000
0000
0000
0001
0000
0000
0010
0000
0000
0001
0000
,
0200
0010
0010
0010
0320
0000
2030
0000
,
3002
0000
0000
0000
0003
0000
0000
0000
1000
0000
0000
0010
0000
0000
0100
0000
,
0202
0000
0000
0000
0303
0000
0000
0000
0001
0000
0000
0010
0000
0000
0100
0000
,
2200
0000
0000
0000
3300
0000
0000
0000
1000
0000
0000
0010
0000
0000
0100
0000
,
0001
0001
0010
0100
1000
0100
1000
0100
,
2200
0000
0000
0000
3300
0000
0000
0000
1000
0000
0000
0010
0000
0000
1000
0000
,
2002
0000
0000
0000
3003
0000
0000
0000
0001
0000
0000
0010
0000
0000
0100
0000
,
0000
2002
0000
0000
0000
3003
0000
1000
,
0000
0010
0100
0001
0100
0010
1000
0001
,
1001
0000
1000
0100
0010
0001
0100
0010
,
1010
0000
0001
0010
0100
1000
0010
0100
,
0101
0000
0001
0010
0001
0010
0100
0010
,
0001
0001
0100
0010
1000
1000
0010
0100
,
0101
0000
0001
0010
0001
0100
0010
1000
,
1001
0000
0001
0010
0001
0100
0010
1000
,
1100
0000
1000
0100
0010
0001
0100
0010
,
1010
0000
0100
0001
0101
0000
0001
1000
,
1001
0000
0001
0010
0001
0100
0010
1000
,
1010
0000
1000
0100
0010
0001
0010
0100
,
1100
0000
1000
0010
0100
1000
0100
0001
,
0100
0100
0010
1000
0001
0001
0010
0100
,
1100
0000
1000
0100
0001
0100
1000
0010
,
0110
0000
0100
0001
0100
0010
1000
0001
,
1000
1000
0001
0010
0100
1000
0100
0010
,
0011
0001
0100
0010
1000
1000
0001
1000
,
1001
0000
0000
0000
;

//---------------dance-single - ----------------
#NOTES:
     dance-single:
     :
     Medium:
     6:
     0.467,0.544,0.518,0.259,0.000:
0000
0000
0000
0000
,
0000
0000
0000
0000
,
0000
0000
0000
0000
,
0000
0000
0000
0000
,
1000
0100
1000
0100
0000
0001
0100
0001
,
0000
1000
0100
0010
0000
0001
0010
0100
,
0000
1000
0010
0100
0000
0001
0100
0010
,
0000
1000
0100
1000
0000
0001
0100
0001
,
0100
0101
1000
1100
,
0001
0011
1000
1010
,
0010
0110
1000
1001
,
0101
1100
2002
3003
,
1000
1100
0010
0011
,
0001
1001
1000
1001
,
0010
0110
0100
0110
,
0110
1001
2002
3003
,
1000
0100
1000
0000
0001
0100
0001
0000
,
1000
0100
0010
0000
0001
0010
0200
0000
,
2300
0001
3001
1000
,
0010
0100
2002
3003
,
2200
0000
3300
0000
0001
0000
0100
0010
,
2000
0000
3002
0000
,
1003
0000
1001
0000
,
1100
0000
0101
0000
,
2002
0000
0000
0000
,
0000
0000
0000
3003
,
1000
0100
1000
0100
0000
0010
0001
0010
,
0000
0100
1000
0001
0000
0100
0010
1000
,
0000
0010
0100
0001
0000
0010
0100
1000
,
0000
0100
0010
0001
0000
0100
0010
1000
,
0000
0001
0010
0001
0000
1000
0100
1000
,
0000
0001
0100
0010
0000
1000
0100
1000
,
0100
0110
0010
0011
,
0001
1001
1000
1010
,
0010
0110
0100
0101
,
1001
1100
2002
3003
,
0001
0101
1000
1100
,
0010
0110
0001
1001
,
1000
1100
0010
0011
,
1100
0011
2002
3003
,
1000
1000
0001
0001
,
0100
0000
0100
0000
0010
1000
0001
0000
,
2000
0001
3001
0100
,
0010
1000
2002
3003
,
0202
0000
0303
0000
0001
0000
0100
0010
,
2000
0000
3002
0000
,
1003
0000
1100
0000
,
0101
0000
0110
0000
,
2002
0000
0000
3003
,
1000
0000
0100
0000
0010
0010
0001
0001
,
1000
0001
0100
0010
,
1000
0000
1000
0000
0001
0010
0100
0000
,
1000
0000
1000
0100
1000
0000
0001
0100
,
0001
0000
1000
0010
0100
0000
0001
0000
,
1000
0000
0001
0010
0100
0000
1000
0100
,
0010
0010
0001
0001
1000
0000
0001
0000
,
1000
0000
0001
0100
0010
0000
1000
0100
,
0001
0000
0100
1000
0010
0000
0100
0000
,
0001
0000
0010
0100
1000
0000
0100
0010
,
0002
0000
0000
0000
1003
0010
0100
0001
,
1000
1000
0100
0100
,
0010
0010
0001
0001
,
1000
0010
0100
0001
,
0100
0010
1000
0001
,
1000
0100
1000
0100
0000
0010
0001
0010
,
0000
0100
1000
0010
0000
0100
0001
1000
,
0000
0001
0010
0100
0000
1000
0100
0010
,
0000
0001
0100
0010
0000
1000
0100
1000
,
1100
1100
0101
0101
,
1001
1001
1100
1100
,
0101
0101
0011
0011
,
1010
0110
2002
3003
,
1100
1100
0101
0101
,
0011
0011
1010
1010
,
0110
0110
1001
1001
,
1100
0101
2002
3003
,
1000
0100
1000
0000
0001
0100
0001
0000
,
1000
0100
0010
0000
0001
0100
0010
0000
,
2000
0001
3001
0101
,
1001
1100
2002
3003
,
0202
0000
0303
0000
1000
0000
0100
0010
,
0002
0000
2003
0000
,
3001
0000
0101
0000
,
1100
0000
0110
0000
,
2001
0000
0001
0001
0001
0000
0001
0001
,
3001
0000
0100
0010
1000
0000
0001
0000
,
1000
0000
0001
0010
0100
0000
1000
0100
,
0010
0010
0001
0001
1000
0000
0001
0000
,
1001
0000
1000
0010
,
0200
0000
0301
0010
,
0002
0000
1003
0010
,
1000
1000
0001
0001
,
0020
0000
0130
1000
,
0002
0000
0103
0010
,
0000
2000
0000
0000
0000
0000
0000
3001
,
0000
0100
0010
0000
1000
0000
0001
0000
,
1001
0000
0000
0000
1000
0100
0010
0001
,
1000
0000
0000
0000
0001
0100
0001
0100
,
0010
0000
0000
0000
1000
0100
0010
0100
,
1000
1000
0001
0001
,
1001
0000
0000
0000
1000
0010
0100
0001
,
0100
0000
0000
0000
0001
0010
0100
1000
,
0002
0100
0100
0103
,
0101
0100
1010
1000
,
1001
0000
0000
0000
0001
0010
0001
0010
,
0001
0000
0000
0000
1000
0100
1000
0100
,
1000
0000
0000
0000
0001
1000
0001
1000
,
0001
0001
0100
0100
,
0110
0000
0000
0000
0010
0100
0010
0100
,
0010
0000
0000
0000
1000
0001
1000
0001
,
0000
2002
0000
0000
0000
0000
3003
0000
,
1000
0000
0010
0000
1000
0100
0010
0001
,
1001
0000
0000
0000
;

//---------------dance-single - ----------------
#NOTES:
     dance-single:
     :
     Easy:
     4:
     0.282,0.544,0.308,0.092,0.000:
0000
0000
0000
0000
,
0000
0000
0000
0000
,
0000
0000
0000
0000
,
0000
0000
0000
0000
,
1000
0000
0100
0000
,
0010
0000
0001
0000
,
0100
0000
0010
0000
,
1000
0000
0001
0000
,
1000
1000
1000
1000
,
0001
0001
0001
0001
,
0100
0100
0100
0100
,
0001
1000
1001
0000
,
1000
1000
1000
1000
,
0100
0100
0100
0100
,
0010
0010
0010
0010
,
0001
1000
1001
0000
,
0001
0001
0100
0100
,
0010
0010
1000
1000
,
0002
0000
0003
1000
,
0000
0100
0100
0000
,
0020
0030
0001
0001
,
1000
0000
0001
0000
,
1001
0000
1001
0000
,
0110
0000
0110
0000
,
2002
0000
0000
0000
,
0000
0000
0000
3003
,
1000
0000
1000
0000
,
0010
0000
0010
0000
,
0100
0000
0100
0000
,
0001
0000
0001
0000
,
1000
0000
0010
0000
,
0100
0000
0001
0000
,
1000
1000
1000
1000
,
0100
0100
0100
0100
,
0010
0010
0010
0010
,
0001
1000
1001
0000
,
0001
0001
0001
0001
,
0100
0100
0100
0100
,
0010
0010
0010
0010
,
1000
0100
1100
0000
,
0001
0001
0100
0100
,
0010
0010
1000
1000
,
0002
0000
1003
0100
,
0010
0001
2000
3000
,
0002
0003
0100
0010
,
1000
0000
0001
0000
,
0110
0000
1001
0000
,
1100
0000
0101
0000
,
2002
0000
0000
3003
,
1000
0100
0010
0010
,
0001
0000
1000
0000
,
0010
0010
0100
0000
,
0001
0000
0001
0000
,
1000
0000
1000
0000
,
0010
0000
0100
0000
,
0001
0000
1000
1000
,
0001
0000
0100
0000
,
0010
0000
1000
0000
,
0001
0000
0010
0000
,
0100
0000
1000
1000
,
0001
0000
0000
0000
,
0001
0000
0000
0000
,
0100
0000
0000
0000
,
0010
0000
0000
0000
,
1000
0000
0100
0000
,
0010
0000
0001
0000
,
1000
0000
0010
0000
,
0100
0000
0001
0000
,
1100
1100
1100
1100
,
1001
1001
1001
1001
,
0101
0101
0101
0101
,
1001
1001
1001
0000
,
0110
0110
0110
0110
,
1001
1001
1001
1001
,
0011
0011
0011
0011
,
1010
1010
1010
0000
,
1000
1000
0010
0010
,
0100
0100
0001
0001
,
0020
0000
0030
1000
,
0010
0100
0002
0003
,
2000
3000
0001
0100
,
0010
0000
1000
0000
,
1001
0000
0011
0000
,
1010
0000
0110
0000
,
2002
0000
0000
3003
,
1000
0000
0100
0000
,
0010
0000
0001
0000
,
0100
0000
0010
0010
,
1000
0000
0001
0001
,
0100
0000
0010
0010
,
1000
0000
0001
0001
,
0010
0000
0100
0000
,
1000
0000
0010
0100
,
0100
0000
0001
1000
,
2000
0000
0000
3000
,
0001
0000
1000
0000
,
1001
0000
0001
0100
,
0101
0000
1000
0100
,
1100
0000
0001
0010
,
0100
0100
1000
1000
,
0001
0000
1000
0010
,
0100
0000
0001
0010
,
0200
0000
0000
0300
,
1100
0000
0101
0000
,
1001
0000
1000
0010
,
0100
0000
0001
0010
,
0001
0000
1000
0100
,
0010
0010
0001
0001
,
1001
0000
1000
0010
,
0100
0000
0001
0010
,
0200
0000
0000
0300
,
1000
1000
0001
0001
,
1001
0000
0000
0000
;

//---------------dance-single - ----------------
#NOTES:
     dance-single:
     :
     Beginner:
     2:
     0.180,0.302,0.076,0.000,0.000: // measure 1
0000
0000
0000
0000
,  // measure 2
0000
0000
0000
0000
,  // measure 3
0000
0000
0000
0000
,  // measure 4
0000
0000
0000
0000
,  // measure 5
1000
0000
0000
0000
,  // measure 6
1000
0000
0000
0000
,  // measure 7
0001
0000
0000
0000
,  // measure 8
0001
0000
0000
0000
,  // measure 9
1000
1000
1000
1000
,  // measure 10
1000
1000
1000
1000
,  // measure 11
1000
1000
1000
1000
,  // measure 12
1000
1000
1000
0000
,  // measure 13
0001
0001
0001
0001
,  // measure 14
0001
0001
0001
0001
,  // measure 15
0001
0001
0001
0001
,  // measure 16
0001
0001
0001
0000
,  // measure 17
0100
0100
0100
0100
,  // measure 18
0100
0100
0100
0100
,  // measure 19
0100
0100
0100
0100
,  // measure 20
0100
0100
0100
0000
,  // measure 21
0010
0010
0010
0010
,  // measure 22
0010
0010
0010
0010
,  // measure 23
0010
0000
0010
0000
,  // measure 24
0010
0000
0010
0000
,  // measure 25
0110
0000
0000
0000
,  // measure 26
0000
0000
0000
0000
,  // measure 27
1000
0000
0000
0000
,  // measure 28
1000
0000
0000
0000
,  // measure 29
0001
0000
0000
0000
,  // measure 30
0001
0000
0000
0000
,  // measure 31
0100
0000
0000
0000
,  // measure 32
0100
0000
0000
0000
,  // measure 33
0001
0001
0001
0001
,  // measure 34
0001
0001
0001
0001
,  // measure 35
0001
0001
0001
0001
,  // measure 36
0001
0001
0001
0000
,  // measure 37
1000
1000
1000
1000
,  // measure 38
1000
1000
1000
1000
,  // measure 39
1000
1000
1000
1000
,  // measure 40
1000
1000
1000
0000
,  // measure 41
0100
0100
0100
0100
,  // measure 42
0100
0100
0100
0100
,  // measure 43
0100
0100
0100
0100
,  // measure 44
0100
0100
0100
0000
,  // measure 45
0010
0000
0010
0000
,  // measure 46
0001
0000
0001
0000
,  // measure 47
1000
0000
1000
0000
,  // measure 48
1000
0000
1000
0000
,  // measure 49
1001
0000
0000
0000
,  // measure 50
1000
0000
0000
0000
,  // measure 51
0001
0000
0000
0000
,  // measure 52
0010
0000
0000
0000
,  // measure 53
0100
0000
0100
0000
,  // measure 54
0100
0000
0100
0000
,  // measure 55
1000
0000
1000
0000
,  // measure 56
1000
0000
1000
0000
,  // measure 57
0001
0000
0001
0000
,  // measure 58
0001
0000
0001
0000
,  // measure 59
0010
0000
0010
0000
,  // measure 60
0010
0000
0010
0000
,  // measure 61
1001
0000
0000
0000
,  // measure 62
0000
0000
0000
0000
,  // measure 63
1001
0000
0000
0000
,  // measure 64
0000
0000
0000
0000
,  // measure 65
1000
0000
0000
0000
,  // measure 66
0100
0000
0000
0000
,  // measure 67
0010
0000
0000
0000
,  // measure 68
0001
0000
0000
0000
,  // measure 69
1000
0000
0100
0000
,  // measure 70
0010
0000
0001
0000
,  // measure 71
0100
0000
0010
0000
,  // measure 72
1000
1000
1000
0000
,  // measure 73
0001
0000
0010
0000
,  // measure 74
0001
0000
0100
0000
,  // measure 75
0010
0000
1000
0000
,  // measure 76
0001
0001
0001
0000
,  // measure 77
0100
0000
0010
0000
,  // measure 78
1000
0000
0001
0000
,  // measure 79
1000
0000
0100
0000
,  // measure 80
0010
0010
0010
0000
,  // measure 81
0001
0000
0001
0000
,  // measure 82
0100
0000
0100
0000
,  // measure 83
1001
0000
1001
0000
,  // measure 84
1001
0000
1001
0000
,  // measure 85
1001
0000
0000
0000
,  // measure 86
1000
0000
1000
0000
,  // measure 87
0001
0000
0001
0000
,  // measure 88
0001
0000
0100
0000
,  // measure 89
0100
0000
0000
0000
,  // measure 90
0001
0000
0000
0000
,  // measure 91
1000
0000
0000
0000
,  // measure 92
0100
0000
0100
0000
,  // measure 93
0100
0000
0000
0000
,  // measure 94
0010
0000
0000
0000
,  // measure 95
0010
0000
0000
0000
,  // measure 96
0001
0000
0001
0000
,  // measure 97
1001
0000
0000
0000
,  // measure 98
1000
0000
0000
0000
,  // measure 99
0010
0000
0000
0000
,  // measure 100
0100
0000
0100
0000
,  // measure 101
0100
0000
0000
0000
,  // measure 102
0001
0000
0000
0000
,  // measure 103
0010
0000
0000
0000
,  // measure 104
0110
0000
0110
0000
,  // measure 105
1001
0000
0000
0000
,  // measure 106
1000
0000
0000
0000
,  // measure 107
0010
0000
0000
0000
,  // measure 108
0100
0000
0001
0000
,  // measure 109
1000
0000
0000
0000
,  // measure 110
0010
0000
0000
0000
,  // measure 111
0100
0000
0000
0000
,  // measure 112
0001
0000
1000
0000
,  // measure 113
1001
0000
0000
0000
;
