#TITLE:博霊神社町内会音頭;
#SUBTITLE:;
#ARTIST:IOSYS;
#TITLETRANSLIT:Hakurei Shrine Neighbourhood Association Marching Song;
#SUBTITLETRANSLIT:;
#ARTISTTRANSLIT:;
#CREDIT:;
#BANNER:Hakurei Shrine Neighbourhood Association Marching Song.png;
#BACKGROUND:Hakurei Shrine Neighbourhood Association Marching Song - bg.PNG;
#LYRICSPATH:;
#CDTITLE:cdtitlegpop.png;
#MUSIC:Hakurei Shrine Neighbourhood Association Marching Song.ogg;
#OFFSET:1.280;
#SAMPLESTART:77.160;
#SAMPLELENGTH:12.000;
#SELECTABLE:YES;
#BPMS:0.000=156.001;
#STOPS:;
#BGCHANGES:3.500=Hakurei Shrine Neighbourhood Association Marching Song.avi=1.000=1=0=1,
99999=-nosongbg-=1.000=0=0=0 // don't automatically add -songbackground-
;

//---------------dance-single - ----------------
#NOTES:
     dance-single:
     :
     Hard:
     8:
     0.565,0.613,0.213,0.151,0.053:
0000
0000
0000
0000
,
0000
0000
0000
0000
,
0000
0000
0000
0000
,
0000
0000
0000
0000
,
0000
0000
0000
0000
,
0000
0000
0000
0000
,
1000
0100
0010
0001
0100
0010
0000
2000
,
0000
3010
0100
0001
0010
0100
0000
2000
,
0000
3010
0100
0001
0100
0010
0000
0200
,
0000
0301
0010
0100
1000
0100
0010
0001
,
1000
0100
0010
0001
0100
0010
0000
2000
,
0000
3010
0100
0001
0010
0100
0000
2000
,
0000
3100
0010
0001
0010
0100
0000
2000
,
0000
3010
0100
0001
0010
0100
1000
0010
,
1000
0000
0001
0100
0001
0000
0100
0000
0010
0000
1000
0000
0001
0000
0000
0000
,
1000
0000
0100
0010
0100
0000
1000
0000
0010
0000
0100
0000
0001
0000
0000
0000
,
1000
0000
0001
0100
0001
0000
0000
0000
0001
0000
1000
0100
1000
0000
0000
0000
,
0001
0000
1000
0100
1000
0000
0010
0000
0100
0000
0001
0000
0010
0000
0001
1000
,
0001
0100
0010
1000
,
0010
0100
0001
0010
,
0100
1000
0100
0001
,
0100
1000
0010
0100
,
0011
0100
1000
0010
,
0100
0001
0100
0010
,
1100
0001
0100
0010
,
1100
0000
0000
0000
0011
0000
0000
0000
1000
0000
0000
0100
0000
0000
0001
0000
,
1001
1000
0010
0100
0001
0010
0000
0200
,
0000
1300
0010
0100
0001
0100
0000
0020
,
0000
1030
0100
0010
0001
0010
0000
0200
,
0000
1300
0010
0100
0001
0010
0100
1000
,
1000
0010
0100
0001
0100
0010
0000
2000
,
0000
3100
0010
0100
1000
0010
0000
0200
,
0000
0301
0010
0100
1000
0100
0000
0020
,
0000
0031
0010
0100
1000
0010
0100
0001
,
1000
0100
1000
0000
0010
0000
0100
0010
,
1000
0000
0001
0001
0000
0100
0100
0000
,
0010
1000
0100
0010
0000
0001
0001
0000
,
1000
0000
0010
0000
0100
0001
0010
0100
,
1000
0000
0100
0010
0000
0001
0100
0010
,
1000
0000
0000
0000
1001
0000
0000
0000
0001
0000
0000
0001
0000
0000
0001
0000
,
1000
0000
0100
0100
0000
0010
0001
0100
,
0001
0000
0000
0001
0000
0000
0001
0000
0100
0000
0000
0100
0000
0000
0100
0000
,
0001
0010
0001
0100
0001
1000
0001
0100
,
0000
0010
0010
0000
1000
0100
0010
0001
,
1000
0100
1000
0010
1000
0001
1000
0010
,
0000
0100
0100
0000
0001
0010
0100
1000
,
0001
0100
1000
0100
0001
0100
1000
0100
,
0000
0001
0001
0000
1000
0100
0010
0001
,
1000
0100
0001
0100
1000
0100
0001
0100
,
0000
1000
1000
0000
0010
0100
0001
1000
,
2002
0000
0000
3003
,
1000
0010
0100
0001
0000
0010
0100
1000
,
0010
0000
0100
0001
0010
0100
1000
0100
,
1100
0000
0011
0000
1000
0010
0100
0001
,
0000
1000
0100
0010
0001
0100
0010
1000
,
1010
0000
0101
0000
0001
0100
0010
1000
,
0001
0000
1000
0100
0000
0010
0001
0100
,
0110
0000
1000
0001
0000
0100
0010
1000
,
0001
0000
0000
0000
0001
0000
1000
0100
1000
0000
0010
0000
0100
0000
0001
0000
,
1001
0000
1001
0000
0001
0100
0010
1000
,
0001
0000
0000
0000
1000
0000
0100
0000
0010
0000
0001
0010
0001
0000
1000
0000
,
1001
0000
0001
1000
0000
0100
0010
0001
,
0000
1000
0010
0100
0001
0010
0100
1000
,
1100
0000
0011
0000
0001
0100
0010
1000
,
0001
0000
1000
0100
0000
0010
0001
0100
,
0101
0000
0001
1001
0000
1000
0100
1000
,
1100
0000
0001
0100
0101
0000
1000
0001
,
0100
0100
0000
0010
0010
0000
1000
1000
,
0000
0001
0001
0000
2002
0000
0000
0000
,
0003
0001
0001
0001
,
3001
0100
0010
1000
0100
1000
0000
2001
,
0000
0100
0010
3001
,
0001
0100
0010
1000
0000
0000
1001
0000
;

//---------------dance-single - ----------------
#NOTES:
     dance-single:
     :
     Medium:
     6:
     0.445,0.516,0.133,0.044,0.000:
0000
0000
0000
0000
,
0000
0000
0000
0000
,
0000
0000
0000
0000
,
0000
0000
0000
0000
,
0000
0000
0000
0000
,
0000
0000
0000
0000
,
1000
0000
0010
0000
0100
0100
0000
0001
,
0000
0000
0010
0000
0100
0100
0000
1000
,
0000
0000
0100
0000
0010
0010
0000
0001
,
0000
0000
0010
0000
0100
1000
0100
1000
,
0100
0000
0010
0000
0001
0001
0000
0100
,
0000
0000
0010
0000
1000
1000
0000
0100
,
0000
0000
0010
0000
0100
0100
0000
1000
,
0000
0000
0010
0000
0100
0001
0100
0001
,
0100
0000
0010
0000
1000
0100
1000
0000
,
0001
0000
0100
0000
0010
1000
0010
0000
,
1000
0100
0010
0000
0001
0010
0100
0000
,
1000
0100
0010
0001
0100
0010
1000
0100
,
1000
1000
1000
1000
,
0001
0001
0001
0001
,
0100
0100
0100
0100
,
0010
0010
0010
0010
,
1000
0100
1000
0100
,
0010
0001
0010
0001
,
1000
0010
1000
0010
,
0100
0001
0100
0001
,
1000
0000
0001
0000
0100
0100
0000
0010
,
0000
0000
1000
0000
0001
0001
0000
0100
,
0000
0000
0010
0000
1000
1000
0000
0010
,
0000
0000
0100
0000
0001
1000
0001
1000
,
0001
0000
0100
0000
0010
1000
0000
0100
,
0000
0000
0010
0000
0001
0100
0000
0010
,
0000
0000
1000
0000
0100
0010
0000
0001
,
0000
0100
0100
0000
0010
1000
0010
1000
,
0010
0000
0100
0000
0001
0000
1000
0100
,
0010
0000
0001
0000
0100
0000
0010
1000
,
0100
0000
0010
0000
0001
0000
0010
0100
,
1000
0000
0010
0000
0100
0001
0100
0001
,
0100
0000
0010
0000
1000
0000
0001
0010
,
0100
0000
1000
0000
0100
0000
0010
0001
,
0010
0100
1000
0010
,
0110
1001
1100
0101
,
1000
0100
1000
0100
1000
0100
1000
0100
,
0000
1000
1000
0000
1100
0000
0101
0000
,
0001
0100
0001
0100
0001
0100
0001
0100
,
0000
0001
0001
0000
0101
0000
1010
0000
,
1000
0010
1000
0010
1000
0010
1000
0010
,
0000
1000
1000
0000
1010
0000
0011
0000
,
0001
0010
0001
0010
0001
0010
0001
0010
,
0000
0001
0001
0000
0011
0000
0110
0000
,
2002
0000
0000
3003
,
1000
0100
0010
0000
0001
0000
0100
0000
,
0010
1000
0100
0000
0010
0000
0001
0000
,
0010
0100
1000
0000
0010
0000
0100
0000
,
0001
0100
0010
0000
1000
0000
0100
0000
,
0010
0001
0010
0000
0100
0000
1000
0000
,
0010
0100
0001
0000
0010
0000
0100
0000
,
1000
0100
0010
0000
0001
0000
0100
0000
,
0010
1000
0001
0000
1000
0001
0100
0000
,
0001
0010
0100
1000
0001
0000
0100
0000
,
0010
1000
0010
0100
0001
0000
0010
0000
,
0100
1000
0100
0010
0001
0000
0100
0000
,
0010
1000
0010
0100
0010
0000
1000
0000
,
0100
0010
0100
1000
0100
0000
0001
0000
,
0100
0010
1000
0001
0010
0000
0100
0000
,
1000
0100
0010
0001
0100
0000
0010
0000
,
1000
0100
0010
0001
0100
0010
1000
0000
,
0001
0001
0000
0001
0001
0000
0001
0001
,
0000
0001
0001
0000
0002
0000
0000
0000
,
0000
1000
1000
1000
,
1003
0001
1000
0001
1000
0001
0000
2002
,
0000
0000
0000
3003
,
1000
0100
0010
0001
0000
0000
1001
0000
;

//---------------dance-single - ----------------
#NOTES:
     dance-single:
     :
     Easy:
     3:
     0.247,0.323,0.124,0.053,0.000:
0000
0000
0000
0000
,
0000
0000
0000
0000
,
0000
0000
0000
0000
,
0000
0000
0000
0000
,
0000
0000
0000
0000
,
0000
0000
0000
0000
,
1000
0100
1000
0000
,
0001
0010
0001
0000
,
1000
0010
1000
0000
,
0001
0100
0001
0100
,
0001
1000
0001
0000
,
0100
0010
0100
0000
,
1000
0001
1000
0000
,
1000
0100
0010
0001
,
1000
0000
0000
0000
,
0001
0000
0000
0000
,
0100
0000
0010
0000
,
1000
0001
1000
1001
,
0001
0000
0000
0000
,
0100
0000
0000
0000
,
0010
0000
0000
0000
,
1000
0000
0000
0000
,
0100
0000
0000
0000
,
0010
0000
0000
0000
,
0001
0000
0000
0000
,
1000
0000
0001
0000
,
1001
1000
1000
0000
,
0001
0100
0010
0000
,
1000
0010
0100
0000
,
0001
0010
0100
1000
,
0001
0100
0010
0000
,
1000
0010
0100
0000
,
0001
1000
0100
0000
,
0001
1000
0010
0100
,
0001
0000
0100
0000
,
0010
0000
1000
0000
,
0100
0000
0010
0000
,
0001
0000
1000
0100
,
0010
0000
0001
0000
,
0010
0000
0100
0000
,
1000
0000
0010
0000
,
0100
0100
0001
1000
,
0001
0001
1000
1000
,
1001
1001
0000
0000
,
0100
0100
0010
0010
,
0110
0110
0000
0000
,
1000
1000
0100
0100
,
1100
1100
0000
0000
,
0001
0001
0100
0100
,
0101
0101
0000
0000
,
2002
0000
0000
3003
,
1000
0000
0100
0000
,
0010
0000
0001
0000
,
0100
0000
0010
0000
,
1000
0000
0010
0000
,
0100
0000
0001
0000
,
0010
0000
0100
0000
,
1000
0000
0100
0000
,
0010
0000
0001
0000
,
1000
0100
1000
0100
,
0010
0001
0010
0001
,
1000
0010
1000
0010
,
0100
0001
0100
0001
,
0100
0010
0100
0010
,
1000
0001
1000
0001
,
1000
0100
0010
0001
,
0100
0010
1000
0001
,
1000
0000
0000
1000
0000
0000
1000
0000
,
0000
1000
0000
0000
2002
0000
0000
0000
,
0000
0000
0000
3003
,
1000
0001
1000
0001
,
2002
0000
0000
3003
,
1000
0001
1000
1001
;

//---------------dance-single - ----------------
#NOTES:
     dance-single:
     :
     Beginner:
     1:
     0.133,0.226,0.044,0.000,0.000:
0000
0000
0000
0000
,
0000
0000
0000
0000
,
0000
0000
0000
0000
,
0000
0000
0000
0000
,
0000
0000
0000
0000
,
0000
0000
0000
0000
,
1000
0000
0000
0000
,
0001
0000
0000
0000
,
1000
0000
0000
0000
,
0001
0000
0000
0000
,
0100
0000
0000
0000
,
0010
0000
0000
0000
,
0100
0000
0000
0000
,
0010
0000
0000
0000
,
1000
1000
1000
0000
,
0001
0001
0001
0000
,
0100
0000
0100
0000
,
0010
0010
0010
0000
,
1001
0000
0000
0000
,
0000
0000
0000
0000
,
0000
0000
0000
0000
,
0000
0000
0000
0000
,
0000
0000
0000
0000
,
0000
0000
0000
0000
,
0000
0000
0000
0000
,
0000
0000
0000
0000
,
1000
0000
0000
0000
,
0100
0000
0000
0000
,
0010
0000
0000
0000
,
0001
0000
0000
0000
,
0100
0000
0000
0000
,
0010
0000
0000
0000
,
1000
0000
0000
0000
,
0001
0000
0000
0000
,
1000
0000
0000
0000
,
1000
0000
1000
0000
,
0001
0000
0000
0000
,
0001
0000
0001
0000
,
0100
0000
0000
0000
,
0100
0000
0100
0000
,
0010
0000
0000
0000
,
0010
0000
0010
0000
,
1000
1000
1000
1000
,
1000
0000
0000
0000
,
0001
0001
0001
0001
,
0001
0000
0000
0000
,
0100
0100
0100
0100
,
0100
0000
0000
0000
,
0010
0010
0010
0010
,
0010
0000
0000
0000
,
1001
0000
0000
0000
,
1000
0000
1000
0000
,
0100
0000
0100
0000
,
0010
0000
0010
0000
,
0001
0000
0001
0000
,
1000
0000
1000
0000
,
0010
0000
0010
0000
,
0100
0000
0100
0000
,
0001
0000
0001
0000
,
1000
0000
0100
0000
,
1000
0000
0100
0000
,
0010
0000
0001
0000
,
0010
0000
0001
0000
,
1000
0000
0010
0000
,
1000
0000
0010
0000
,
0100
0000
0001
0000
,
0100
0000
0001
0000
,
1000
0000
0000
0000
,
0000
0000
0001
0000
,
0000
0000
0000
0000
,
1000
0000
0001
0000
,
1001
0000
0000
0000
,
0110
0000
0000
1001
;

//---------------dance-single - ----------------
#NOTES:
     dance-single:
     :
     Challenge:
     10:
     0.798,0.839,0.532,0.213,0.483: // measure 1
0000
0000
0000
0000
,  // measure 2
0000
0000
0000
0000
,  // measure 3
0000
0000
0000
0000
,  // measure 4
0000
0000
0000
0000
,  // measure 5
0000
0000
0000
0000
,  // measure 6
0000
0000
0000
0000
,  // measure 7
1000
1000
0010
0100
0001
0001
M00M
2000
,  // measure 8
0000
0000
3010
0000
0100
0000
0001
0010
0100
0000
1000
0000
M0M0
0000
0020
0000
,  // measure 9
0000
0130
0001
0010
0100
1000
M00M
0002
,  // measure 10
0000
0000
0000
0103
0000
0000
0010
0000
0000
1000
0000
0000
0100
0000
0000
0010
0001
0010
0001
0000
0000
1000
0000
0000
,  // measure 11
1001
0001
0100
0010
1000
0100
0MM0
0020
,  // measure 12
0000
0000
0031
0000
0100
0000
0010
1000
0001
0000
1000
0000
MM00
0000
0200
0000
,  // measure 13
0000
0310
0001
0100
1000
0100
0M0M
0002
,  // measure 14
0000
0000
0000
0013
0000
0000
0100
0000
0000
1000
0000
0000
0010
0000
0000
1000
0001
1000
0001
0000
0000
0100
0000
0000
,  // measure 15
1001
0000
0000
0000
0000
0000
1000
0000
0000
0100
0000
0000
0010
0000
0000
0000
0000
0000
0001
0000
0000
0000
0000
0000
0100
0000
0000
0000
0000
0000
0010
0000
1000
0000
0010
0000
1000
0000
0000
0000
0000
0000
MMMM
0000
0000
0000
0000
0000
,  // measure 16
1001
0000
1000
0100
0010
0000
0001
0100
0001
0000
0100
0000
1001
0000
MMMM
0000
,  // measure 17
1001
0000
1000
0100
0010
0000
MMMM
0000
1001
0000
0001
0010
0100
0000
MMMM
0000
,  // measure 18
1001
0000
1000
0010
0100
0000
0001
0000
0011
0000
0010
0000
0011
0000
0001
0010
,  // measure 19
0001
0100
0001
0100
0001
0100
0001
0100
,  // measure 20
0010
1000
0010
1000
0010
1000
0010
1000
,  // measure 21
0001
0010
0001
0010
0001
0010
0001
0010
,  // measure 22
0100
1000
0100
1000
0100
0100
0010
0010
,  // measure 23
0001
1000
0001
1000
0001
1000
0001
1000
,  // measure 24
0010
0100
0010
0100
0010
0100
0010
0100
,  // measure 25
0001
0010
0100
1000
0001
0010
0100
1000
,  // measure 26
0001
0000
0000
0001
0000
0000
0001
0010
0100
0000
0000
0100
0000
0000
0100
0000
,  // measure 27
1001
1000
0010
0100
0001
0010
0MM0
0200
,  // measure 28
0000
0000
1300
0000
0010
0000
0100
0001
1000
0000
0010
0000
0MM0
0000
0200
0000
,  // measure 29
0000
0301
1000
0100
0010
0001
M00M
2000
,  // measure 30
0000
0000
0000
3010
0000
0000
0100
0000
0000
0001
0000
0000
1000
0000
0000
0001
0100
0001
0100
0000
0000
0010
0000
0000
,  // measure 31
1001
1000
0010
0100
0001
1000
M0M0
0020
,  // measure 32
0000
0000
0130
0000
0001
0000
1000
0100
0010
0000
0001
0000
0M0M
0000
0200
0000
,  // measure 33
0000
0310
1000
0100
0001
0100
MM00
2000
,  // measure 34
0000
0000
0000
3010
0000
0000
0100
0000
0000
0001
0000
0000
1000
0000
0000
0010
0100
0010
0100
0000
0000
0001
0000
0000
,  // measure 35
1001
0000
1000
0000
0010
0000
0000
0000
0101
0000
0000
1001
0000
0000
1000
0100
,  // measure 36
0010
0000
0001
0000
1000
0000
0000
0000
1010
0000
0000
0110
0000
0000
0001
0100
,  // measure 37
0010
0000
1000
0000
0001
0000
0000
0000
0110
0000
0000
1001
0000
0000
0001
1000
,  // measure 38
0100
0000
0010
0000
0001
0000
0000
0000
1100
0000
0000
0110
0000
0000
0010
0001
,  // measure 39
1000
0000
0010
0000
0100
0000
0000
0000
0101
0000
0000
1001
0000
0000
1000
0100
,  // measure 40
0010
0000
0001
0000
1000
0000
0000
0000
0101
0000
0000
0110
0000
0000
0010
1000
,  // measure 41
0001
0000
0010
0000
0100
0000
0000
0000
1100
0000
0000
0011
0000
0000
0001
0100
,  // measure 42
1000
0000
0100
0000
0001
0000
1000
0100
1000
0100
0010
0001
1000
0010
0100
0001
,  // measure 43
1M00
1000
01M0
0100
001M
0010
M001
0002
,  // measure 44
00M0
0100
M203
0000
0010
0010
0310
200M
,  // measure 45
0000
3001
0M11
0010
M110
0100
110M
2000
,  // measure 46
0M00
0010
302M
0000
M100
0100
0130
0000
,  // measure 47
M001
0100
10M0
0100
M001
0100
100M
0200
,  // measure 48
M000
0001
03M2
0000
1M00
1000
1003
02M0
,  // measure 49
0000
0310
M011
0001
10M1
1000
1M10
0020
,  // measure 50
000M
0100
M230
0000
00M1
0001
0301
1000
,  // measure 51
0001
0100
0010
1000
0100
0010
0001
0100
0010
1000
0010
0100
0001
0010
0100
1000
,  // measure 52
0001
0000
0000
0000
1001
0000
0000
0000
1000
0000
0010
0100
0001
0000
1000
0000
,  // measure 53
0001
0100
0001
0100
0001
0100
0001
0100
0010
1000
0010
1000
0010
1000
0010
1000
,  // measure 54
0001
0000
0000
0000
1001
0000
0000
0000
1000
0000
0010
0100
0001
0000
1000
0000
,  // measure 55
0001
0010
0100
1000
0001
0000
1000
0100
0000
0010
0001
0000
0011
0000
1100
0000
,  // measure 56
1001
0000
0000
0000
1001
0000
0000
0000
1000
0000
0001
0010
0001
0000
1000
0000
,  // measure 57
0001
0010
0100
1000
0001
0010
0100
1000
0001
0100
0010
1000
0001
0100
0010
1000
,  // measure 58
0001
0000
0000
0000
1001
0000
0000
0000
0001
0000
0010
0100
1000
0000
0001
0000
,  // measure 59
1000
0100
1000
0100
0010
0001
0010
0001
1000
0100
0010
0001
0100
0010
1000
0100
,  // measure 60
1000
0000
0000
0000
0011
0000
0000
0000
1000
0000
0100
0010
0001
0000
1000
0000
,  // measure 61
1001
0000
0001
0010
0100
0000
1000
0000
0010
0100
0001
1000
0001
0000
1000
0000
,  // measure 62
0011
0000
0000
0000
1100
0000
0000
0000
0001
0000
0010
0100
1000
0000
0001
0000
,  // measure 63
1000
0010
0100
0001
1000
0000
0001
0100
0000
0010
1000
0000
1010
0000
0101
0000
,  // measure 64
1001
0000
0000
0000
1001
0000
0000
0000
1000
0000
0010
0100
0001
0000
1000
0000
,  // measure 65
1001
0000
0001
0100
0010
0000
1000
0000
0001
0010
0100
1000
0001
0000
0100
0000
,  // measure 66
0110
0000
0000
0000
1001
0000
0000
0000
0001
0000
0010
0100
1000
0000
0001
0000
,  // measure 67
1000
0100
0010
0001
1000
0010
0100
0001
1000
0100
0001
0100
1000
0010
0100
0001
,  // measure 68
1MM0
1000
0000
MM1M
0010
0000
M1MM
0100
,  // measure 69
0000
MMM1
0001
0000
2002
0000
0000
0000
,  // measure 70
0000
0010
0010
3013
,  // measure 71
0001
0010
0100
1000
1001
1001
MMMM
1001
,  // measure 72
1001
0000
0001
0010
0100
0000
1000
0000
1000
0000
0100
0010
0001
0000
1000
0000
,  // measure 73
0101
0000
0000
0110
0000
0000
1010
0000
0000
1001
0000
0000
0000
M0M0
0M0M
0000
0000
0000
1101
0000
0000
0000
0000
0000
;
