#TITLE:Ghostly Band;
#SUBTITLE:~ Phantom Ensemble;
#ARTIST:ZUN;
#TITLETRANSLIT:;
#SUBTITLETRANSLIT:;
#ARTISTTRANSLIT:;
#CREDIT:;
#BANNER:phantomensemble-banner.jpg;
#BACKGROUND:phantomensemble-bg.jpg;
#LYRICSPATH:;
#CDTITLE:cdtitleGpop.png;
#MUSIC:phantomensemble.ogg;
#OFFSET:-1.800;
#SAMPLESTART:51.960;
#SAMPLELENGTH:12.300;
#SELECTABLE:YES;
#BPMS:0.000=155.980;
#STOPS:;
#BGCHANGES:;

//---------------dance-single - ----------------
#NOTES:
     dance-single:
     :
     Challenge:
     9:
     0.961,0.883,0.611,1.000,0.267: // measure 1
0000
0000
0000
0000
,  // measure 2
0000
0000
0000
0000
,  // measure 3
0000
0000
0000
0000
,  // measure 4
0000
0000
0000
0000
0000
0000
0000
0000
0000
0000
0000
0000
0001
0000
1000
0100
,  // measure 5
2000
0000
3002
0000
2003
0000
0010
3020
,  // measure 6
0000
0000
2030
0000
3200
0000
0010
0320
,  // measure 7
0000
0000
0032
0000
0203
0000
0010
0320
,  // measure 8
0000
0000
1030
0000
0100
0000
0010
0000
0001
0100
0001
0100
0010
0000
1000
0000
,  // measure 9
0002
0000
1003
0010
0200
0000
0310
2000
,  // measure 10
0000
0000
3001
0100
0002
0000
0023
0230
,  // measure 11
0000
0000
1300
0001
0200
0000
0320
2030
,  // measure 12
0000
0000
3001
0000
0001
0000
0100
0000
0010
0000
1000
0000
0001
0000
1000
0100
,  // measure 13
2000
0000
3020
0000
0230
0000
0302
0203
,  // measure 14
0010
0000
2300
0000
3200
0000
0302
0023
,  // measure 15
0100
0000
0230
0000
2300
0000
3200
0320
,  // measure 16
0001
0000
0031
0000
0100
0000
0001
0000
0001
0100
0001
0100
0001
0000
0101
0000
,  // measure 17
2001
0100
3200
0010
0320
0001
0031
2002
,  // measure 18
0000
3003
1002
1000
2003
0010
3010
0202
,  // measure 19
0000
0303
0201
0001
0302
1000
1003
0220
,  // measure 20
0330
0100
0001
1000
0010
0100
0001
2002
,  // measure 21
0000
3003
2010
0010
3020
0100
0130
2002
,  // measure 22
0000
3003
2010
0010
3020
1000
1030
2002
,  // measure 23
0000
3003
2100
0100
3200
0010
0310
2002
,  // measure 24
0000
0000
3003
0000
0100
0000
0010
0000
0001
1000
0001
1000
0001
0000
1000
0000
,  // measure 25
2200
3300
1001
0001
0101
0100
0110
0220
,  // measure 26
0000
0330
1010
1000
1100
0100
0110
0220
,  // measure 27
0000
0330
0011
0001
1001
1000
1010
2020
,  // measure 28
3030
1000
0001
0100
0010
1000
0100
2200
,  // measure 29
0000
3300
0110
0010
0011
0001
1001
2002
,  // measure 30
0000
3003
1010
0010
0110
0100
0101
0202
,  // measure 31
0000
0303
1001
1000
1100
0100
1100
2200
,  // measure 32
0000
0000
3300
0000
1000
0000
0010
0000
1000
0100
1000
0100
0010
0001
0010
0002
,  // measure 33
2000
0000
0000
3003
1000
0002
0023
0230
,  // measure 34
2300
0000
3100
0010
0001
0000
0100
0000
0002
0000
0103
0010
1000
0000
0010
0000
,  // measure 35
2000
3200
0320
0032
2003
0001
0001
0001
,  // measure 36
3001
0000
2000
0000
3020
0000
0130
0010
1000
0000
0001
0000
0100
0000
0010
1000
,  // measure 37
0002
0100
0203
0010
0320
1000
1030
0100
,  // measure 38
2000
0000
3100
0010
0001
0000
0010
0000
0002
0000
0103
0010
1000
0000
0001
0000
,  // measure 39
0002
0000
1000
0000
2003
0000
0010
0000
3010
0000
0010
0100
0001
0000
1000
0000
,  // measure 40
1001
0000
0001
0010
0001
0000
1000
0100
1000
0000
0001
0100
0001
0000
1000
0100
,  // measure 41
1000
2000
0100
3200
0010
0320
0032
1003
,  // measure 42
2000
3200
0302
0203
1300
0200
0310
0200
,  // measure 43
2300
0010
0010
0001
3002
0100
0100
0000
,  // measure 44
1003
0020
0230
0302
1000
1000
2003
3010
,  // measure 45
1000
0100
1000
0000
0100
0010
0100
0000
0010
0001
0010
0000
0001
1000
0001
0000
,  // measure 46
2100
0010
3010
0100
0102
1000
1000
2003
,  // measure 47
3002
0103
0002
0103
0020
0130
2000
3100
,  // measure 48
0002
0203
0310
2000
3002
2003
3001
1001
,  // measure 49
2002
0000
0000
0000
0000
0000
0000
0000
3003
0000
1000
0000
0010
1000
0100
0000
,  // measure 50
1000
0000
0001
0010
0001
0000
0100
0001
0010
0000
0100
0010
0100
0010
0100
1000
,  // measure 51
0010
0000
1000
0000
0100
0000
0100
0000
1000
0000
1000
0000
0100
0010
0001
0000
,  // measure 52
0101
0100
0110
0010
1010
1000
1001
0001
,  // measure 53
1002
0000
2003
0000
3200
0000
0320
0000
0032
0000
0100
0000
0103
0010
1000
0000
,  // measure 54
0100
0000
0010
0100
0010
0000
0001
0010
0100
0000
1000
0100
1000
0000
0001
0100
,  // measure 55
0010
0000
0010
0000
1000
0000
1000
0000
0001
0000
0100
0000
0010
1000
0100
0000
,  // measure 56
1100
0100
0110
0010
0012
2003
3002
2003
,  // measure 57
0001
0000
3001
0010
0001
0000
0100
0000
0100
0000
0010
0000
1000
0100
0010
0000
,  // measure 58
0002
0000
0100
0000
0103
0000
0100
0010
2000
0000
0010
0000
3010
0000
0100
0001
,  // measure 59
2000
0000
0100
0000
3100
0000
0010
0000
0002
0000
1003
0000
1000
0100
1000
0000
,  // measure 60
1010
0010
0110
0100
0101
0001
1001
1000
,  // measure 61
2100
0000
3200
0000
0320
0000
0032
0000
2003
0000
0000
0000
3001
0010
0001
0000
,  // measure 62
2000
0000
0001
0000
3001
0000
0100
0010
0200
0000
0010
0000
0310
0000
1000
0100
,  // measure 63
0002
0000
0100
0000
0203
0000
0010
0000
0320
0000
0031
0000
1000
0010
1000
0000
,  // measure 64
1010
0010
0110
0100
0102
0103
0010
1000
,  // measure 65
1001
0000
1000
0100
1000
0100
0010
0001
0010
0001
1000
0001
1000
0001
1000
0000
,  // measure 66
1001
0000
0000
0000
;

//---------------dance-single - ----------------
#NOTES:
     dance-single:
     :
     Hard:
     7:
     0.588,0.536,0.417,0.456,0.000:
0000
0000
0000
0000
,
0000
0000
0000
0000
,
0000
0000
0000
0000
,
0000
0000
0000
0000
0000
0000
0000
2010
,
0000
0000
3010
0000
0100
0000
0001
2000
,
0000
0000
3100
0000
0010
0000
0001
0200
,
0000
0000
0310
0000
1000
0000
0001
0020
,
0000
0100
0130
1000
0001
0100
0010
1000
,
1100
0000
0100
0000
0010
0000
0001
0102
,
0000
0000
1003
0000
0010
0000
0100
0120
,
0000
0000
1030
0000
0001
0000
0010
0012
,
0000
1000
1003
0010
0100
0001
0010
0001
,
0011
0000
1000
0000
0010
0000
0100
0102
,
0000
0000
1003
0000
0010
0000
0100
0120
,
0000
0000
1030
0000
0001
0000
1000
1020
,
0000
1000
1030
0100
0010
0001
0100
0010
,
1010
0000
0100
0010
0001
0100
0010
2000
,
0000
0000
3001
0010
0100
1000
0010
2000
,
0000
0000
3001
0100
0010
1000
0100
2000
,
0000
0010
3010
0100
0001
0010
0001
1000
,
1001
0000
0001
0100
0010
1000
0100
0020
,
0000
0000
0031
0100
0010
1000
0100
2000
,
0000
0000
3010
0100
0001
0010
0001
2002
,
0000
0000
0000
0000
3003
0000
0001
0100
,
0101
0000
0001
0100
0010
1000
0100
2000
,
0000
0000
3010
0100
0001
0010
0001
0200
,
0000
0000
0310
1000
0100
0010
0001
0020
,
0000
0100
0130
1000
0010
0100
0001
1000
,
1001
0000
0001
0100
0010
1000
0100
0020
,
0000
0000
0031
0100
0010
1000
0001
0200
,
0000
0000
0310
1000
0100
0010
0001
2002
,
0000
0000
0000
0000
,
3003
0000
0000
0000
1000
1000
0100
0010
,
0001
0101
1000
1100
,
1000
0010
0100
0001
2000
0001
0001
0001
,
3001
0100
0010
2000
0000
0000
3001
0100
,
0010
1000
0100
0010
0001
0100
0010
1000
,
0001
0101
1000
1100
,
1000
0010
0100
0001
2000
0000
0001
0000
,
3001
0001
0100
0010
1000
0100
0010
0001
,
0200
0010
0010
0010
0310
1000
0100
0010
,
0001
0000
0001
1000
0000
1000
0100
0010
,
0001
0100
0010
1000
0200
0000
0000
0000
,
0310
0001
0100
0020
0000
0000
1030
0100
,
1100
0110
0011
1001
,
1000
1001
0001
0101
,
0100
0010
1000
0001
1000
0000
1001
0000
,
0001
0100
0000
0010
1000
0001
0000
1000
,
2002
0000
0000
0000
3003
0000
1000
0001
,
2000
0100
3100
0000
0002
0100
0103
0000
,
1000
0100
0010
0001
0100
0000
0110
0000
,
1010
1100
0110
0011
,
0001
0100
0010
1000
0100
0000
1000
0100
,
2000
0010
3010
0000
0002
0010
0013
0000
,
1000
0010
0100
0001
1000
0000
1100
0000
,
0110
0000
0011
0000
1000
0010
0100
0001
,
2002
0000
0000
0000
3003
0000
1000
0001
,
0200
0010
0310
0000
0020
0100
0130
0000
,
1000
0100
0010
0001
0020
0000
1030
0000
,
1010
0110
0101
1001
,
1000
0100
0010
0001
2000
0000
3010
0100
,
0002
1000
1003
0000
2000
0001
3001
0000
,
1000
0001
0100
0010
2000
0000
3001
0000
,
0101
0000
1010
0000
1000
0100
0010
0001
,
2002
0000
0000
0000
,
3003
0000
0000
0000
;

//---------------dance-single - ----------------
#NOTES:
     dance-single:
     :
     Medium:
     6:
     0.481,0.536,0.146,0.553,0.000:
0000
0000
0000
0000
,
0000
0000
0000
0000
,
0000
0000
0000
0000
,
0000
0000
0000
0000
,
1000
0000
0010
0000
0100
0000
0001
0200
,
0000
0000
0310
0000
1000
0000
0010
0200
,
0000
0000
0310
0000
1000
0000
0001
2000
,
0000
0000
3001
0100
0001
0100
0001
0100
,
0010
0000
1000
0000
0100
0000
0010
0002
,
0000
0000
0103
0000
0010
0000
1000
0200
,
0000
0000
0310
0000
0001
0000
0100
0020
,
0000
1000
1030
0100
1000
0100
1000
0100
,
0010
0000
0001
0000
0100
0000
0010
2000
,
0000
0000
3100
0000
0010
0000
0001
0200
,
0000
0000
0310
0000
1000
0000
0100
0002
,
0000
0000
1003
0010
1000
0010
1000
1000
,
1000
0000
0010
0000
0100
0000
0001
0020
,
0000
0000
0130
0000
1000
0000
0010
0200
,
0000
0000
0301
0000
1000
0000
0100
0020
,
0000
0001
0031
0100
0001
0100
0001
0100
,
0010
0000
1000
0000
0100
0000
0010
0002
,
0000
0000
0103
0000
0010
0000
1000
0200
,
0000
0000
0310
0000
0001
0000
1000
2002
,
0000
0000
0000
3003
,
1100
0000
0100
0000
0010
0000
0001
0002
,
0000
0000
0103
0000
0010
0000
1000
2000
,
0000
0000
3010
0000
0100
0000
0010
0020
,
0000
1000
1030
0100
0010
0001
0010
0100
,
1000
0000
0010
0000
0100
0000
0001
0002
,
0000
0000
0103
0000
0010
0000
1000
2000
,
0000
0000
3100
0000
0010
0000
0001
2002
,
0000
0000
0000
0000
,
3003
0000
0000
0000
0000
1000
0100
1000
,
0002
0000
2003
0000
,
3001
0010
0001
0010
0002
0000
0000
0000
,
0000
1003
0010
0200
0000
0000
0310
1000
,
0100
0000
0010
0000
0001
0000
1000
0100
,
2000
0000
3020
0000
,
0130
0001
0100
0001
0200
0000
0000
0000
,
0000
0310
1000
0000
1000
0100
0010
0001
,
1001
0000
1000
0100
0020
0000
0031
0100
,
0010
0000
0010
1000
0000
1000
0100
1000
,
0200
0000
0310
0001
2000
0000
0000
0000
,
0000
3001
0100
0010
0000
1000
0100
0010
,
0001
0000
0100
0000
0010
0000
1000
0100
,
0020
0000
0032
0000
,
1003
1100
0001
0101
,
1000
0100
0000
0100
0010
0001
0000
0001
,
2002
0000
0000
3003
,
1000
0100
1000
0000
0001
0100
0001
0000
,
1000
0100
0010
0000
1001
0000
0002
0000
,
0203
0320
2030
3002
,
1003
0100
0010
0001
1000
0000
1001
0000
,
0001
0100
0001
0000
1000
0100
1000
0000
,
1000
0001
0100
0000
1001
0000
2000
0000
,
3020
0000
0230
0000
0301
0010
0100
1000
,
2002
0000
0000
3003
,
1000
0010
1000
0000
0001
0010
0001
0000
,
1000
0010
0100
0000
1001
0000
0002
0000
,
0203
0320
2030
3200
,
0310
0001
1000
0100
1000
0000
1100
0000
,
1000
0010
1000
0000
0001
0010
0001
0000
,
1000
0001
0010
0000
1001
0000
2000
0000
,
3020
0000
0230
0000
0301
0010
0100
1000
,
2002
0000
0000
0000
,
3003
0000
0000
0000
;

//---------------dance-single - ----------------
#NOTES:
     dance-single:
     :
     Easy:
     4:
     0.385,0.410,0.349,0.359,0.000:
0000
0000
0000
0000
,
0000
0000
0000
0000
,
0000
0000
0000
0000
,
0000
0000
0000
0000
,
1000
0000
0001
1000
,
0001
0000
0001
0100
,
0001
0000
1000
0100
,
1000
1000
0010
0100
,
0001
0100
0010
1000
,
1001
0000
0100
0010
,
0110
0000
1000
0100
,
1100
0001
0100
0010
,
1001
0000
0001
0010
,
1100
0000
1000
0010
,
0101
0000
0001
1000
,
0110
1000
0010
0100
,
0101
0001
1000
0100
,
1100
0010
0100
0001
,
0101
0010
0100
1000
,
1001
0001
0001
1000
,
1001
0010
1000
0001
,
1001
1000
0010
0100
,
0110
0010
0001
1000
,
1001
1000
0010
0100
,
0011
1000
0010
0100
,
1001
0010
0100
0001
,
1100
0010
0100
0001
,
1001
1000
0010
0100
,
0011
1000
0010
0100
,
1001
0010
0100
1000
,
1001
1000
0010
0100
,
2002
0000
0000
0000
,
3003
0000
0000
0001
,
0202
0303
2200
3300
,
1000
0010
0200
0000
,
0301
1000
0100
0010
,
0001
0001
0100
0100
,
0202
0303
2020
3030
,
1000
0100
0020
0000
,
0031
0100
0010
1000
,
2002
0000
0000
3003
,
2020
3030
0202
0303
,
0001
0100
0020
0000
,
1030
0100
0010
0001
,
1000
1000
0001
0001
,
2002
3003
0220
0330
,
1000
0100
0010
0001
,
1000
0000
0001
0000
,
2002
0000
0000
3003
,
2000
3100
0002
0103
,
1000
0010
0100
0001
,
0001
0100
0010
1000
,
0100
0100
0100
0001
,
0002
0013
2000
3010
,
1000
0100
0010
0001
,
0001
0100
0010
1000
,
2002
0000
0000
3003
,
2000
3001
0002
1003
,
1000
0010
0100
0001
,
0001
0010
0100
1000
,
0001
1000
1001
1000
,
2000
3010
0200
0301
,
1000
0010
0100
0001
,
0001
0100
0010
1000
,
2002
0000
0000
0000
,
3003
0000
0000
0000
;

//---------------dance-single - ----------------
#NOTES:
     dance-single:
     :
     Beginner:
     1:
     0.168,0.252,0.097,0.000,0.000:
0000
0000
0000
0000
,
0000
0000
0000
0000
,
0000
0000
0000
0000
,
0000
0000
0000
0000
,
1000
0000
0000
0000
,
0001
0000
0000
0000
,
0100
0000
0000
0000
,
0010
0000
1000
0000
,
0001
0000
0000
0000
,
0100
0000
0000
0000
,
0010
0000
0000
0000
,
1000
0000
0001
0000
,
1001
0000
0000
0000
,
1000
0000
0000
0000
,
0010
0000
0000
0000
,
0100
0000
0001
0000
,
1000
0000
0000
0000
,
0001
0000
0000
0000
,
0010
0000
0000
0000
,
0100
0000
1000
0000
,
1001
0000
0000
0000
,
0010
0000
0000
0000
,
0100
0000
0000
0000
,
0001
0000
0000
0000
,
1001
0000
0000
0000
,
1000
0000
0000
0000
,
0010
0000
0000
0000
,
0100
0000
0001
0000
,
1001
0000
0000
0000
,
1000
0000
0000
0000
,
0010
0000
0000
0000
,
1001
0000
0000
0000
,
1001
0000
0000
1000
,
1000
0000
0010
0000
,
0100
0100
0100
0000
,
0001
0000
0010
0000
,
1000
0000
0001
0000
,
0001
0000
0100
0000
,
0010
0010
0010
0000
,
1000
0000
0001
0000
,
1001
0000
0000
0000
,
1000
0000
0010
0000
,
0100
0100
0100
0000
,
0001
0000
1000
0000
,
0001
0001
0001
0001
,
0001
0000
1000
0000
,
0010
0010
0010
0000
,
1000
0000
0001
0000
,
1001
0000
0000
0000
,
1000
0000
1000
0000
,
0001
0001
0001
0000
,
0100
0100
0100
0100
,
0100
0000
0000
0000
,
0001
0000
0001
0000
,
0100
0100
0100
0000
,
0010
0010
0010
0000
,
1001
0000
0000
0000
,
1000
0000
0100
0000
,
1000
1000
1000
0000
,
0001
0001
0001
0001
,
0001
0000
0100
0000
,
0001
0000
0100
0000
,
0010
0010
0010
0000
,
1000
0000
0001
0001
,
0001
0000
0000
0000
,
1001
0000
0000
0000
;
