#TITLE:Gensokyo Millenium;
#SUBTITLE:History of the Moon;
#ARTIST:UI-70;
#TITLETRANSLIT:;
#SUBTITLETRANSLIT:;
#ARTISTTRANSLIT:;
#CREDIT:;
#BANNER:Gensokyo Millenium - BN.png;
#BACKGROUND:Gensokyo Millenium - BG.png;
#LYRICSPATH:;
#CDTITLE:cdtitleDDRF4N.png;
#MUSIC:14. Gensokyo Millenium - History of the Moon [Touhou - Imperishable Night].ogg;
#OFFSET:-0.340;
#SAMPLESTART:22.720;
#SAMPLELENGTH:12.000;
#SELECTABLE:YES;
#BPMS:0.000=154.000,52.000=130.000,54.000=103.000,56.000=154.000,210.000=138.000,212.000=154.000,232.000=154.020,232.000=154.000,233.000=134.000,239.000=105.000,488.000=88.000;
#STOPS:;
#BGCHANGES:;

//---------------dance-single - ----------------
#NOTES:
     dance-single:
     :
     Hard:
     8:
     0.556,0.594,0.051,0.268,0.077:
0000
0000
0000
0000
,
0000
0000
0000
0000
,
0000
0000
0000
0000
,
0000
0000
0000
0000
,
1000
0000
0100
0000
0000
0000
0010
0000
0001
0000
0000
0000
1000
0100
1000
0000
,
0001
0000
0010
0000
0000
0000
0100
0000
1000
0000
0000
0000
0001
0100
0001
0100
,
0001
0000
1000
0000
0000
0000
0100
0000
0010
0000
0000
0000
0001
0100
0001
0100
,
0001
1000
0000
0001
1000
0100
0010
0001
,
1000
0000
0000
0000
,
0000
0000
0000
0000
,
1000
0000
0000
0010
0000
0000
1000
1000
,
0001
0000
0000
0010
0000
0000
0100
0000
0000
0000
0000
0000
1000
0000
0001
0000
,
1000
0100
1000
0100
0010
0001
0010
0001
,
1000
0000
0001
0000
1000
0000
0001
0000
1000
0000
0001
0000
2000
0000
0000
0000
0000
0000
0001
0000
0000
0001
0000
0000
,
3002
0000
0000
0100
0103
0010
1000
0100
,
0020
0000
0001
0000
0001
0000
0031
0100
,
0020
0000
0000
1000
1030
0100
0010
0001
,
2000
0000
0100
0000
3100
0000
0010
0100
,
0002
0000
0000
0100
0103
0010
0010
1000
,
0100
1000
1000
0010
0100
0000
0001
0010
,
0200
0000
0000
1000
1300
0010
0100
0001
,
2000
0000
0000
0000
0000
0000
0001
0001
,
3002
0000
0000
0010
0013
0100
1000
0010
,
0200
0000
0001
0000
0001
0000
0301
0010
,
0200
0000
0000
1000
1300
0010
0100
0001
,
0020
0000
0100
0000
0100
0000
0130
1000
,
0002
0000
0000
0100
0103
0010
0010
0100
,
0001
1000
1000
0100
0010
0000
0001
0100
,
0002
0000
0000
1000
1003
0010
0100
0001
,
2000
0000
0100
0000
0010
0000
0001
0001
,
3002
0000
0000
0100
0103
0010
1000
0001
,
0200
0000
0000
0000
0000
0000
0010
0010
,
0310
0000
0100
0001
0010
0100
1000
0001
,
0200
0000
0000
0000
0000
0000
0001
0001
,
0301
0000
0010
0100
1000
0100
0010
0001
,
0100
0010
1000
0010
0100
0000
0001
0010
,
0001
0000
0010
0100
1000
0010
0100
0001
,
2002
0000
0000
0000
3003
0000
1000
0001
,
1001
0000
1000
0010
0100
0001
0010
0100
,
2000
0000
0100
0000
0100
0000
0100
0100
,
3100
0000
0010
0001
0100
0010
1000
0010
,
0200
0000
0001
0000
0001
0000
0001
0001
,
0301
0000
0010
0100
1000
0100
0010
0001
,
0100
0010
1000
0010
0100
0000
0001
0010
,
0100
0000
1000
0010
0100
0001
1000
0001
,
2002
0000
0000
3003
,
1000
0100
0010
0000
0001
0010
0100
0000
,
1000
0010
0100
0001
0100
0010
1000
0100
,
0010
0001
0010
0000
0100
1000
0100
0000
,
0001
0100
0010
1000
0010
0100
0001
0000
,
1000
0000
0100
1000
0000
0000
0000
0000
0001
0000
0100
0000
0010
0000
1000
0000
,
0010
0100
0001
0010
0001
0000
0100
0010
,
1000
0000
0000
0010
0000
0000
0100
0000
0000
0001
0000
0000
1000
0000
0100
0000
1000
0000
0100
0000
1000
0000
0100
0000
,
1000
0100
1000
0100
1000
0100
0010
0001
,
0010
0001
0010
0001
1000
0010
1000
0010
,
1000
0010
0100
0001
0100
0001
0100
0001
,
1000
0100
0010
0001
0010
0100
1000
0010
,
0100
0001
0100
0010
1000
0100
0010
0001
,
0100
0010
1000
1000
0100
0100
0010
0010
,
0001
0001
0100
0100
0010
0010
1000
1000
,
0001
0001
1001
2002
0000
0000
3003
0000
;

//---------------dance-single - ----------------
#NOTES:
     dance-single:
     :
     Challenge:
     12:
     0.953,1.000,0.216,0.278,0.885:
0000
0000
0000
0000
,
0000
0000
0000
0000
,
0000
0000
0000
0000
,
0000
0000
0000
0000
0000
0000
0000
0000
0000
0000
0000
0000
1000
0100
1000
0100
,
1000
0000
1000
0000
0010
0000
0100
0000
0100
0000
0001
0000
1000
0100
1000
0000
,
0010
0000
0010
0000
0100
0000
0001
1000
0001
0000
0100
0000
0001
0010
0001
0010
,
0001
0100
0001
0000
1000
0000
0010
0100
0010
0000
1000
0000
0001
0100
0001
0100
,
0010
1000
0010
0000
1000
0000
0001
0100
0001
0010
0100
1000
0001
0100
0010
1000
,
0001
0100
0001
0100
0001
0100
0010
1000
0010
1000
0010
1000
0001
1000
0001
1000
,
0001
0010
0001
0010
0001
0010
0100
1000
0100
1000
0100
1000
0100
0010
0100
0010
,
0001
0010
0100
1000
0100
0010
0001
0010
0100
1000
0100
0010
0001
0010
0100
1000
,
0001
0100
0010
1000
0010
0100
0001
0100
0010
1000
0010
0100
0001
0100
0010
1000
,
0001
0010
0100
1000
0001
0010
0100
1000
0001
0100
0010
1000
0001
0100
0010
1000
,
0001
0000
0010
0000
0100
0000
1000
0000
0001
0000
1000
0000
2002
0000
0000
3003
0000
0000
1100
0000
0000
1001
0000
0000
,
0101
0000
0001
0000
0100
0000
0001
0000
0001
0000
1000
0100
0010
0000
0001
0000
,
2000
0001
0001
0001
0001
3001
1000
0100
,
0110
0000
0010
0000
0001
0000
1000
0000
1000
0000
0010
0100
0001
0000
1000
0000
,
0002
0000
1000
0000
1000
0000
1000
0000
1000
0000
1003
0100
0010
0001
1000
0010
,
2000
0000
0100
0000
3100
0000
0010
0000
0001
0000
0100
0010
1000
0000
0001
0000
,
0010
0000
0100
1000
0100
0000
0010
0000
0001
0000
000M
0000
1000
0000
0010
0000
,
0200
0000
0001
0000
0301
0000
0010
0000
0100
0000
1000
0100
0010
0000
0001
0000
,
1001
0000
1000
0000
0010
0000
0100
0000
0001
0000
1000
0001
1000
0001
1000
0001
,
2000
0000
0010
0000
3010
0000
0100
0000
0001
0000
1000
0010
0100
0000
0001
0000
,
2000
0010
3010
0100
0001
0010
0001
0001
,
0002
0000
0100
0000
0103
0000
0010
0000
1000
0000
0100
0010
0001
0000
1000
0000
,
0020
0100
0130
0001
1000
0100
0010
0010
,
0020
0000
0001
0000
0031
0000
0100
0000
0010
0000
1000
0001
0100
0000
0010
0000
,
1000
0000
0001
0010
0100
0000
1000
0000
0001
0000
000M
0000
1000
0000
0010
0000
,
0200
0000
0001
0000
0301
0000
0010
0000
0100
0000
1000
0001
0010
0000
0100
0000
,
1100
0000
1000
0000
0010
0000
0100
0000
0001
0100
0001
0100
0001
0100
0001
0100
,
0002
0000
0000
0000
1003
0000
1000
0000
0010
0000
0100
0001
0100
0000
1000
0000
,
0002
0000
0010
0000
0100
0000
1003
0100
,
0020
0000
0000
0000
0031
0000
0001
0000
0100
0000
0010
1000
0001
0000
1000
0000
,
0200
0000
1000
0000
0010
0000
0301
1000
,
0020
0000
0000
0000
0130
0000
0100
0000
0001
0000
1000
0100
0010
0000
0001
0000
,
0100
0000
0010
1000
0001
0000
0010
0000
0100
0000
0M00
0000
1000
0000
0010
0000
,
0200
0000
0000
0000
0301
0000
0001
0000
0010
0000
0100
1000
0010
0000
0100
0000
,
0002
0000
0000
0000
0100
0000
0000
0000
1003
0000
0001
1000
0001
1000
0001
1000
,
0002
0000
0100
0000
0103
0000
0010
0000
1000
0000
0100
1000
0001
0000
0100
0000
,
0020
0000
1000
0000
1030
0000
0100
0000
0010
0000
0001
0100
0000
0010
1000
0000
,
0002
0000
1000
0000
1003
0000
0010
0000
0100
0000
0001
1000
0001
0000
0100
0000
,
0020
0100
0100
1000
1030
0001
1000
0010
,
0200
0000
0001
0000
0301
0000
0010
0000
0100
0000
1000
0100
0010
0000
0001
0000
,
0100
0000
0010
1000
0001
0000
0100
0000
0010
0000
00M0
0000
1000
0000
0100
0000
,
0020
0000
0001
0000
0031
0000
0100
0000
0010
0000
1000
0100
1000
0000
0010
0000
,
1001
0000
1000
0000
0010
0000
0100
0000
0001
1000
0001
1000
0001
1000
0001
1000
,
0001
0000
0100
0010
1000
0000
0001
0000
1001
0000
1000
0100
0010
0000
0001
0000
,
1001
1000
1010
0010
0110
0100
0101
0001
,
1001
0000
1000
0001
0100
0000
0010
0000
1010
0000
1000
0000
0001
0100
0010
1000
,
0001
0010
0100
1000
0100
0010
0001
0100
0010
0100
0001
1000
0100
0000
0000
0000
,
0001
0100
0010
1000
0000
0000
0000
0001
1000
0010
0100
0001
0010
0100
1000
0100
,
0010
0001
0100
0010
1000
0100
0010
0001
1000
0000
0000
0000
0001
0100
0001
0100
,
0001
0000
0000
0010
0000
0000
0100
0000
0000
1000
0000
0000
0001
0000
0000
0100
0000
0000
0010
0000
0000
1000
0000
0000
0001
0000
0000
0000
0010
0000
0000
0000
0100
0000
0000
0000
1000
0000
0000
0000
0100
0000
0000
0000
0010
0000
0000
0000
,
0001
1000
0010
1000
0100
1000
0010
1000
0001
1000
0010
1000
0100
1000
0010
1000
,
0001
1000
0010
1000
0100
1000
0001
0000
1000
0001
0100
0001
0010
0001
0100
0001
,
1000
0001
0100
0001
0010
0001
0100
0001
1000
0001
0100
0001
0010
0001
0100
0001
,
1000
0100
0010
0001
0010
0100
1000
0100
0010
0001
0010
0100
1000
0100
0010
0001
,
1000
0100
0010
0001
1000
0010
0100
0001
1000
0010
0100
0001
1000
0100
0010
0001
,
0100
0010
1000
0100
1000
0000
0010
0000
0100
0000
0001
0000
0100
0000
1000
0000
,
0100
0001
0010
0100
1000
0100
1100
0110
,
0011
0110
1100
2002
0000
0000
3003
0000
;

//---------------dance-single - ----------------
#NOTES:
     dance-single:
     :
     Medium:
     6:
     0.416,0.438,0.196,0.175,0.000:
0000
0000
0000
0000
,
0000
0000
0000
0000
,
0000
0000
0000
0000
,
0000
0000
0000
0000
,
1000
1000
0000
0001
0001
0000
0100
0010
,
1000
1000
0000
0100
0100
0000
0010
0001
,
0010
0010
0000
0100
0100
0000
1000
0010
,
0100
0100
0000
0001
1000
0100
1000
0100
,
1000
0000
0000
0000
,
0000
0000
0000
0000
,
1000
0000
0000
1000
0000
0000
1000
0000
,
0001
0000
0000
0001
0000
0000
0001
0000
,
1000
0010
0100
0001
,
0101
0000
1100
0000
1001
0000
1000
1000
,
2000
0000
0000
0000
3010
0100
0001
0000
,
0200
0000
0000
0000
0000
0000
0310
1000
,
0002
0000
0000
0000
0013
0100
1000
0000
,
0020
0000
0000
0000
0000
0000
0130
1000
,
0001
0000
1000
0100
0100
0000
0010
0001
,
0001
0100
0010
1000
0001
0000
1000
0100
,
2000
0000
0000
0000
3010
0100
0001
0000
,
2000
0000
0000
0000
0000
0000
3001
0010
,
0002
0000
0000
0000
0013
0100
1000
0000
,
0200
0000
0000
0000
0000
0000
0310
0001
,
0020
0000
0000
0000
0130
1000
0001
0000
,
0200
0000
0000
0000
0000
0000
0310
1000
,
0100
0000
0010
0001
0100
0000
0010
1000
,
0001
0001
0010
0100
1000
0000
0001
0100
,
0020
0000
0000
0000
1030
0100
0010
0000
,
0002
0000
1000
1000
,
1003
0000
0000
0000
0010
0100
0001
0000
,
1001
0000
0000
0000
1000
0000
0001
0010
,
0001
0000
0000
0000
0100
0010
1000
0000
,
1001
0000
0000
0000
0001
0000
0010
0100
,
1000
0000
0100
0010
0001
0000
1000
0000
,
0010
0000
0100
0000
0001
0000
1000
0100
,
1000
0000
0000
0000
0010
0100
0001
0000
,
2002
0000
0000
0000
3003
0000
1000
0100
,
1000
0000
0000
0000
0010
0100
0001
0000
,
0101
0000
0000
0000
0100
0000
0010
1000
,
0100
0000
0000
0000
0010
0001
1000
0000
,
1001
0000
0000
0000
0001
0000
0100
0010
,
0100
0000
0001
0010
0100
0000
1000
0000
,
0010
0000
0100
0001
1000
0000
0100
0010
,
0001
0000
0000
0000
1000
0100
1000
0000
,
2100
0000
0100
0100
,
3100
0010
0001
0000
0100
0010
1000
0000
,
0001
0010
0100
1000
,
0001
0100
0010
0000
1000
0010
0100
0000
,
0001
1000
0100
0010
,
0001
0010
0001
0000
1000
0100
1000
0000
,
0001
0100
0010
1000
0001
0000
1000
0000
,
0001
0100
0001
0100
0001
0000
1000
0000
,
1001
0001
0001
0101
,
0100
0100
0110
0010
,
0010
1010
1000
1000
,
1001
0001
0001
0011
,
0010
0010
0110
0100
,
0100
1100
1000
1000
,
1001
0000
0001
0000
0100
0000
0010
0010
,
1000
1000
0001
2002
0000
0000
3003
0000
;

//---------------dance-single - ----------------
#NOTES:
     dance-single:
     :
     Easy:
     4:
     0.296,0.375,0.124,0.165,0.000:
0000
0000
0000
0000
,
0000
0000
0000
0000
,
0000
0000
0000
0000
,
0000
0000
0000
0000
,
1000
0100
0010
0001
,
1000
0010
0100
0001
,
1000
0100
0010
0001
,
0010
0100
1000
0001
,
1000
0000
0000
0000
,
0000
0000
0000
0000
,
1000
0000
0000
0000
,
0001
0000
0000
0000
,
1000
1000
0001
0001
,
2002
0000
3003
1001
,
1001
1000
0010
0100
,
0002
0000
0000
0103
,
0010
1000
0100
1000
,
0020
0000
0000
0130
,
0001
0010
0100
1000
,
0010
0100
0001
0010
,
0100
1000
0010
0100
,
0002
0000
0000
1003
,
0100
1000
0010
0100
,
0002
0000
0000
0013
,
0100
1000
0100
0010
,
0200
0000
0000
1300
,
0010
0100
0001
0100
,
0010
1000
0010
0100
,
0001
0010
0100
1000
,
2000
0000
0000
3001
,
1001
0000
0010
0100
,
0020
0000
0000
0130
,
1000
0000
0001
0100
,
0020
0000
0000
1030
,
0100
0000
1000
0010
,
0100
0001
1000
0100
,
0100
0000
0010
0001
,
2000
0000
0000
3010
,
0100
0000
0001
0100
,
0020
0000
0000
1030
,
0100
0000
0010
0001
,
2000
0000
0000
3100
,
0010
0000
0100
1000
,
0010
0100
0001
0010
,
0010
0000
0100
1000
,
2002
0000
0000
3003
,
0101
0000
1100
0000
,
1000
0010
0100
0001
,
0011
0000
1010
0000
,
1000
0010
0100
0001
,
0110
0000
1001
0000
,
1000
0100
1000
1000
,
0001
0001
1000
0001
,
1001
1000
1000
0010
,
0010
0010
0100
0100
,
0100
0001
0001
0001
,
0010
0010
0010
0100
,
0100
0100
1000
1000
,
1000
0001
0001
0001
,
1000
1000
1000
0001
,
1000
0000
0001
0002
0000
0000
0003
0000
;

//---------------dance-single - ----------------
#NOTES:
     dance-single:
     :
     Beginner:
     2:
     0.134,0.186,0.031,0.000,0.000: // measure 1
0000
0000
0000
0000
,  // measure 2
0000
0000
0000
0000
,  // measure 3
0000
0000
0000
0000
,  // measure 4
0000
0000
0000
0000
,  // measure 5
1000
0000
0000
0000
,  // measure 6
0010
0000
0000
0000
,  // measure 7
0100
0000
0000
0000
,  // measure 8
0001
0000
0000
0000
,  // measure 9
1000
0000
0000
0000
,  // measure 10
0000
0000
0000
0000
,  // measure 11
1000
0000
0000
0000
,  // measure 12
0000
0000
0000
0000
,  // measure 13
0001
0000
0001
0000
,  // measure 14
0001
0001
0001
0000
,  // measure 15
1000
0000
1000
0000
,  // measure 16
0001
0000
0000
0000
,  // measure 17
0100
0000
0100
0000
,  // measure 18
0010
0000
0000
0000
,  // measure 19
1000
0000
1000
0000
,  // measure 20
0001
0000
0001
0000
,  // measure 21
0100
0000
0100
0000
,  // measure 22
0010
0000
0000
0000
,  // measure 23
1000
0000
0010
0000
,  // measure 24
1000
0000
0000
0000
,  // measure 25
0001
0000
0100
0000
,  // measure 26
0001
0000
0000
0000
,  // measure 27
1000
0000
0010
0000
,  // measure 28
0100
0000
0001
0000
,  // measure 29
1000
0000
0100
0000
,  // measure 30
1000
0000
0000
0001
,  // measure 31
0001
0000
0100
0000
,  // measure 32
0001
0000
0000
0000
,  // measure 33
1000
0000
0100
0000
,  // measure 34
1000
0000
0000
0000
,  // measure 35
0010
0000
0100
0000
,  // measure 36
0010
0000
0100
0000
,  // measure 37
0001
0000
1000
0000
,  // measure 38
0001
0000
0000
0000
,  // measure 39
1000
0000
1000
0000
,  // measure 40
0010
0000
0000
0000
,  // measure 41
0100
0000
0100
0000
,  // measure 42
0001
0000
0000
0000
,  // measure 43
1000
0000
1000
0000
,  // measure 44
0010
0000
0010
0000
,  // measure 45
0100
0000
0100
0000
,  // measure 46
0001
0000
0000
0000
,  // measure 47
1000
0000
1000
0000
,  // measure 48
1000
0000
0000
0000
,  // measure 49
0001
0000
0001
0000
,  // measure 50
0001
0000
0000
0000
,  // measure 51
0100
0000
0100
0000
,  // measure 52
0010
0000
0010
0000
,  // measure 53
1000
0000
0001
0000
,  // measure 54
1001
0000
0000
1000
,  // measure 55
0000
0000
0010
0000
,  // measure 56
0000
0100
0000
0000
,  // measure 57
0001
0000
0000
0010
,  // measure 58
0000
0000
0100
0000
,  // measure 59
0000
1001
0000
0000
,  // measure 60
1001
0000
0000
0001
,  // measure 61
0001
0001
0000
0000
;
