#TITLE:Furadoru;
#SUBTITLE:;
#ARTIST:Kisenon;
#TITLETRANSLIT:;
#SUBTITLETRANSLIT:;
#ARTISTTRANSLIT:;
#CREDIT:;
#BANNER:Furadoru.png;
#BACKGROUND:Furadoru - bg.png;
#LYRICSPATH:;
#CDTITLE:cdtitlegpop.png;
#MUSIC:Furadoru.ogg;
#OFFSET:0.990;
#SAMPLESTART:62.180;
#SAMPLELENGTH:12.000;
#SELECTABLE:YES;
#BPMS:0.000=190.000;
#STOPS:;
#BGCHANGES:1.500=Furadoru.avi=1.000=0=0=1,
99999=-nosongbg-=1.000=0=0=0 // don't automatically add -songbackground-
;

//---------------dance-single - ----------------
#NOTES:
     dance-single:
     :
     Challenge:
     13:
     1.000,1.000,0.567,0.110,0.801: // measure 1
0000
0000
0000
0000
,  // measure 2
0000
0000
0000
0000
,  // measure 3
0000
0000
0000
0000
,  // measure 4
0000
0000
0000
0000
,  // measure 5
0000
0000
0000
0000
,  // measure 6
0000
0000
0000
0000
,  // measure 7
1000
0000
0100
0010
0100
1000
0010
0000
0100
0000
0001
0100
0010
0100
0001
0000
,  // measure 8
1000
0000
0001
0000
0100
0000
0010
0000
1000
0100
1000
0100
0010
0001
1000
0000
,  // measure 9
0001
0000
0100
0010
1000
0010
0100
0000
0001
0000
0010
0100
1000
0001
0100
0000
,  // measure 10
0002
0000
0203
0000
0320
0000
1030
0100
2000
0000
0000
0000
0000
0000
3000
0000
,  // measure 11
1001
1000
1100
0100
0110
0010
0011
0001
,  // measure 12
1001
1000
1010
0010
0110
0100
0101
0001
,  // measure 13
1000
0000
0100
0010
0001
0100
0010
0000
1000
0000
0010
0100
0001
0010
0100
0000
,  // measure 14
1000
0000
0010
0100
0001
0000
0010
0100
1000
0001
1000
0001
1000
0100
0010
0000
,  // measure 15
0001
0001
0100
0100
0010
0010
1000
1000
,  // measure 16
0100
0100
0010
0010
0001
0001
0100
0100
,  // measure 17
0001
0000
0010
0100
1000
0010
0100
0000
0001
0000
0100
0010
1000
0001
0100
0000
,  // measure 18
0001
0000
1000
0100
1000
0100
0010
0001
2000
0000
3000
0000
MMMM
0000
0000
0000
,  // measure 19
1000
0100
1000
0100
1000
0100
1000
0100
,  // measure 20
0010
0000
0001
0000
0010
0000
0001
0000
0010
0000
0001
0000
0010
0000
0001
0100
,  // measure 21
0010
1000
0010
1000
0010
1000
0010
1000
,  // measure 22
0001
0000
0100
0000
0001
0000
0100
0000
0001
0000
0100
0000
0001
0100
0001
0100
,  // measure 23
0001
1000
0001
1000
0001
1000
0001
1000
,  // measure 24
0010
0000
0100
0000
0010
0000
0100
0000
0010
0000
0100
0000
0001
0000
1000
0010
,  // measure 25
0100
0001
0100
0001
0100
0001
0100
0001
,  // measure 26
1000
0000
0010
0000
1000
0000
0010
0000
1000
0000
0010
0000
1000
0001
1000
0001
,  // measure 27
1000
1000
1000
0100
0010
0010
0010
0001
,  // measure 28
0100
0000
0100
0000
0010
0000
0010
0000
1000
0000
1000
0000
0001
0000
0001
0100
,  // measure 29
0010
0010
1000
1000
0100
0100
0010
0010
,  // measure 30
0001
0000
0100
0000
0100
0000
0100
0000
0010
0000
0010
0000
0010
1000
0010
1000
,  // measure 31
0001
0001
0010
0010
0100
0100
1000
1000
,  // measure 32
0010
0000
0010
0000
0100
0000
0100
0000
0001
0000
0001
0000
1000
0000
1000
0100
,  // measure 33
0010
0010
0010
0001
0100
0100
0100
0010
,  // measure 34
1000
0000
0010
0000
0010
0000
0100
0000
0100
0000
0100
0000
0001
0010
0100
1000
,  // measure 35
0001
0000
1000
0100
1000
0100
1000
0000
0001
0000
0100
0010
0100
0010
0100
0000
,  // measure 36
0001
0000
0100
0000
0010
0000
1000
0000
0001
0100
0001
0100
0010
1000
0010
1000
,  // measure 37
0001
0000
0010
0100
0010
0100
0010
0000
0001
0000
1000
0100
1000
0100
1000
0000
,  // measure 38
0010
0000
0100
0000
0001
0010
0001
0010
0100
1000
0100
1000
0002
0000
0000
0000
,  // measure 39
1003
0000
0010
1000
0100
1000
0001
0000
0100
0000
0001
1000
0010
1000
0100
0000
,  // measure 40
1000
1000
0010
0100
0002
0000
0023
0000
,  // measure 41
0130
1000
0100
1000
0100
1000
0100
1000
0100
1000
0100
1000
0100
0000
0000
0000
,  // measure 42
1000
0000
1000
0000
0010
0000
0100
0000
0001
0100
0001
0010
0100
1000
0100
1000
,  // measure 43
0001
0000
1000
0100
1000
0100
1000
0000
0010
0000
0100
0001
0100
0001
0100
0000
,  // measure 44
0010
0000
1000
0000
0100
0000
0010
0000
0001
0000
1000
0100
1000
0000
0010
0000
,  // measure 45
0100
0000
0001
0100
0001
0100
0001
0000
1000
0000
0010
1000
0010
1000
0010
0000
,  // measure 46
0100
0000
0001
0000
0010
0000
0100
1000
0100
0000
0010
0000
0001
0000
0100
0000
,  // measure 47
0001
0000
1000
0100
0010
0001
1000
0000
0010
0000
1000
0010
0100
0001
1000
0000
,  // measure 48
0001
0100
0010
1000
0001
0100
0010
1000
,  // measure 49
0002
1000
1000
1000
2003
0001
0001
0001
,  // measure 50
3001
0100
0001
0100
0010
1000
0010
1000
0001
0010
0001
0010
0100
1000
0001
0000
,  // measure 51
1MM1
0000
1MM1
0000
1100
0100
0110
0010
,  // measure 52
0011
0001
1001
1000
1M1M
0000
M1M1
0000
,  // measure 53
1MM1
0000
1000
0000
0001
0000
0100
0000
0010
0000
1000
0100
1000
0100
0010
0001
,  // measure 54
1000
0001
0101
0100
0110
0010
1010
1000
,  // measure 55
1MM1
0000
1MM1
0000
1MM1
0001
1MM1
0001
,  // measure 56
1MM1
1000
1MM1
1000
1MM1
0000
1MM1
0000
,  // measure 57
M1M1
0000
M11M
0000
1M1M
1000
0100
0010
,  // measure 58
0001
0001
1000
0010
0110
0100
0101
0001
,  // measure 59
1001
0000
1000
0010
0100
0000
0001
0000
1001
0000
1000
0000
1001
0000
0001
0000
,  // measure 60
0101
0000
0100
0010
1000
0000
0100
0000
0110
0000
0010
0000
0011
0000
0001
0000
,  // measure 61
1001
0000
1000
0000
0010
0000
0010
0000
0100
0000
0100
0001
1000
0000
0001
0100
,  // measure 62
0010
1000
0100
0010
0001
0010
0100
1000
0010
0100
0001
0010
0100
1000
0001
0100
,  // measure 63
0001
0000
1000
0000
0001
1000
0100
0010
0001
0100
0001
0100
0010
1000
0010
1000
,  // measure 64
0001
0000
1000
0000
0001
0100
0010
1000
0010
0100
0001
0010
0100
1000
0001
1000
,  // measure 65
0001
0000
0M00
0000
1001
0000
1000
0000
0010
0000
0100
0001
0010
0000
0100
0000
,  // measure 66
1000
0100
1000
0100
0010
0001
0010
0001
1000
0100
0010
0001
1000
0010
0100
0001
,  // measure 67
10M0
1000
1MM1
0001
1MM1
1000
1MM1
0001
,  // measure 68
1MM1
0001
0100
0010
1M1M
0000
M1M1
0000
,  // measure 69
1MM1
0000
1000
0000
0010
0000
0100
0000
00M1
0000
1000
0100
0010
0000
0001
0010
,  // measure 70
0100
0000
1000
0000
0M01
0000
0001
0000
1000
0100
1000
0100
0010
0000
0001
0000
,  // measure 71
1MM1
0000
1MM1
0000
1MM1
0001
1MM1
1000
,  // measure 72
1MM1
0001
0101
0100
M11M
0000
1M1M
0000
,  // measure 73
1MM1
0000
1MM1
0000
11MM
0100
0010
0001
,  // measure 74
1000
0100
100M
0100
1000
0000
0010
0000
010M
0000
0100
0000
00M1
0000
1000
0000
,  // measure 75
1M01
0000
1000
0010
0100
0000
0001
0000
1M00
0000
0001
0010
0100
0000
1000
0000
,  // measure 76
0001
0100
0001
0100
0010
1000
0010
1000
0001
0010
0001
0010
0100
1000
0100
1000
,  // measure 77
0001
0000
0001
0000
0100
0000
0100
0000
0010
0100
0001
1000
0010
0100
0001
1000
,  // measure 78
0001
0010
0001
0010
0100
1000
0010
0100
0010
1000
0001
0100
0001
0010
0100
1000
,  // measure 79
0001
0100
0001
0100
0001
0100
0001
0100
0010
1000
0001
0010
0100
1000
0001
0100
,  // measure 80
0001
1000
0100
1000
0010
1000
0100
0010
0001
0100
0010
1000
0001
0010
0100
1000
,  // measure 81
0001
0000
M00M
0000
1MM1
0000
1000
0000
001M
0000
0100
0001
10M0
0100
0010
0000
,  // measure 82
M001
0000
0100
0010
1M00
0000
0001
0000
10M0
0000
0100
0010
0M01
0000
1000
0000
,  // measure 83
2MM2
0000
0000
0000
,  // measure 84
0000
3003
0000
0000
;

//---------------dance-single - ----------------
#NOTES:
     dance-single:
     :
     Hard:
     10:
     0.791,0.952,0.284,0.110,0.174:
0000
0000
0000
0000
,
0000
0000
0000
0000
,
0000
0000
0000
0000
,
0000
0000
0000
0000
,
0000
0000
0000
0000
,
0000
0000
0000
0000
,
1000
0000
0001
0100
0001
0000
0010
0000
0100
0000
1000
0100
1000
0000
0010
0000
,
0100
0000
0001
0000
0010
0000
0100
0000
1000
0100
1000
0100
1000
0000
0001
0000
,
0100
0000
0010
1000
0010
0000
0100
0000
0001
0000
1000
0100
1000
0000
0010
0000
,
0100
0001
1000
0100
0020
0000
0000
0000
,
0031
0001
0100
0100
0010
0010
1000
1000
,
0100
0100
0010
0010
0001
0001
0100
0100
,
0001
0100
0001
0010
0001
1000
0001
0100
,
0001
0010
0001
0100
0002
0000
0000
0000
,
1003
0100
0010
0001
1000
0010
0100
0001
,
1000
1000
0100
0100
0010
0010
0001
0001
,
1000
0100
1000
0100
0010
0001
0010
0001
,
1000
0010
0100
0001
1000
0000
1001
0000
,
1000
0010
0100
0001
,
0100
0000
0010
0000
1000
0000
0100
0010
,
0001
0010
1000
0100
,
0001
0000
0100
0000
1000
0000
0010
0100
,
0001
0010
1000
0010
,
0100
0000
0001
0000
0010
0000
0100
1000
,
0001
0100
0010
1000
,
0010
0000
0100
0000
0001
0000
1000
0100
,
0010
0001
0010
0100
1000
0001
1000
0010
,
0100
0100
0001
0001
1000
0100
1000
0100
,
0010
0010
0001
0001
0100
0100
0010
0010
,
1000
0001
0100
0001
2000
0000
0000
0001
,
3001
0100
0001
0100
0010
1000
0010
1000
,
0001
0010
0001
0010
0100
1000
0100
1000
,
0001
0010
0100
1000
0001
0100
0010
1000
,
0001
0100
1000
0100
0001
0010
1000
0010
,
0001
0100
0001
0000
1000
0100
1000
0000
,
0001
0100
0010
1000
0002
0000
0203
0000
,
0310
1000
0010
0000
0100
0001
0100
0000
,
1000
0100
0010
0001
2000
0000
3020
0000
,
0130
0001
0100
0000
0010
1000
0010
0000
,
0001
0010
0001
0100
0020
0000
2030
0000
,
0002
0000
0000
3003
,
1000
0000
0010
0000
0100
0000
0001
0000
0010
0000
0100
1000
0100
0000
0010
0000
,
0001
0100
0001
0000
1000
0100
1000
0000
,
0001
0100
0010
1000
0010
0010
0100
0100
,
0001
0010
0001
0000
1000
0100
1000
0000
,
0001
0010
0100
0010
0001
0001
0100
0100
,
0010
1000
0001
0000
0010
0100
1000
0000
,
0001
0100
0010
1000
0100
0001
0100
1000
,
0001
0001
0001
0001
1000
1000
1000
1000
,
0010
0010
0100
0100
0001
0001
1000
1000
,
1001
0000
1001
0000
1000
0100
0010
0001
,
0100
0010
1000
0010
0101
0000
1001
0000
,
1100
0000
1000
0000
0010
0000
0100
0000
0001
0000
0010
0100
1000
0000
0010
0000
,
0100
0100
0001
0001
1000
1000
0010
0010
,
1010
0000
0101
0000
1001
1000
0010
0100
,
0001
0100
0010
1000
0100
0000
0011
0000
,
1010
0000
0101
0000
1001
1000
0010
0100
,
0001
0010
0100
1000
0001
0001
0100
0010
,
0110
0100
0110
0000
1001
0000
1100
1000
,
1001
0001
0100
0010
1000
0100
0010
0001
,
1000
0000
1000
0000
0010
0000
0100
0000
0001
0000
1000
0100
0010
0000
0001
0000
,
1000
0010
0100
0001
0100
0010
1000
0001
,
1001
0000
1000
0000
0010
0000
0100
0000
0001
0000
1000
0100
1000
0000
0001
0000
,
0100
0000
0010
0000
1000
0000
0001
0100
0001
0000
0010
0000
0100
0000
1000
0000
,
1001
0000
0000
0000
0101
0000
0100
0000
0010
0000
1000
0100
0010
0000
0001
0000
,
1001
0000
0000
0000
1010
0000
0010
0000
1000
0001
1000
0001
1000
0001
1000
0001
,
1000
0010
0100
0001
0100
0010
1000
0100
,
0010
0001
0010
0100
1000
0010
0100
0001
,
1000
0000
0000
0000
0001
0000
0100
0000
1000
0000
0100
0001
0100
0000
0010
1000
,
0010
0000
0100
0000
0001
0000
0010
0000
0100
1000
0100
1000
0100
0000
0010
0000
,
0011
0000
1100
0000
1001
0001
0100
0010
,
1000
0100
0010
0001
1000
1000
1001
0000
,
0101
0000
1010
0000
1001
1000
0010
0100
,
0001
0010
0100
1000
0001
0001
0100
0100
,
0010
0000
1000
0100
0010
0000
0001
0000
0100
0000
0010
0000
1000
0100
1000
0000
,
0010
0100
0001
0100
0010
1000
0100
1000
,
0001
0100
0001
0000
1000
0100
1000
0000
0001
1000
0001
1000
0001
0000
0100
0000
,
0010
1000
0010
0000
0100
0001
0100
0000
0010
0100
0010
0100
0010
0000
1000
0000
,
0001
0010
0100
0000
1000
0000
0010
0000
0100
0000
0001
0100
0001
0000
0010
0000
,
0100
0000
1000
0000
0010
0000
0100
0000
0001
0100
0001
0100
0010
1000
0010
1000
,
0001
0000
0000
0000
0010
0000
0100
0000
1000
0000
0001
0010
0100
0000
1000
0000
,
0001
0000
0000
0000
1000
0000
0010
0000
0100
0000
0001
0010
0100
0000
1000
0000
,
2002
0000
0000
0000
,
0000
3003
0000
0000
;

//---------------dance-single - ----------------
#NOTES:
     dance-single:
     :
     Medium:
     7:
     0.617,0.647,0.668,0.101,0.000:
0000
0000
0000
0000
,
0000
0000
0000
0000
,
0000
0000
0000
0000
,
0000
0000
0000
0000
,
0000
0000
0000
0000
,
0000
0000
0000
0000
,
0001
0010
0001
0000
1000
0100
1000
0000
,
0001
0100
0010
1000
0001
0000
1001
0000
,
1000
0100
0010
0000
0001
0010
0100
0000
,
1000
0010
0100
0001
2000
0000
3000
0000
,
1001
0101
0110
1010
,
1001
0011
0110
1100
,
0000
1001
0000
0101
0000
1100
0000
1010
,
0000
0011
0000
1001
2002
0000
3003
0000
,
0001
0100
0001
0100
0010
1000
0010
1000
,
0001
0010
0001
0010
0100
1000
0100
1000
,
0001
0010
0100
1000
0001
0010
0100
1000
,
0001
1000
0001
1000
0001
0000
1001
0000
,
1000
0100
1000
0100
,
0010
0001
0010
0001
,
1000
0010
1000
0010
,
0100
0001
0100
0001
,
1000
0100
0010
0001
,
1000
0010
0100
0001
,
0100
1000
0100
0001
,
0010
1000
0100
0001
,
1000
1000
1000
0000
0001
0001
0001
0000
,
0101
0110
1010
1001
,
0100
0100
0100
0000
0010
0010
0010
0000
,
1010
0110
0202
0303
,
0001
0100
0001
0100
0010
1000
0010
1000
,
0001
0010
0001
0010
0100
1000
0100
1000
,
0001
0001
0001
0000
1000
1000
1000
0000
,
0010
0100
0001
1000
0001
0001
0001
0000
,
0101
0000
1010
0000
,
1000
0100
0010
0001
1000
0000
0001
0000
,
1100
0000
0101
0000
,
0001
0010
0100
1000
0001
0000
1000
0000
,
0011
0000
1010
0000
,
0001
0100
0010
1000
0001
0000
1000
0000
,
2002
0000
0000
3003
,
1000
0001
1000
0001
1000
0001
1000
0001
,
1001
0000
0110
0000
,
1000
0100
1000
0010
0100
0000
0001
0000
,
0110
0000
1001
0000
,
0001
0100
0010
0100
0001
0000
1000
0000
,
0110
0000
1001
0000
,
0001
0100
0010
1000
0100
0000
0010
0000
,
0002
0000
2000
3003
,
1001
1100
0110
0011
,
1001
0000
1001
0000
1000
0100
1000
0100
,
1000
0001
1000
0001
1000
0000
1001
0000
,
0001
0000
0100
0010
1000
0001
0001
0010
,
0100
1000
0010
0100
,
0101
0000
1010
0000
0001
0100
0001
0100
,
0001
1000
0001
1000
0001
0000
1001
0000
,
1000
0000
0100
0000
0010
0010
0001
0100
,
0010
1000
0100
0010
,
0011
1100
1001
0101
,
1010
1001
1100
0101
,
0001
0010
0100
1000
,
0001
1000
0001
1000
0001
1000
0001
0000
,
1001
0000
0001
0100
0010
0100
0001
0000
,
1000
0100
1000
0000
0001
0000
0100
0010
,
1000
0000
0001
0010
0100
1000
0001
0001
,
0100
0000
0010
1000
0010
0100
0001
0001
,
1000
0000
1001
0000
1000
0100
0010
0001
,
1000
0000
0010
0100
0001
0000
1000
0000
,
0001
0000
0100
0010
1000
0000
0100
0010
,
0001
0000
1000
0010
0100
0000
0001
0000
,
1001
0000
1100
0000
0001
0010
0100
1000
,
0001
1000
0010
0100
,
0001
0000
0010
0000
0100
1000
0010
0100
,
0001
0000
1000
0010
0100
0001
1000
0000
,
1100
0110
0011
1001
,
0101
0000
1001
0000
1000
0100
1000
0000
,
0001
0000
0100
0000
0010
0000
1000
0100
,
0010
0001
0010
0001
0010
0000
0100
0000
,
1100
1001
0101
0110
,
1010
0000
1001
0000
0101
0000
0001
0100
,
0010
0000
1000
0100
0010
0001
0100
0010
,
1000
0000
0001
0100
0010
1000
0001
0000
,
2002
0000
0000
0000
,
0000
3003
0000
0000
;

//---------------dance-single - ----------------
#NOTES:
     dance-single:
     :
     Easy:
     5:
     0.401,0.495,0.302,0.119,0.000:
0000
0000
0000
0000
,
0000
0000
0000
0000
,
0000
0000
0000
0000
,
0000
0000
0000
0000
,
0000
0000
0000
0000
,
0000
0000
0000
0000
,
1000
0000
0100
0000
,
0010
0001
0100
0000
,
0010
0000
1000
0000
,
0001
0010
0100
0000
,
1000
1000
0010
0010
,
0100
0100
0001
0001
,
0000
1000
0000
1000
0000
0100
0000
0100
,
0000
0010
0000
0010
0020
0000
0000
0000
,
0031
0100
0010
1000
,
0010
0100
0001
0010
,
0100
1000
0100
1000
,
0001
0100
0002
1000
,
1003
0000
1000
0000
,
0100
0000
0100
0010
,
0010
0000
0010
0000
,
0001
0000
0001
0100
,
0100
0000
0010
0000
,
1000
0000
0010
0100
,
0001
0000
0010
0000
,
0100
0000
1000
0010
,
0200
0000
0302
0000
,
1003
0100
0010
0001
,
0100
0100
0010
0010
,
1000
0010
0200
0000
,
0301
0001
0100
0100
,
0010
0010
1000
1000
,
0002
0000
0203
0000
,
0310
1000
0002
0000
,
1003
0000
0100
0000
,
0010
0001
0100
0010
,
1000
0000
0010
0000
,
0100
0001
1000
0010
,
0100
0000
0001
0000
,
0010
0100
1000
0001
,
2000
0000
0000
3000
,
0001
0100
0010
1000
,
0001
0000
0010
0000
,
0100
1000
0010
0100
,
0001
0000
0100
0000
,
0010
1000
0010
0100
,
0001
0000
1000
0000
,
0100
0010
0001
1000
,
0020
0000
0230
0000
,
0301
0001
1000
1000
,
1001
1001
1001
1001
,
0001
0100
0010
1000
,
0001
0010
0100
1000
,
0010
0100
0001
1000
,
1100
1100
1100
1100
,
1000
0010
0100
0001
,
1000
1000
0100
0100
,
0010
0001
0100
0001
,
0101
0101
0101
0101
,
0001
1000
0010
0100
,
0001
0001
1000
1000
,
0100
0010
0001
1000
,
1010
1010
1010
1010
,
1000
0010
0100
0001
,
0010
0010
0100
1000
,
0010
0010
0100
0001
,
0011
0011
0011
0011
,
0001
0100
0010
1000
,
0001
0100
0010
1000
,
0010
0100
0001
0100
,
0110
0110
0110
0110
,
0010
1000
0010
0100
,
0001
0001
0001
0100
,
0010
1000
0010
0100
,
0110
0110
0110
0110
,
0010
1000
0010
0100
,
0001
0010
0100
1000
,
0001
0001
1000
1000
,
1001
1001
1001
1001
,
0001
0100
0010
1000
,
0100
0000
0010
0001
,
0100
0000
0010
1000
,
2002
0000
0000
0000
,
0000
3003
0000
0000
;

//---------------dance-single - ----------------
#NOTES:
     dance-single:
     :
     Beginner:
     3:
     0.199,0.338,0.009,0.000,0.000:
0000
0000
0000
0000
,
0000
0000
0000
0000
,
0000
0000
0000
0000
,
0000
0000
0000
0000
,
0000
0000
0000
0000
,
0000
0000
0000
0000
,
1000
0000
0000
0000
,
0100
0000
0000
0000
,
0010
0000
0000
0000
,
0001
0001
0001
0000
,
1000
1000
1000
1000
,
1000
1000
1000
1000
,
1000
0000
0001
0000
,
0100
0000
0010
0000
,
0100
0100
0100
0100
,
0100
0100
0100
0000
,
0010
0010
0010
0010
,
0010
0010
0010
0000
,
1000
0000
0000
0000
,
0100
0000
0000
0000
,
0010
0000
0000
0000
,
0001
0000
0000
0000
,
0100
0000
0000
0000
,
0010
0000
0000
0000
,
1000
0000
0000
0000
,
0010
0000
0000
0000
,
0100
0000
0100
0000
,
0010
0000
0010
0000
,
0001
0000
0001
0000
,
1000
0000
1000
0000
,
0100
0000
0100
0000
,
0010
0000
0010
0000
,
0001
0000
0001
0000
,
1000
0000
0001
0000
,
1000
0000
0000
0000
,
0010
0000
0000
0000
,
0100
0000
0000
0000
,
0001
0000
0000
0000
,
0010
0000
0000
0000
,
0100
0000
0000
0000
,
1000
0000
0000
0000
,
0010
0010
0010
0010
,
0010
0000
0000
0000
,
0100
0000
0000
0000
,
0001
0000
0000
0000
,
0010
0000
0000
0000
,
0100
0000
0000
0000
,
1000
0000
0000
0000
,
0001
0000
0001
0000
,
0001
0001
0001
0000
,
1000
1000
1000
1000
,
1000
0000
0010
0000
,
0100
0000
0000
0000
,
0001
0000
0000
0000
,
0010
0010
0010
0010
,
0010
0000
0100
0000
,
1000
0000
0000
0000
,
0010
0000
0000
0000
,
0100
0100
0100
0100
,
0100
0000
0001
0000
,
0010
0000
0000
0000
,
1000
0000
0000
0000
,
0001
0001
0001
0001
,
0001
0000
0100
0000
,
0010
0000
0000
0000
,
0100
0000
0000
0000
,
1000
1000
1000
1000
,
1000
0000
0010
0000
,
0100
0000
0100
0000
,
0001
0000
0001
0000
,
0010
0010
0010
0010
,
0010
0000
0100
0000
,
1000
0000
1000
0000
,
0010
0000
0010
0000
,
0100
0100
0100
0100
,
0100
0000
0001
0000
,
1000
0000
0100
0000
,
0010
0000
0100
0000
,
0001
0001
0001
0001
,
0001
0000
0100
0000
,
0010
0000
0010
0000
,
1000
0000
0001
0000
,
1001
0000
0000
0000
;
