#TITLE:Enough With Knife;
#SUBTITLE:- The Gatekeeper Chapter -;
#ARTIST:IOSYS;
#TITLETRANSLIT:;
#SUBTITLETRANSLIT:;
#ARTISTTRANSLIT:;
#CREDIT:;
#BANNER:Enough with Knife - BN.png;
#BACKGROUND:Enough with Knife - BG.png;
#LYRICSPATH:;
#CDTITLE:cdtitlegpop.png;
#MUSIC:Enough With Knife - The Gatekeeper Chapter (short).ogg;
#OFFSET:-1.760;
#SAMPLESTART:12.560;
#SAMPLELENGTH:11.980;
#SELECTABLE:YES;
#BPMS:0.000=200.000,164.000=100.000,176.000=200.000,304.000=100.000,316.000=200.000;
#STOPS:;
#BGCHANGES:;

//---------------dance-single - ----------------
#NOTES:
     dance-single:
     :
     Challenge:
     10:
     0.999,1.000,0.619,0.286,0.229: // measure 1
0000
0000
0000
0000
,  // measure 2
1000
0000
0001
0100
0001
0100
0001
0000
0100
0000
0010
1000
0010
1000
0001
0000
,  // measure 3
0001
0100
0001
0100
0001
0100
0001
0100
,  // measure 4
0010
0000
1000
0100
1000
0100
1000
0000
0100
0000
0010
0001
0010
0001
1000
0000
,  // measure 5
1000
0100
1000
0100
1100
0000
1100
0000
,  // measure 6
1001
0000
0001
1000
0001
1000
0001
0000
0100
0000
0010
0100
0010
0100
0010
0000
,  // measure 7
0010
1000
0010
1000
0010
1000
0010
1000
,  // measure 8
0001
0000
1000
0100
1000
0100
1000
0000
0010
0000
0100
0001
0100
0001
0100
0000
,  // measure 9
0100
0001
0001
0001
1001
0000
1001
0000
,  // measure 10
1001
0000
1000
0100
0010
0001
0100
0010
,  // measure 11
0000
1000
1000
0010
0100
0000
0001
0000
,  // measure 12
1000
1000
0100
0010
0001
0100
0010
1000
,  // measure 13
0000
0001
0001
0010
0100
0000
1000
0000
,  // measure 14
1001
0000
0001
0100
0010
1000
0010
0100
,  // measure 15
0000
0001
0002
0000
1003
0100
0010
0001
,  // measure 16
1000
0000
0001
0100
0010
0000
1000
2000
,  // measure 17
0000
0001
0001
0001
3001
0000
1001
0000
,  // measure 18
1001
0001
1000
0100
0010
0001
2000
0000
,  // measure 19
3002
0000
0103
0001
0100
0000
1001
0000
,  // measure 20
0001
0100
0010
0010
1000
0100
0020
0000
,  // measure 21
0032
0000
1003
0100
1000
0000
1001
0000
,  // measure 22
0001
0001
0100
0010
2000
0000
3002
0000
,  // measure 23
2003
0000
3100
0010
0001
0000
1001
0000
,  // measure 24
1000
1000
0100
0010
0001
0002
0000
2003
,  // measure 25
0000
0000
0010
0000
3020
0000
0000
0000
0130
0000
0000
0000
0001
1000
0001
1000
,  // measure 26
0001
0000
1000
0100
0010
0001
1000
1000
,  // measure 27
0000
0001
0001
0100
0010
0000
1000
0000
,  // measure 28
0001
0001
0100
0010
1000
0010
0100
0001
,  // measure 29
0000
1000
1000
0100
0010
0000
0001
0000
,  // measure 30
1001
1000
0100
0010
0002
0000
1000
1003
,  // measure 31
0000
0001
0002
0000
0103
0010
1000
0010
,  // measure 32
0100
0000
0001
0010
0100
0000
1000
2000
,  // measure 33
0000
0001
0001
0001
3001
0000
1001
0000
,  // measure 34
1001
0001
1000
0100
0010
0000
0002
0000
,  // measure 35
0203
0000
0310
1000
0001
0000
1001
0000
,  // measure 36
1000
0100
1000
0000
0001
0100
0001
0000
,  // measure 37
1000
1000
0100
0010
0002
0000
1003
0000
,  // measure 38
1001
0001
0100
0010
1000
0100
0020
0000
,  // measure 39
0031
0001
0100
0010
1000
1000
0001
0000
,  // measure 40
0001
0001
0100
0010
1000
2000
0000
3020
,  // measure 41
0000
0100
0230
0000
0301
0000
0000
0000
,  // measure 42
1000
0000
0100
0000
0010
0000
0001
0100
0010
1000
0010
0000
0200
0000
0000
0000
,  // measure 43
0301
0000
0010
0000
0100
1000
0100
0010
0002
0000
0000
0003
1001
0000
1001
0000
,  // measure 44
1001
0000
0001
0000
0100
0000
0010
1000
0010
0100
0001
0100
0001
0000
1001
0000
,  // measure 45
1001
1000
0100
0010
0001
0100
0010
1000
,  // measure 46
0010
0100
0001
0010
0100
1000
0100
0001
,  // measure 47
0100
1000
0010
0100
0001
0010
1000
0010
,  // measure 48
0001
0100
0010
1000
0010
0010
0100
0000
,  // measure 49
1001
1000
0100
0100
0010
0001
0001
0100
,  // measure 50
0010
0010
1000
0001
1001
0000
1001
0000
,  // measure 51
1001
1000
0001
0001
0100
0010
0010
1000
,  // measure 52
0001
0001
0100
0001
0001
0000
MMMM
0000
,  // measure 53
1001
0000
1100
0000
1000
0100
0000
0010
,  // measure 54
0000
0001
0100
0010
1000
0000
0001
0001
,  // measure 55
1000
0000
0010
0000
0100
0001
0000
0100
,  // measure 56
0000
0010
1000
0000
1001
0000
1001
0000
,  // measure 57
1001
0000
1000
0100
0010
0001
0100
0010
,  // measure 58
0000
1000
0010
0100
0001
0000
1000
0100
,  // measure 59
1000
0000
0001
0000
0100
0010
0000
1000
,  // measure 60
0000
0010
0100
0000
0202
0000
0303
0000
,  // measure 61
1001
0000
1000
0100
1000
0100
1000
0000
0010
0000
0100
0001
0100
0001
1000
0000
,  // measure 62
1000
0001
1000
0001
1000
0001
1000
0001
,  // measure 63
0100
0000
0010
1000
0010
1000
0010
0000
0100
0000
0001
0100
0001
0100
0010
0000
,  // measure 64
0010
1000
0010
1000
0010
0000
1010
0000
,  // measure 65
1001
0000
1000
0001
1000
0001
1000
0000
0010
0000
0100
0010
0100
0010
1000
0000
,  // measure 66
1000
0100
1000
0100
1000
0100
1000
0100
,  // measure 67
1000
0000
0001
0010
0001
0010
0001
0000
0010
0000
0100
1000
0100
1000
0001
0000
,  // measure 68
0001
1000
1000
1000
1000
0000
1001
0001
,  // measure 69
M1M1
0000
M1M1
0000
M1M1
0000
M1M1
0100
,  // measure 70
0010
1000
0010
0100
0000
0001
0010
0100
,  // measure 71
11MM
11MM
11MM
2000
,  // measure 72
3001
0100
0010
1000
0000
0001
0100
0010
,  // measure 73
M11M
0000
M11M
0000
M11M
0020
0000
1030
,  // measure 74
0001
0100
0010
1000
0000
0001
0010
0001
,  // measure 75
1MM1
1MM1
1MM1
1MM1
,  // measure 76
1100
1100
0100
0010
0011
0000
0110
0000
,  // measure 77
1001
0000
0001
0000
0100
0000
0010
1000
0010
0100
0001
0000
2000
0000
0000
0000
,  // measure 78
3001
0000
0100
0000
0010
1000
0100
0010
0002
0000
0000
0003
1001
0000
1001
0000
,  // measure 79
1001
0000
1000
0000
0010
0000
0100
0001
0100
0010
1000
0001
1000
0000
1001
0000
,  // measure 80
10M1
0001
0100
0010
100M
0100
0001
0100
,  // measure 81
100M
0010
0100
0001
0M10
1000
0010
0001
,  // measure 82
M100
0010
1000
0010
M100
0001
0100
0010
,  // measure 83
1M00
0001
1000
0100
100M
0010
1000
0000
,  // measure 84
1M01
0001
01M0
1000
01M0
0001
0M10
1000
,  // measure 85
0M10
0001
M100
0010
100M
0100
M001
0100
,  // measure 86
M010
0001
M100
0010
0M01
0010
1M00
0001
,  // measure 87
10M0
0100
M010
0001
10M0
1000
1M00
0000
,  // measure 88
10M1
0001
0100
0100
0010
1000
1000
0010
,  // measure 89
0100
0100
0001
0010
0010
0000
0110
0000
,  // measure 90
1001
1000
0010
0010
0100
0001
0001
0010
,  // measure 91
0100
0100
1000
1000
0001
0000
MMMM
0000
,  // measure 92
1001
0000
0000
0000
;

//---------------dance-single - ----------------
#NOTES:
     dance-single:
     :
     Hard:
     9:
     0.822,1.000,0.286,0.086,0.143:
0000
0000
0000
0000
,
1000
0000
0001
0100
0001
0000
1000
0000
0010
0000
0100
0001
0100
0000
0010
0000
,
0010
1000
0010
1000
0010
1000
0010
1000
,
0010
0000
0100
0001
0100
0000
0010
0000
1000
0000
0001
0100
0001
0000
1000
0000
,
1000
0010
1000
0010
1000
0000
0001
0000
,
0001
0000
1000
0100
1000
0000
0010
0000
0100
0000
0001
0100
0001
0000
1000
0000
,
1000
0001
1000
0001
1000
0001
1000
0001
,
1000
0000
0010
0100
0010
0000
0100
0000
0001
0000
1000
0001
1000
0000
0010
0000
,
0010
1000
1000
1000
1000
0000
1001
0000
,
1001
0000
1000
0100
1000
0100
0010
0001
,
0000
0000
1000
0100
1000
0000
0010
0000
,
1000
0100
0010
0001
0010
0100
1000
0001
,
0000
0000
1000
0001
1000
0000
0010
0000
,
0100
0000
0001
0010
0100
0010
0001
1000
,
0000
0000
0001
0000
0100
0010
1000
0010
,
0100
0000
0001
0010
0001
0000
1000
2000
,
0000
0001
0001
0001
0001
0000
3001
0000
,
1000
0100
1000
0100
0010
0001
0010
0000
,
0100
0000
1000
0100
0010
0000
0001
0000
,
1000
0100
1000
0000
0001
0100
0001
0000
,
1000
0000
0010
0100
0001
0000
1001
0000
,
1000
0100
1000
0010
0100
0000
0001
0000
,
1000
0000
0010
0100
0001
0000
1000
0000
,
0001
0100
0001
0000
1000
0100
0000
0100
,
0000
0100
0010
0000
0001
0000
0000
0000
,
1001
0000
1000
0100
1000
0010
0100
0001
,
0000
0000
1000
0100
0001
0000
0100
0000
,
1000
0000
0010
0100
0001
0100
0010
1000
,
0000
0000
0001
0100
0010
0000
1000
0000
,
0001
0000
1000
0100
1000
0010
0100
0001
,
0000
0000
1000
0000
0001
0010
0100
1000
,
0001
0000
1000
0100
1000
0000
0010
0020
,
0000
0100
0100
0100
0100
0000
0130
0000
,
0001
0000
0100
0010
1000
0000
0001
0000
,
0001
0000
0100
0010
1000
0000
0001
0000
,
1000
0100
1000
0000
0001
0100
0001
0000
,
1000
0100
0010
0001
1000
0000
1001
0000
,
0001
0000
0100
0010
1000
0001
0100
0000
,
0001
0100
0001
0100
0001
0000
1000
0000
,
0001
0010
0001
0000
1000
0010
0000
0010
,
0000
0010
0100
0000
0001
0000
0000
0000
,
1000
0000
0100
0000
0010
0000
0001
1000
0001
1000
0001
0000
2000
0000
0000
0000
,
3010
0000
0100
0000
0001
0100
0001
0100
0002
0000
0000
0000
1000
0000
1000
0000
,
1003
0000
0010
0000
0100
0000
0001
1000
0001
1000
0001
1000
0001
0000
1001
0000
,
1001
1000
0100
0010
0000
0000
0001
0000
,
0100
0010
0100
0001
0000
0000
1000
0000
,
0100
0010
0001
0100
0000
0000
0010
0000
,
1000
0010
0100
0001
1000
1000
1000
0000
,
0001
0000
1000
0100
0000
0010
0001
0000
,
0100
0010
0000
1000
0010
0000
0100
0000
,
0001
0000
0010
0100
0000
1000
0100
0000
,
0010
0001
0000
1000
1001
0000
0000
0000
,
1000
0000
0100
0000
0010
0001
0000
0100
,
0000
0010
1000
0010
0100
0000
0001
0100
,
0010
0000
1000
0000
0100
0010
0000
0001
,
0000
0100
0010
0000
1001
0000
1001
0000
,
1001
0000
0001
0100
0010
0100
0001
1000
,
0000
0001
0010
0100
1000
0000
0001
0100
,
0010
0000
1000
0000
0010
0100
0000
0001
,
0000
0001
1000
0000
2002
0000
3003
0000
,
1000
0000
0001
0100
0001
0000
0100
0000
0010
0000
1000
0100
1000
0000
0010
0000
,
0010
0100
0010
0100
0010
0100
0010
0100
,
0010
0000
1000
0001
1000
0000
0100
0000
0010
0000
0001
1000
0001
0000
1000
0000
,
1000
0010
1000
0010
1000
0000
1000
0000
,
0001
0000
0100
0010
0100
0000
0001
0000
1000
0000
0010
0100
0010
0000
1000
0000
,
1000
0001
1000
0001
1000
0001
1000
0001
,
1000
0000
0100
0010
0100
0000
0010
0000
0001
0000
0100
0010
0100
0000
0001
0000
,
0001
1000
1000
1000
1000
0000
0001
0100
,
0101
0101
0101
0101
,
0001
0100
0010
1000
0000
0001
0010
0100
,
1100
1100
1100
1100
,
1000
0010
0100
0001
0000
1000
0100
0010
,
0110
0000
0110
0000
0110
0020
0000
0000
,
0031
0100
0010
1000
0000
0001
0010
0001
,
1001
1001
1001
1001
,
1000
0100
0000
0010
0001
0000
1000
0000
,
0001
0000
0100
0000
0010
0000
1000
0100
1000
0100
1000
0000
0002
0000
0000
0000
,
1003
0000
0010
0000
0100
0001
0100
0001
0200
0000
0000
0000
0010
0000
0010
0000
,
0310
0000
1000
0000
0001
0000
1000
0010
1000
0010
1000
0010
1000
0000
0001
0000
,
1000
0100
0010
0001
1000
0000
0001
0000
,
0100
0010
1000
0010
0100
0000
0001
0000
,
0010
0100
1000
0100
0010
0000
0001
0000
,
1000
0100
0001
0100
1000
0000
0010
0000
,
0100
0001
0010
1000
0010
0000
0001
0000
,
0100
0010
1000
0010
0100
0000
0001
0000
,
1000
0100
0010
0100
1000
0000
0010
0000
,
0100
0001
0100
0010
1000
1000
1000
0000
,
1001
0000
1000
0100
0000
0010
0001
0000
,
0100
0010
0000
1000
0010
0000
0010
0000
,
0110
0000
0100
0001
0000
1000
0100
0000
,
0010
0001
0000
1000
0001
0000
0000
0000
,
1001
0000
0000
0000
;

//---------------dance-single - ----------------
#NOTES:
     dance-single:
     :
     Medium:
     7:
     0.610,0.650,0.229,0.019,0.000:
0000
0000
0000
0000
,
1000
0100
0010
0000
0001
0100
0010
0000
,
1000
0001
0100
0010
,
1000
0010
0100
0000
0001
0100
0010
0000
,
1000
0001
1001
1001
,
1000
0010
0100
0000
0001
0010
0100
0000
,
1000
0100
1000
0010
,
0100
0001
0100
0000
0010
1000
0010
0000
,
0001
1000
1000
1000
1000
0000
1001
0000
,
0001
0000
0100
0000
0010
1000
0001
1000
,
0000
0001
0100
0010
,
1000
0000
0001
0000
0100
0010
1000
0010
,
0000
0100
0001
1000
,
0001
0000
1000
0000
0100
0010
0001
0010
,
0000
0100
1000
0001
,
0100
0000
0010
1000
0001
0000
0000
2000
,
0000
0001
0001
0001
0001
0000
3001
0000
,
1001
0001
0100
0000
0010
1000
0010
0000
,
0100
0001
1000
0000
,
0001
0100
0001
0000
1000
0100
1000
0000
,
0001
0000
0010
0100
1000
0000
1001
0000
,
0001
0100
0010
1000
,
1000
0000
0001
0010
0100
0000
0000
0000
,
1000
0100
1000
0000
0001
0100
0000
0100
,
0000
0100
0010
0000
1000
0000
0000
0000
,
0001
0000
0100
0000
0010
1000
0010
1000
,
0000
0001
0010
0100
,
1000
0000
1000
0000
0010
0001
0010
0001
,
0000
1000
0010
0100
,
0001
0000
0001
0000
0010
0000
0100
1000
,
0000
0001
0100
0010
,
1000
0000
0001
0100
0010
0000
0000
2000
,
0000
0001
0001
0001
0001
0000
3001
0000
,
1001
0001
0100
0010
,
0010
0000
1000
0100
1000
0000
0000
0000
,
0001
0100
0010
0000
1000
0100
0010
0000
,
0001
0000
0100
0010
1000
0000
1001
0000
,
0001
0010
0100
1000
,
0001
0000
0100
0010
1000
0000
0000
0000
,
0001
0100
0001
0000
1000
0100
0000
0100
,
0000
0100
0010
0000
0001
0000
0000
0000
,
1000
0010
0100
0001
1000
1000
0001
0000
,
1000
0100
0010
0001
1000
0000
0010
0010
,
0100
0001
0100
0010
1000
1000
0001
0000
,
1000
0100
1000
0000
0010
0000
0100
0000
,
0001
0010
0001
0000
0100
0000
0010
0000
,
1000
0100
0010
0000
0001
0000
0100
0000
,
0010
1000
0001
0000
0010
0010
0100
0000
,
1000
0000
0000
0001
0000
0000
0100
0000
,
0000
0010
0000
0000
1000
0000
0001
0000
,
0100
0000
0000
0010
0000
0000
1000
0000
,
0000
0001
0000
0000
0010
0000
0000
0000
,
0001
0100
0010
1000
,
0010
0100
0001
1000
,
1000
0100
1000
0010
,
0100
0001
1001
1001
,
1000
0010
0100
0001
,
0100
0010
1000
0001
,
0010
0000
0010
0000
0100
1000
0000
1000
,
0000
1000
0010
0000
0100
0000
0000
0000
,
0001
0100
0001
0000
1000
0100
1000
0000
,
0001
0100
0010
1000
,
0001
0010
0001
0000
1000
0100
1000
0000
,
0010
0100
0001
0001
,
1000
0100
0010
0000
0001
0010
0100
0000
,
1000
0010
0100
0001
,
0010
0001
0100
0000
1000
0010
0100
0000
,
0001
0100
0010
1000
,
1001
1001
1001
0001
,
0100
0010
1000
0001
,
0110
0110
0110
1000
,
0010
0100
0001
0100
,
0101
0101
0101
0010
,
1000
0010
0100
0001
,
1100
1100
1100
1100
,
1000
0100
0010
0001
1000
0000
0001
0000
,
1000
0100
0010
0001
0100
0010
1000
0000
,
0001
0010
0100
1000
0010
0000
0100
0100
,
0001
0100
0010
1000
0001
0010
0100
1000
,
1000
0100
0010
0000
0001
0000
0100
0000
,
0010
1000
0001
0000
0010
0000
0100
0000
,
1000
0100
0010
0000
0001
0000
0100
0000
,
0010
1000
0001
0000
0100
0000
0010
0000
,
1000
0100
0010
0000
0001
0000
0100
0000
,
0010
1000
0001
0000
0100
0000
0010
0000
,
1000
0010
0100
0000
0001
0000
0010
0000
,
0100
1000
0100
0000
0010
0001
0010
0000
,
1001
0000
0000
0001
0000
0000
0100
0000
,
0000
0010
0000
0000
1000
0000
0001
0000
,
0100
0000
0000
0010
0000
0000
1000
0000
,
0000
0001
0000
0000
1000
0000
0000
0000
,
1001
0000
0000
0000
;

//---------------dance-single - ----------------
#NOTES:
     dance-single:
     :
     Easy:
     4:
     0.317,0.477,0.143,0.000,0.000:
0000
0000
0000
0000
,
1000
1000
0001
0001
,
0100
0000
0010
0000
,
0100
0100
0001
0001
,
1000
0000
0010
0000
,
0100
0100
0001
0001
,
1000
0000
0010
0000
,
0100
0100
0010
0010
,
1000
0000
0001
0001
,
1000
0000
0010
0000
,
0100
0000
0010
0000
,
0100
0000
0001
0000
,
0010
0000
0100
0000
,
1000
0000
0100
0000
,
0010
0000
0001
0000
,
0100
0000
0010
0000
,
1000
0000
1000
1000
,
0001
0000
0100
0000
,
0010
0010
0010
0000
,
0100
0000
0100
0000
,
0001
0001
0001
0000
,
1000
0000
0010
0000
,
0100
0100
0100
0000
,
0001
0000
0010
0000
,
1000
1000
1000
0000
,
0001
0000
0100
0000
,
0010
0000
1000
0000
,
0010
0000
0100
0000
,
0001
0000
0010
0000
,
0100
0000
1000
0000
,
0100
0000
0010
0000
,
0001
0000
0100
0000
,
0010
0000
1000
1000
,
0010
0000
0100
0000
,
0001
0001
0001
0000
,
0100
0000
0010
0000
,
1000
0100
1000
0000
,
0010
0000
0100
0000
,
0001
0010
0100
0000
,
1000
0000
0100
0000
,
0010
0001
1000
0000
,
0001
0100
0010
0010
,
1000
0100
1000
1000
,
0010
0100
0001
0001
,
0010
0000
0000
0000
,
0100
0000
0000
0000
,
0010
0000
0000
0000
,
1000
0000
0001
0001
,
0100
0000
0100
0000
,
0010
0000
0010
0000
,
1000
0000
1000
0000
,
0001
0000
0001
0000
,
1001
0000
1000
0000
,
0010
0000
0100
0000
,
0001
0000
0010
0000
,
0100
0000
0100
0000
,
1000
0000
0010
0000
,
0100
0000
0001
0000
,
1000
0000
1000
0000
,
0100
0000
0100
0000
,
0001
0001
0100
0100
,
0010
0000
0100
0000
,
0001
0001
1000
1000
,
0100
0000
0010
0000
,
0100
0100
1000
1000
,
0010
0000
0100
0000
,
0010
0010
0100
0100
,
0001
0000
1000
0001
,
1001
1001
1001
0000
,
1000
0000
0010
0000
,
0110
0110
0110
0000
,
0100
0000
0001
0000
,
1100
1100
1100
0000
,
0010
0000
0100
0000
,
0101
0101
0101
0101
,
0001
0000
0100
0000
,
0010
0100
0010
0100
,
0001
1000
0001
1000
,
0010
0100
0001
0010
,
0100
0000
0000
0000
,
1000
0000
0000
0000
,
0010
0000
0000
0000
,
0100
0000
0000
0000
,
0001
0000
0000
0000
,
0010
0000
0000
0000
,
0100
0000
0000
0000
,
1000
0000
0100
0010
,
0001
0000
0001
0000
,
0100
0000
0100
0000
,
0010
0000
0010
0000
,
1000
0000
1000
0000
,
1001
0000
0000
0000
;

//---------------dance-single - ----------------
#NOTES:
     dance-single:
     :
     Beginner:
     1:
     0.162,0.347,0.019,0.000,0.000:
0000
0000
0000
0000
,
1000
0000
1000
0000
,
1000
0000
0000
0000
,
0001
0000
0001
0000
,
0001
0000
0000
0000
,
0100
0000
0100
0000
,
0100
0000
0000
0000
,
0010
0000
0010
0000
,
0010
0000
0000
0000
,
1000
0000
0000
0000
,
1000
0000
0000
0000
,
0010
0000
0000
0000
,
0010
0000
0000
0000
,
0100
0000
0000
0000
,
0100
0000
0000
0000
,
0001
0000
0000
0000
,
0001
0000
0001
0000
,
0001
0000
0000
0000
,
0100
0000
0000
0000
,
0010
0000
0000
0000
,
0010
0000
0010
0000
,
0100
0000
0000
0000
,
0100
0000
0000
0000
,
0001
0000
0000
0000
,
0001
0000
0001
0000
,
1000
0000
0000
0000
,
0010
0000
0000
0000
,
0100
0000
0000
0000
,
0001
0000
0000
0000
,
0010
0000
0000
0000
,
0100
0000
0000
0000
,
1000
0000
0000
0000
,
0001
0000
0001
0000
,
1000
0000
0000
0000
,
0010
0000
0000
0000
,
0100
0000
0000
0000
,
0001
0000
0001
0000
,
1000
0000
0000
0000
,
0010
0000
0000
0000
,
0100
0000
0000
0000
,
0001
0000
0001
0000
,
1000
0000
1000
0000
,
0001
0000
0001
0000
,
0100
0000
0100
0000
,
0010
0000
0000
0000
,
0010
0000
0000
0000
,
0100
0000
0000
0000
,
0100
0000
0000
0000
,
0001
0000
0000
0000
,
0000
0000
0000
0000
,
1000
0000
0000
0000
,
0000
0000
0000
0000
,
0001
0000
0000
0000
,
0100
0000
0000
0000
,
0010
0000
0000
0000
,
1000
0000
0000
0000
,
0100
0000
0000
0000
,
0010
0000
0000
0000
,
0001
0000
0000
0000
,
1000
0000
0000
0000
,
0001
0000
0001
0000
,
0100
0000
0000
0000
,
0010
0000
0010
0000
,
1000
0000
0000
0000
,
0001
0000
0100
0000
,
0010
0000
0000
0000
,
1000
0000
0100
0000
,
1000
0000
0000
0000
,
0001
0001
0001
0000
,
0100
0000
0000
0000
,
0010
0010
0010
0000
,
1000
0000
0000
0000
,
0100
0100
0100
0000
,
0010
0000
0000
0000
,
1000
1000
1000
1000
,
1000
0000
1000
0000
,
1001
0000
0001
0000
,
0100
0000
0100
0000
,
0010
0000
0010
0000
,
1000
0000
0000
0000
,
1000
0000
0000
0000
,
0001
0000
0000
0000
,
0001
0000
0000
0000
,
0100
0000
0000
0000
,
0100
0000
0000
0000
,
0010
0000
0000
0000
,
0010
0000
0000
0000
,
1000
0000
0000
0000
,
0000
0000
0000
0000
,
0001
0000
0000
0000
,
0000
0000
0000
0000
,
1001
0000
0000
0000
;
