#TITLE:Donations Please!;
#SUBTITLE:-Nonstop NEW RICH Shrine Mix-;
#ARTIST:IOSYS;
#TITLETRANSLIT:;
#SUBTITLETRANSLIT:;
#ARTISTTRANSLIT:;
#CREDIT:;
#BANNER:Flandre.png;
#BACKGROUND:Flandre - bg copy.png;
#LYRICSPATH:;
#CDTITLE:cdtitlegpop.png;
#MUSIC:Donations Please! - Nonstop NEW RICH shrine mix -.ogg;
#OFFSET:-0.830;
#SAMPLESTART:20.680;
#SAMPLELENGTH:11.960;
#SELECTABLE:YES;
#BPMS:0.000=200.000,66.000=100.000,67.000=200.000,111.000=100.000,113.000=200.000,129.000=100.000,131.000=200.000,159.000=100.000,161.000=200.000,177.000=100.000,177.500=200.000,192.500=50.000,193.000=200.000,269.000=100.000,271.000=200.000,287.000=100.000,289.000=200.000,317.000=100.000,319.000=200.000,351.000=100.000,355.000=50.000,356.000=100.000,358.000=200.000,370.000=100.000,372.000=200.000,436.000=100.000;
#STOPS:192.500=0.250
,192.667=0.170
,192.833=0.170
;
#BGCHANGES:;

//---------------dance-single - ----------------
#NOTES:
     dance-single:
     :
     Challenge:
     13:
     1.000,1.000,0.552,0.296,1.000:
0000
0000
0000
0000
,
0000
0000
0000
0000
,
0000
0000
0000
0000
,
0000
0000
0000
0000
,
1100
0100
1000
1001
0100
0100
0100
0100
,
0010
0000
1000
0000
0000
0000
0001
0000
0010
0000
0100
0000
1000
0100
1000
0000
,
1001
0000
0100
0000
0001
0000
1001
0000
0001
0000
0100
0000
0001
0000
1000
0100
,
0010
0001
0100
0010
1000
0010
0100
0001
0010
0100
1000
0001
1000
0001
0000
0000
,
1001
0000
1000
0000
0001
0000
0101
0000
0001
0000
1000
0000
0001
0100
0001
0000
,
1000
0000
0100
0000
1000
0000
0100
0000
0010
0000
0001
0000
0010
0001
0010
0000
,
0011
0000
0000
0000
0001
0000
0000
0000
1000
0000
0000
0000
1100
0000
0000
0000
1000
0000
0000
0000
0010
0000
0000
0000
0100
0001
0100
0000
0010
0000
0000
0000
,
1000
0000
0000
0000
0100
0010
0100
0000
1000
0000
0000
0000
0001
0000
0000
0000
0100
0001
0100
0000
0010
0000
0000
0000
1000
0000
0001
0000
1000
0000
0001
0000
,
1000
0000
0001
0000
0100
0000
0101
0000
0001
0000
1000
0000
1000
0100
1000
0000
,
0001
0000
0100
0000
0010
0000
1000
0100
0010
0100
1000
0000
0001
0100
0010
0000
,
1010
0000
0000
0000
1000
0000
0000
0000
0001
0000
0000
0000
0101
0000
0000
0000
0100
0000
0000
0000
0010
0000
0000
0000
1000
0100
1000
0000
0001
0000
0000
0000
,
0100
0000
0000
0000
0010
1000
0010
0000
0100
0000
0000
0000
0001
0000
0000
0000
1000
0100
1000
0000
0001
0000
0000
0000
0001
0000
0100
0000
0010
0000
1000
0000
,
0001
0000
1000
0000
0001
0000
1000
0000
0001
0000
1000
0000
0001
0000
1000
0000
0001
0000
0000
0000
1000
0001
1000
0001
1000
0000
0000
0000
0010
0000
0000
0000
,
0100
0001
0100
0010
1000
0100
0010
0001
,
0010
0100
1000
0010
0100
0001
1000
0100
,
1000
0100
1000
0100
0100
1000
0001
0100
,
0001
0000
0100
0000
0001
0000
0100
0000
0100
0000
0010
0000
1010
0000
0010
0100
,
0001
0000
1000
0000
0001
0000
1000
0100
0010
0000
0001
0000
1000
0100
1000
0100
,
0010
0001
0010
0001
1000
0010
1000
0010
0100
0001
1000
0000
1000
0100
0010
0000
,
0001
0000
0010
0000
0100
0000
0000
0000
1000
0000
0001
0000
1000
0000
0000
0000
0001
0100
0001
0000
1000
0000
0000
0000
0001
0000
0000
0000
1000
0100
1000
0000
,
0001
0000
0000
0000
0100
0000
0000
0000
0010
1000
0010
0000
0100
0000
0000
0000
0001
0000
0100
0000
0001
0000
0100
0000
0001
0000
0000
0000
1000
0000
0000
0000
,
0100
0010
0001
0100
0010
1000
M002
0103
,
0M02
0013
00M2
0103
0M02
1003
M002
0013
,
00M2
0000
0000
0000
1003
0000
0000
0000
M001
0000
0100
0000
0010
0000
1000
0000
0100
0000
0010
0000
0001
0000
1000
0000
0001
1000
0001
1000
0001
0000
0000
0000
,
1000
0001
1000
0001
1000
0001
1000
0001
1000
0000
0000
0000
0100
0000
0000
0000
0010
0000
0000
0000
0001
0000
0000
0000
1001
0000
0000
0000
1000
0000
0000
0000
,
0010
0000
0101
0000
0001
0000
0010
0000
0001
0000
1000
0100
0010
0001
0100
0000
,
0001
0100
0010
1000
0002
0000
0100
0000
0203
0000
0010
0000
0320
0000
2030
0000
,
0001
3002
0203
0320
2030
3200
0302
0203
,
2300
0000
3002
0000
1003
0000
1001
0000
0101
0101
0000
1001
1000
0100
1000
0100
,
1000
0100
1000
0100
0010
0001
0010
0001
0010
0001
0010
0001
1000
0010
1000
0010
,
1000
0010
1000
0010
0100
0001
0100
0001
0100
0001
0100
0001
1000
0001
1000
0001
,
1000
0001
1000
0001
0100
0010
0100
0010
0100
0010
0100
0010
1000
0100
1000
0100
,
1000
0100
1000
0100
0010
0100
0010
0100
0010
0100
0010
0100
0010
0001
0010
0001
,
0010
0001
0010
0001
1000
0001
1000
0001
1000
0001
1000
0001
1000
0100
1000
0100
,
1000
0100
1000
0100
0010
0001
0010
0001
0010
0001
0010
0001
0010
0100
0010
0100
,
0010
0100
0010
0100
1000
0001
1000
0001
1000
0001
1000
0001
1MM0
1MM1
0000
1MM1
,
0000
1MM1
1MM1
0000
1MM1
0000
0000
0001
0000
0000
0100
0000
0010
0100
0001
0000
,
1000
0100
1000
0000
0001
0000
0000
0000
0100
0000
0000
0000
0001
0100
0001
0000
1000
0000
0000
0000
0010
0000
0000
0000
0100
0001
0100
0000
0010
0000
0000
0000
,
1000
0001
1000
0001
1MM0
0000
0000
0100
0000
0000
MM10
0000
0001
0000
0000
0100
,
0000
0000
0010
0000
1000
0100
0010
0000
0001
0000
1000
0100
0010
0100
1000
0000
,
0001
0000
1000
0000
0001
0000
1000
0000
0001
0000
0000
0000
1MM1
0000
0000
0000
0001
0000
0000
0000
1000
0000
0000
0000
0100
0000
0000
0000
0100
0010
0100
0000
,
1000
0000
0000
0000
0001
0000
0000
0000
0100
0010
0100
0000
0001
0000
0000
0000
1000
0000
0000
0000
0001
0100
0001
0000
1000
0000
0000
0000
0001
0000
1000
0000
,
0001
1000
00M1
0000
0000
0100
0000
0000
001M
0000
1000
0000
0000
0100
M000
0000
,
0010
0001
0100
0M00
0100
0M00
0100
0010
,
1000
0000
0000
0000
0000
0000
0000
0000
0000
0000
0000
0000
0000
0000
0000
0000
0000
0000
0000
0000
0000
0000
0000
0000
0001
0000
0000
0000
0000
0000
0000
0000
0100
0000
0000
0000
0000
0000
0000
0010
0000
0000
0000
0000
0000
0000
0000
0000
1000
0000
0000
0000
0000
0000
0000
0000
0000
0000
0000
0000
0000
0000
0000
0000
0000
0000
0000
0000
0000
0000
0000
0000
0001
0000
0000
0000
0000
0000
0000
0000
0000
0000
0000
0000
0000
0000
0000
0000
0000
0000
0000
0000
0000
0000
0000
0000
0100
0000
0000
0000
0000
0000
0000
0000
0000
0000
0000
0000
0000
0000
0000
0000
0000
0000
0000
0000
0000
0000
0000
0000
0010
0000
0000
0000
0000
0000
0000
0000
0000
0000
0000
0000
1000
0000
0000
0000
0000
0000
0000
0000
0000
0000
0000
0000
0001
0000
0000
0000
0000
0000
0000
0000
0000
0000
0000
0000
1000
0000
0000
0000
0000
0000
0000
0000
0000
0000
0000
0000
0010
0000
0000
0000
0000
0000
0000
0000
0000
0000
0000
0000
0000
0000
0000
0000
0000
0000
0000
0000
0000
0000
0000
0000
,
0100
0000
0001
0000
2000
0000
0100
0000
3100
0000
0010
0000
0001
0100
0010
1000
,
0010
1000
0010
0000
0100
0000
0001
0000
1000
0000
0100
0010
0001
0010
0100
0000
,
1000
0001
2000
0010
3010
0100
0002
1000
,
1003
0100
1000
0100
1000
0000
0010
0000
0100
0000
0001
0010
0001
0100
0010
0000
,
1000
0000
0001
0000
0200
0000
0010
0000
0310
0000
1000
0000
0001
0010
0100
1000
,
0100
1000
0100
0000
0010
0000
0001
0000
0100
0000
0010
1000
0010
0100
0001
0000
,
1000
0000
0000
0000
0100
0000
0000
0000
2000
0000
0000
0000
0010
0000
0000
0000
3010
0000
0000
0000
0100
0000
0000
0000
0001
1000
0001
0000
1000
0000
0000
0000
,
MMMM
0001
1001
1000
0010
0100
0001
0100
,
0010
1000
0001
0010
0100
1000
0100
0010
,
0001
0100
0010
1000
0010
1000
0010
1000
,
1000
0010
0100
0001
0100
0001
0100
0001
,
0001
0000
0100
0000
0101
0000
0001
0100
0010
0000
0110
0000
0010
0000
0100
0000
,
0001
0010
0100
0000
1000
0100
1000
0000
0001
0100
0001
0000
1000
0010
1000
0000
,
0001
0010
0001
0000
0200
0000
0310
0000
0200
0000
1300
0000
0200
0000
0301
0000
,
1000
0100
1000
0000
0100
0000
0000
0000
0010
0000
0000
0000
0001
0100
0001
0000
1000
0000
0000
0000
0010
0000
0000
0000
0100
0001
0100
0000
0010
0000
0000
0000
,
1000
0001
1000
0001
1000
0000
0100
0000
0010
0000
0001
0000
0100
0000
0010
0000
,
1000
0010
2000
3100
2M00
3010
20M0
3001
,
200M
0000
3010
0000
20M0
0000
3100
0000
2M00
0000
3001
0000
0001
0100
0010
1000
,
0010
0000
0100
0000
0001
0000
0010
0000
0001
1000
0001
1000
0001
0000
0000
0000
1000
0100
1000
0100
0010
0001
0010
0001
1000
0000
0000
0000
0010
0000
0000
0000
,
0100
0010
1010
1000
0100
0110
0010
0001
,
1000
0000
0010
0100
0001
0100
0010
0000
1000
0100
1000
0100
1100
0000
0100
0000
,
0010
0001
1001
2000
0010
3020
0100
0230
,
0001
0302
0023
0230
2300
3200
1300
1001
,
0101
0101
0000
1001
1000
0100
1000
0100
1000
0100
1000
0100
0010
0100
0010
0100
,
0010
0100
0010
0100
0010
0001
0010
0001
0010
0001
0010
0001
1000
0001
1000
0001
,
1000
0001
1000
0001
1000
0010
1000
0010
1000
0010
1000
0010
0100
0010
0100
0010
,
0100
0010
0100
0010
0100
0001
0100
0001
0100
0001
0100
0001
1000
0001
1000
0001
,
1000
0001
1000
0001
1000
0100
1000
0100
1000
0100
1000
0100
0010
0100
0010
0100
,
0010
0100
0010
0100
0010
0001
0010
0001
0010
0001
0010
0001
0010
0100
0010
0100
,
0010
0100
0010
0100
1000
0100
1000
0100
1000
0100
1000
0100
1000
0001
1000
0001
,
1000
0001
1000
0001
1000
1MM1
0000
1MM1
0000
1MM1
1MM1
0000
1MM1
0000
0000
0001
,
0000
0000
0000
0000
0100
0000
0000
0000
0010
0000
0100
0000
0001
0000
0000
0000
1000
0100
1000
0000
0001
0000
0000
0000
0100
0000
0000
0000
0010
0100
0010
0000
,
1000
0000
0000
0000
0001
0000
0000
0000
1000
0001
1000
0000
0100
0000
0000
0000
0010
0000
0001
0000
0010
0000
0001
0000
0010
0000
0000
0000
0000
0000
0100
0000
,
0000
0000
1000
0000
0010
0000
0000
0100
0000
0000
0001
0000
1000
0000
1000
0000
,
1000
0000
1000
0000
1000
0000
0100
0010
0001
1000
0001
0000
1000
0000
MMMM
0000
,
1001
0000
0000
0000
0001
0000
0000
0000
0100
0000
0010
0000
1000
0000
0000
0000
0001
0100
0001
0000
1000
0000
0000
0000
0010
0000
0000
0000
0100
0001
0100
0000
,
0010
0000
0000
0000
1000
0000
0000
0000
0001
0010
0001
0000
1000
0000
0000
0000
0010
0000
0100
0000
0010
0000
0100
0000
001M
0000
0000
0000
0000
0000
1000
0000
,
0000
0000
010M
0000
0010
0000
0000
0001
M000
0000
0100
0000
0010
0000
1000
0000
,
M000
0000
0000
0000
1000
0000
0000
0000
M000
0000
0000
0000
1000
0000
0000
0000
0100
0000
0000
0000
0010
0000
0000
0000
0001
0100
0010
0000
1000
0000
0001
0100
,
0010
1000
0001
0000
1000
0100
1000
0100
1000
0000
0001
0000
0001
0000
1000
0100
0010
0100
1000
0000
0001
1000
0001
1000
0M01
0000
00M1
0000
M100
0000
001M
0000
,
1000
0100
0010
0000
0001
0000
0001
0100
0010
0100
0010
1000
0001
0100
0001
0100
0001
0000
0000
0000
0100
0000
0000
0000
0010
0000
0000
0000
0100
0000
0001
0000
,
1000
0001
0100
0000
0001
0000
1000
0000
0001
0100
0010
0000
1000
0000
0001
0100
,
0010
0100
0001
0000
0100
0000
0001
0000
1000
0100
1000
0100
0010
0001
0010
0001
,
1000
0000
0010
0000
1000
0000
0010
0000
0100
0000
0001
0000
0100
0000
0001
0000
1000
0000
1001
0000
0000
0000
1001
0000
1000
0100
1000
0100
0010
0001
0010
0001
,
1000
0100
1000
0100
0010
0100
0010
0100
0010
0001
0010
0001
1000
0001
1000
0001
,
1000
0010
1000
0010
0100
0010
0100
0010
0100
0001
0100
0001
1000
0001
1000
0001
,
1000
0010
1000
0010
0100
0010
0100
0010
0100
0001
0100
0001
1000
0001
1000
0001
,
1000
0100
1000
0100
0010
0100
0010
0100
0010
0001
0010
0001
0100
0001
0100
0001
,
0100
0010
0100
0010
1000
0010
1000
0010
0100
0010
0100
0010
0100
0001
0100
0001
,
1000
0001
1000
0001
1000
0100
1000
0100
0010
0100
0010
0100
0010
0001
0010
0001
,
1000
0100
1000
0100
0010
0001
0010
0001
1000
0010
1000
0010
0100
0001
0100
0001
,
1000
0100
0010
0001
0100
0010
1000
0010
0100
0001
0010
0100
0010
0001
1000
0001
,
2002
0000
0000
0000
0000
0000
0000
3003
,
1MM1
11MM
M11M
MM11
,
1MM1
0000
M1M1
0000
M11M
1M1M
1M1M
0000
,
1MM1
M1M1
M11M
1M1M
,
1MM1
0000
11MM
0000
M11M
0000
MM11
1MM1
,
1MM1
11MM
1MM1
M1M1
,
M11M
0000
1M1M
0000
1MM1
M1M1
M1M1
0000
,
M11M
1M1M
1MM1
11MM
,
M1M1
M1M1
0000
M11M
0000
1M1M
1M1M
0000
0000
0000
0000
0000
0000
0000
0000
0000
;

//---------------dance-single - ----------------
#NOTES:
     dance-single:
     :
     Hard:
     10:
     0.963,1.000,0.641,0.110,0.445:
0000
0000
0000
0000
,
0000
0000
0000
0000
,
0000
0000
0000
0000
,
0000
0000
0000
0000
,
1000
0100
0010
0001
0100
0100
0100
0100
,
0010
0000
1000
0000
0000
0000
0001
0000
0010
0000
0100
0000
1000
0100
1000
0000
,
0001
0000
0100
0000
0010
0000
1000
0000
0010
0000
0100
0000
0001
0000
1000
0001
,
1000
0001
1000
0001
1000
0001
1000
0001
1000
0001
1000
0001
1000
0000
0000
0000
,
1001
0001
0100
0101
0001
0100
0010
1000
,
0001
0100
0001
0100
0010
1000
0010
1000
,
1001
0001
0010
0110
0100
1000
0001
1000
,
0100
1000
0100
1000
0100
0010
0100
0010
,
0011
0001
1000
1010
0010
0100
0001
0100
,
0001
1000
0001
1000
0010
0100
0010
0100
,
0101
0100
0010
1010
1000
0001
1000
0001
,
1000
0100
1000
0100
0010
0001
0010
0001
,
1000
0001
1000
0001
1000
0001
1000
0001
1000
0000
1000
0000
1001
0000
0001
0000
,
0100
0010
1000
0010
0100
0001
0010
0100
,
1000
0100
0010
0001
0100
0010
1000
0001
,
1000
0001
1000
0001
0001
0100
0010
1000
,
0010
0000
1000
0000
0010
0000
1000
0000
1000
0000
0010
0000
1010
0000
0000
1000
,
0001
0000
0100
0000
0010
0000
0000
1000
0100
0000
0010
0000
0001
0000
0000
0001
,
0100
0000
0000
0100
0010
0000
1000
0000
0001
0000
0100
0000
0020
0000
0100
0000
,
0230
0001
0302
1000
1003
0100
0011
0000
,
1001
0000
1100
0000
1001
0001
0101
0100
,
0010
1000
0010
0100
0010
1000
0001
1000
,
0001
0100
0001
0010
0001
0100
0001
1000
,
0001
0000
0100
0000
0001
0000
0010
0000
0100
0000
1000
0000
0001
1000
0001
0000
,
1000
0001
1000
0001
1001
0000
0000
0000
0001
0000
0100
0000
0110
0000
0000
0000
,
0010
1010
0000
1001
0000
1000
0100
0010
,
0001
0000
1001
0000
1100
0000
0110
0010
,
0000
0011
0000
1001
0000
1000
0100
1000
,
0010
0000
0100
0000
0001
0000
0100
0000
0001
0001
0000
1000
1000
0100
1000
0000
,
0010
0000
0100
0000
0001
0000
1000
0000
0010
0000
0100
0000
0001
0100
0001
0000
,
1000
0000
0100
0000
0010
0000
0001
0000
1000
0000
0010
0000
0100
0001
0100
0001
,
0100
0000
0010
0000
1000
0010
1000
0010
1000
0000
0001
0000
0100
0010
0100
0010
,
0100
0000
0001
0000
1000
0001
1000
0001
1000
0000
0001
0000
0100
0000
0010
0000
,
0100
0000
0010
0000
1000
0000
0100
0000
0010
0000
0001
0000
1000
0100
1000
0000
,
0010
0000
0100
0000
0001
0100
0001
0100
0001
0000
0100
0000
0010
1000
0010
1000
,
0010
0000
0100
0000
0001
1000
0001
1000
0001
0000
0100
0000
0001
1001
0000
1001
,
0000
1001
1001
0000
1001
0000
0000
0100
0000
0000
0010
0000
1000
0000
0100
0000
,
0010
0001
0010
0000
0100
0000
1000
0100
1000
0000
0010
0000
0100
0001
0100
0000
,
0010
0000
1000
0000
1001
0000
0000
0001
0000
0000
0100
0000
0010
0000
0000
1000
,
0000
0001
1000
0100
0010
0001
0100
0010
,
1000
0000
0001
0000
1000
0000
1001
0000
0001
0000
0100
0000
0010
0000
1000
0100
,
1000
0000
0010
0000
0100
0001
0100
0000
0010
0000
1000
0001
1000
0000
0100
0000
,
0010
0000
0001
0000
0000
0100
0000
0000
0010
0000
1000
0000
0000
0001
0000
0000
,
0010
0100
1000
0000
1000
0000
1000
0010
,
0100
0000
0000
0000
0000
0000
0000
0000
0000
0000
0000
0000
0000
0000
0000
0000
0000
0000
0000
0000
0000
0000
0000
0000
0001
0000
0000
0000
0000
0000
0000
0000
0100
0000
0000
0000
0000
0000
0000
0010
0000
0000
0000
0000
0000
0000
0000
0000
1000
0000
0000
0000
0000
0000
0000
0000
0000
0000
0000
0000
0000
0000
0000
0000
0000
0000
0000
0000
0000
0000
0000
0000
0100
0000
0000
0000
0000
0000
0000
0000
0000
0000
0000
0000
0000
0000
0000
0000
0000
0000
0000
0000
0000
0000
0000
0000
0010
0000
0000
0000
0000
0000
0000
0000
0000
0000
0000
0000
0000
0000
0000
0000
0000
0000
0000
0000
0000
0000
0000
0000
0001
0000
0000
0000
0000
0000
0000
0000
0000
0000
0000
0000
0000
0000
0000
0000
0000
0000
0000
0000
0000
0000
0000
0000
0100
0000
0000
0000
0000
0000
0000
0000
0000
0000
0000
0000
0000
0000
0000
0000
0000
0000
0000
0000
0000
0000
0000
0000
0010
0000
0000
0000
0000
0000
0000
0000
0000
0000
0000
0000
0000
0000
0000
0000
0000
0000
0000
0000
0000
0000
0000
0000
,
1000
0010
0200
0001
0301
0010
0100
0200
,
1000
1000
1300
0010
0100
0001
0100
0010
,
1000
0100
0020
0001
0031
0100
0020
1000
,
2030
0001
3001
0100
0010
1000
0010
0100
,
0001
1000
0002
0100
0103
0010
1000
2000
,
0100
0100
3100
0010
0001
0010
0100
1000
,
0010
0100
0002
1000
1003
0100
0010
0010
,
0000
0001
1001
1000
0010
0100
0001
0100
,
0010
1000
0100
0010
0001
0010
0100
1000
,
0100
1000
0010
0100
0010
0100
0010
0100
,
0100
0010
1000
0001
1000
0001
1000
0001
,
0001
0000
1000
0000
0101
0000
0000
0001
0100
0000
0010
0000
1000
0000
0000
0001
,
0100
0000
0010
0000
1000
0000
0000
1000
0100
0000
0000
0100
0010
0000
0001
0000
,
1000
0010
2000
0100
3200
0010
0320
0001
,
0031
0100
0101
0000
1001
0000
1100
0000
,
0110
0010
0011
0001
0100
0010
1000
0010
,
0100
0001
1000
0100
1000
0010
1000
0001
,
1000
0010
1000
0100
1000
0010
1000
0001
,
0010
0000
0100
0000
1000
0001
1000
0000
0001
1000
0001
1000
1001
0000
0000
0000
,
0001
0100
0110
0000
0010
1010
0000
1001
,
0000
0001
0100
0010
1000
0000
1001
0000
,
1100
0000
0110
0110
0000
0011
0000
0011
,
0000
0001
0100
0010
1000
0001
1000
0001
,
1000
1000
0000
0001
0001
0100
0001
0000
0100
0000
0010
0000
1000
0100
1000
0100
,
1000
0000
0010
0000
0100
0001
0100
0001
0100
0000
0001
0000
1000
0000
0100
0000
,
1000
0000
0010
0000
0100
0000
0100
0000
0001
0000
0010
0000
0001
1000
0001
1000
,
0001
0000
0100
0000
0010
0000
0010
0000
1000
0000
0001
0000
0010
0100
0010
0000
,
0110
0000
0010
0000
0011
0000
0001
0000
0100
0000
0010
0000
1000
0001
1000
0001
,
1000
0000
0010
0000
0100
0001
0100
0001
0100
0000
0010
0000
1000
0000
1000
0000
,
0010
0000
0100
0000
0001
0000
0001
0000
1000
0100
1000
0100
1000
0000
0010
0000
,
1000
0001
1000
0000
1001
1001
0000
1001
0000
1001
1001
0000
1001
0000
0000
1000
,
0000
0000
0010
0000
0100
0000
0001
0000
0100
0010
0100
0000
0001
0000
1000
0100
,
1000
0000
0010
0000
0100
0001
0100
0000
0010
0000
1000
0000
1001
0000
0000
0001
,
0000
0000
0100
0000
0010
0000
0000
1000
0000
0000
0001
0000
1000
0000
1000
0000
,
1000
1000
1000
0100
0010
0000
0001
0000
,
0100
0000
0010
0000
1000
0000
0100
0000
0010
0001
0010
0000
0100
0000
1000
0001
,
1000
0000
0010
0000
0100
0001
0100
0000
0010
0000
1000
0000
0001
0000
0000
0100
,
0000
0000
0010
0000
1000
0000
0000
0001
0000
0000
0010
0000
0100
0000
0010
0000
,
0000
0000
0010
0000
0000
0000
0010
0000
0001
0000
1000
0000
0001
0100
0010
1000
,
0010
0100
0001
0010
0100
1000
0100
0010
0001
0100
0010
1000
0001
0001
0001
0001
,
0001
0100
0010
1000
0010
0100
0001
0010
0001
0000
0100
0000
0010
0000
1000
0000
,
0010
0100
0001
0010
0100
1000
0100
0010
,
0001
0100
0010
1000
0010
0100
0001
0010
,
0001
0000
0100
0000
1000
0000
0100
0000
0001
0001
0000
1000
0001
0100
0010
1000
,
0001
0100
0001
0100
0001
0000
1000
0000
0100
0000
0001
0000
0100
0000
1000
0000
,
0001
1000
0001
1000
0001
0000
0010
0000
0100
0000
1000
0000
0100
0000
0010
0000
,
0001
1000
0001
1000
0001
0000
0100
0000
0010
0000
1000
0000
0010
0000
0100
0000
,
0001
0010
0001
0010
0001
0000
0010
0000
1000
0000
0010
0000
0001
0000
0100
0000
,
0010
1000
0010
0100
0001
0000
1000
0000
0100
0000
0001
0000
0100
0000
1000
0000
,
0001
0010
0100
1000
0001
0000
0100
0000
0010
0000
0001
0000
0010
0000
1000
0000
,
0001
0010
0100
0010
0001
0000
0010
0000
0100
0000
0001
0000
0100
0000
1000
0000
,
0001
0100
0010
1000
0001
0000
0100
0000
0101
0000
0001
0000
1001
0000
1000
0000
,
2002
0000
0000
3003
,
1001
1100
0110
0011
,
1001
0000
0101
0000
1001
1000
1001
0000
,
0101
0110
1010
1001
,
1100
0000
1001
0000
0101
0000
0110
0010
,
1010
1001
1100
0110
,
0011
0000
1001
0000
0101
0001
0101
0000
,
0110
1010
1001
1100
,
1001
1001
0000
1001
0000
1001
1001
0000
0000
0000
0000
0000
0000
0000
0000
0000
;

//---------------dance-single - ----------------
#NOTES:
     dance-single:
     :
     Medium:
     8:
     0.659,0.716,0.448,0.069,0.110:
0000
0000
0000
0000
,
0000
0000
0000
0000
,
0000
0000
0000
0000
,
0000
0000
0000
0000
,
1000
0100
1000
0100
1000
1000
1000
1000
,
0001
0000
0100
0010
,
0100
0001
0100
0001
0100
0001
0100
0002
,
0000
0000
0000
0003
,
1000
0100
1000
0000
0001
0100
0001
0000
,
1000
0010
1000
0000
0001
0010
0001
0000
,
1000
0100
0010
0000
0001
0010
0100
0000
,
1000
0010
0100
0000
0001
0010
0100
0000
,
1000
0100
0010
0000
0001
0010
0100
0000
,
1000
0001
0100
0000
0001
1000
0100
0000
,
0001
0010
0100
0000
1000
0100
0010
0000
,
0001
0100
0010
0000
1000
0010
0100
0000
,
2002
0000
0000
0000
3003
0000
1000
0100
,
0010
0000
0001
0000
0100
0000
0010
1000
,
0001
0000
0010
0000
0100
0000
1000
0100
,
0000
0100
0000
0100
0010
0000
0001
0100
,
0000
0100
0000
0100
0010
0000
1001
0000
,
0100
0000
1010
0000
0100
0000
0001
0010
,
0100
1000
0001
0000
1000
0100
1100
0000
,
1001
0000
0101
0000
0001
0100
0010
0000
,
1000
0000
0001
0000
1000
0100
1100
0000
,
0010
0000
0100
0000
0001
0000
1000
0100
,
1000
0100
1000
0100
1000
0100
0010
0001
,
0010
0001
0010
0001
0010
0100
1000
0001
,
2000
0000
3001
0000
0100
0010
1000
0000
,
0001
1001
0000
1000
0000
0010
0100
0001
,
1000
0000
0101
0000
0101
0000
0001
0100
,
0000
0010
0000
1000
0000
0001
0010
0100
,
1000
0001
1000
1000
0001
0001
1000
0100
,
0010
0000
0001
0000
0100
0000
0010
1000
,
0001
0000
0010
0000
0100
0000
1000
0100
,
0001
0000
0100
0000
1000
0000
0010
0100
,
0001
0000
0010
0000
0100
0000
1000
0010
,
0001
0000
0010
0000
1000
0000
0100
0010
,
0001
0000
0010
0000
0100
0000
1000
0010
,
0001
0000
0000
0000
0010
0000
0000
0000
1000
0000
0000
0000
0001
0001
0000
0001
,
0000
0001
0001
0000
0001
0000
0000
0001
0000
0000
0001
0000
1000
0000
0010
0000
,
0100
0000
0000
0000
0010
0000
0000
0010
0000
0000
0010
0000
0100
0000
0001
0000
,
1000
0000
0000
0000
0001
0000
0000
0001
0000
0000
0001
0000
1000
0000
0000
1000
,
0000
1000
0010
0100
0001
0010
0100
1000
,
0001
0000
1000
1000
1000
0001
0100
0010
,
1000
0000
0010
0000
0000
0010
0000
0000
0010
0000
0100
0000
0001
0000
1000
0000
,
0000
0000
0001
0000
0000
0010
0000
0000
0100
0000
1000
0000
0000
0010
0000
0000
,
0100
0001
0001
0000
0001
0000
0001
1000
,
0001
0000
0000
0000
0000
0000
0000
0000
0000
0000
0000
0000
0000
0000
0000
0000
0000
0000
0000
0000
0000
0000
0000
0000
1000
0000
0000
0000
0000
0000
0000
0000
1000
0000
0000
0000
0000
0000
0000
1000
0000
0000
0000
0000
0000
0000
0000
0000
0001
0000
0000
0000
0000
0000
0000
0000
0000
0000
0000
0000
0000
0000
0000
0000
0000
0000
0000
0000
0000
0000
0000
0000
0100
0000
0000
0000
0000
0000
0000
0000
0000
0000
0000
0000
0000
0000
0000
0000
0000
0000
0000
0000
0000
0000
0000
0000
0010
0000
0000
0000
0000
0000
0000
0000
0000
0000
0000
0000
0000
0000
0000
0000
0000
0000
0000
0000
0000
0000
0000
0000
1000
0000
0000
0000
0000
0000
0000
0000
0000
0000
0000
0000
0000
0000
0000
0000
0000
0000
0000
0000
0000
0000
0000
0000
0001
0000
0000
0000
0000
0000
0000
0000
0000
0000
0000
0000
0000
0000
0000
0000
0000
0000
0000
0000
0000
0000
0000
0000
0000
0000
0000
0000
0000
0000
0000
0000
0000
0000
0000
0000
0000
0000
0000
0000
0000
0000
0000
0000
0000
0000
0000
0000
,
0001
0000
1000
0100
1000
0000
0001
0100
,
0010
0000
1000
0100
0010
0001
1000
0000
,
0010
0000
0100
0001
0100
0000
0010
1000
,
0001
0000
1000
0100
1000
0100
0010
0000
,
0001
0000
0100
0010
1000
0000
0001
0010
,
0100
0000
1000
0100
1000
0010
0100
0000
,
0001
0000
0010
0100
1000
0000
0001
0100
,
0000
1000
1001
0001
0100
0000
0010
0000
,
1000
0000
0001
0010
0100
0000
1000
0000
,
0100
0000
0010
0001
0000
0001
0000
0001
,
0100
0010
1000
0010
0000
0010
0000
0010
,
0100
0001
1001
0000
0100
0000
1010
0000
,
0001
1100
0110
0011
,
1000
0010
0110
0000
0101
0000
1001
0000
,
1000
0100
0020
0000
0032
0000
0203
0000
,
0310
1000
1001
0000
0001
0000
0100
0000
,
0010
0000
1000
0100
1000
0100
1000
0100
,
0010
0001
0010
0001
0010
0001
1000
0010
,
0100
0001
1000
1000
0002
0000
1003
0000
,
1000
0100
1100
0000
0001
0101
0000
1001
,
0000
1000
0100
0010
0001
0000
1010
0000
,
0110
0000
0101
0001
0000
0100
0000
0010
,
0000
1000
0100
0010
0001
1000
0001
0001
,
1000
1000
0001
0100
0010
0000
1000
0000
,
0100
0000
0010
0001
0010
0000
0100
0000
,
1000
0000
0010
0001
0010
0000
1000
0000
,
0100
0000
0001
0010
1000
0000
0010
0000
,
0001
0000
0100
1000
0100
0000
0001
0000
,
0010
0000
1000
0100
0001
0000
0100
0000
,
1000
0000
0010
0001
0010
0000
1000
0000
,
0001
0000
0000
0000
1000
1000
0000
1000
0000
1000
1000
0000
1000
0000
0000
1000
,
0000
0000
1000
0000
0001
0000
0000
0000
0100
0000
0010
0000
0100
0000
0000
0100
,
0000
0000
0100
0000
0010
0000
0000
0000
1000
0000
0100
0000
0010
0000
0000
0010
,
0000
0000
0010
0000
0001
0000
0000
0001
0000
0000
0001
0000
0100
0000
0100
0000
,
0100
0000
0100
0000
0100
0000
0000
0000
0010
0000
0000
0000
0001
0000
0000
0001
,
0000
0000
0001
0000
1000
0000
0000
0000
0010
0000
0100
0000
0010
0000
0000
0010
,
0000
0000
0010
0000
0010
0000
0000
0000
1000
0000
0100
0000
1000
0000
0000
0100
,
0000
0000
0010
0000
0001
0000
0000
0100
0000
0000
0010
0000
1000
0000
0001
0000
,
0000
0001
0000
0001
0100
0010
1000
0100
,
0010
0000
0001
0000
0100
0000
0100
0000
0010
0000
0010
0000
1000
1000
1000
1000
,
1000
0010
0100
0001
1001
0000
0101
0000
,
0001
0000
0000
0100
0000
0000
0010
0000
1000
0000
0100
0000
0000
0000
0010
0000
,
0001
0100
0000
0001
0101
0000
1001
0000
,
1000
0000
0000
0100
0000
0000
1000
0000
0001
0001
0000
0001
1000
0000
1001
0000
,
0001
0100
0010
0000
1000
0000
0100
0000
,
1000
0010
0100
0000
0001
0000
0010
0000
,
0001
0010
1000
0000
0010
0000
0001
0000
,
0100
0010
1000
0000
0001
0000
1000
0000
,
0001
0100
0010
1000
0001
0000
1000
0000
,
0100
0010
0001
0010
0100
0000
1000
0000
,
0010
0100
0001
0100
0010
1000
0001
0000
,
1000
0100
0010
0001
0010
0100
1000
0000
,
2002
0000
0000
3003
,
1001
1001
1100
1100
,
0110
0110
0011
0011
,
1001
1001
0101
0101
,
0110
0110
1010
1010
,
1001
1001
1100
1100
,
0110
0110
0011
0011
,
1001
1001
0101
0101
,
1001
1001
0000
1001
0000
1001
1001
0000
0000
0000
0000
0000
0000
0000
0000
0000
;

//---------------dance-single - ----------------
#NOTES:
     dance-single:
     :
     Easy:
     6:
     0.430,0.679,0.345,0.110,0.010:
0000
0000
0000
0000
,
0000
0000
0000
0000
,
0000
0000
0000
0000
,
0000
0000
0000
0000
,
1000
0100
0010
0010
,
0001
0000
0100
0000
,
0010
1000
0010
0100
,
2002
0000
0000
3003
,
1000
0100
1000
0100
,
0010
0001
0010
0001
,
1000
0010
1000
0010
,
0100
0001
0100
0001
,
1000
0001
1000
0001
,
0100
0010
0100
0010
,
1000
0100
0010
0001
,
0010
0100
1000
0001
,
2002
0000
3003
1000
,
0000
0100
0000
0010
,
0000
0000
0001
0000
0000
0000
0001
0001
,
0000
0001
0000
0001
0001
0000
1000
1000
,
0000
1000
0000
1000
1000
0000
1001
0000
,
1000
1001
0001
0101
,
0100
0110
0010
1000
,
0001
0100
0000
0001
,
0100
0010
1000
1001
,
0001
0100
0010
1000
,
1000
1000
1000
1000
,
1000
0001
0100
0020
,
2030
3001
0000
1000
,
0000
1000
0000
0000
0000
0000
0001
0000
,
0100
0110
0010
1000
,
0000
0001
0000
0001
0000
0000
0100
0000
,
0010
0000
1000
1000
1000
1000
1000
0000
,
0000
0100
0000
0010
,
0000
0001
0000
0100
,
0000
0010
0000
1000
,
0000
0001
0000
0010
,
0000
0100
0000
1000
,
0000
0100
0000
0010
,
0000
0000
0000
0000
0001
0000
0000
0000
0000
0000
0000
0000
1000
0000
0000
1000
,
0000
1000
1000
0000
0010
0000
0100
0000
,
0000
0001
0010
0100
,
0000
1000
0100
0010
,
0001
2000
0001
0001
,
0001
0000
3001
1001
0000
1000
0000
0000
,
0000
0100
0000
0010
0000
0001
0000
0000
,
0000
1000
0000
0010
0000
0100
0000
0001
,
0000
2002
0000
0000
0000
0000
0000
0000
,
3003
2000
3001
0000
0100
0000
0010
0000
,
1000
0010
0100
0001
,
0010
0100
1000
0100
,
0010
0001
0100
0010
,
1000
0010
0100
0001
,
0010
0100
1000
0100
,
0001
0100
1000
0010
,
0100
0001
0010
0100
,
0100
1001
1000
0010
,
0100
0001
0100
0010
,
1000
0000
0010
0010
0000
0010
0000
0010
,
0010
0000
0100
0100
0000
0100
0000
0100
,
0100
0110
0010
0110
,
0100
0101
0001
1001
,
1000
0001
0001
0001
,
0100
0010
0010
0010
,
1000
1001
0001
0010
,
0100
0001
0001
0001
,
0001
0001
0001
0100
,
0010
2000
3002
1003
,
0000
0000
0100
0000
0000
0100
0000
0000
,
0000
0010
0001
0100
,
0100
0000
0010
0000
0000
1000
0000
1000
,
0000
0000
0001
0000
0100
0000
0010
0010
,
0010
0010
0010
0000
0000
0000
0100
0000
,
0000
0001
0000
0010
,
0000
0100
0000
1000
,
0000
0100
0000
0010
,
0000
0001
0000
0100
,
0000
0010
0000
1000
,
0000
0001
0000
0100
,
0000
0000
0000
0000
0001
0000
0000
0001
0000
0000
0001
0000
0001
0000
0000
0000
,
0100
0010
0000
1000
,
0100
1000
0000
0001
,
0100
0000
0010
0000
1000
0000
0001
0001
,
0001
0001
0001
0000
1000
0000
0001
0000
,
1001
1000
0000
0010
,
0100
0001
0000
0010
,
0100
1000
0100
0220
,
0000
0000
0330
0001
,
0100
0000
0010
0000
1000
0000
0001
1000
,
0001
0100
0010
1000
,
0100
0010
0001
0000
,
1000
0000
0001
0100
,
0010
0000
1000
0000
0001
0000
1000
0001
,
1000
0100
0010
0001
,
0100
0100
0010
0010
,
1000
0001
0100
0010
,
1000
1000
0010
0010
,
0100
0001
0010
0100
,
1000
1000
0010
0010
,
0100
0001
0100
0010
,
0100
0100
0001
0001
,
2002
0000
0000
3003
,
1001
1001
1001
1001
,
1100
1100
1100
1100
,
0110
0110
0110
0110
,
0011
0011
0011
0011
,
1001
1001
1001
1001
,
0101
0101
0101
0101
,
0110
0110
0110
0110
,
1001
0000
0000
1001
0000
0000
1001
0000
0000
0000
0000
0000
0000
0000
0000
0000
;

//---------------dance-single - ----------------
#NOTES:
     dance-single:
     :
     Beginner:
     3:
     0.260,0.676,0.283,0.000,0.000: // measure 1
0000
0000
0000
0000
,  // measure 2
0000
0000
0000
0000
,  // measure 3
0000
0000
0000
0000
,  // measure 4
0000
0000
0000
0000
,  // measure 5
1000
1000
1000
1000
,  // measure 6
1000
0000
0000
0000
,  // measure 7
0001
0001
0001
0001
,  // measure 8
0001
0000
0000
0000
,  // measure 9
0100
0000
0100
0000
,  // measure 10
0010
0000
0010
0000
,  // measure 11
1000
0000
1000
0000
,  // measure 12
0001
0000
0001
0000
,  // measure 13
1000
0000
1000
0000
,  // measure 14
0100
0000
0100
0000
,  // measure 15
0010
0000
0010
0000
,  // measure 16
0001
0000
0001
0000
,  // measure 17
1001
0000
0000
0001
,  // measure 18
0000
0000
0000
0100
,  // measure 19
0000
0000
0000
0010
,  // measure 20
0000
0010
0000
0100
,  // measure 21
0000
0100
0000
0001
,  // measure 22
0000
1000
0000
0100
,  // measure 23
0000
0010
0000
0001
,  // measure 24
0001
0001
0000
0100
,  // measure 25
0100
0100
0000
1001
,  // measure 26
0000
0000
0000
0001
,  // measure 27
0001
0001
0001
0001
,  // measure 28
0001
0001
0000
1000
,  // measure 29
0000
1001
0000
0001
,  // measure 30
0000
0001
0000
0000
,  // measure 31
0000
1000
0000
0010
,  // measure 32
0000
0100
0000
0100
,  // measure 33
0000
0001
0000
0001
,  // measure 34
0000
0001
0000
1000
,  // measure 35
0000
1000
0000
0010
,  // measure 36
0000
0010
0000
0100
,  // measure 37
0000
0100
0000
0001
,  // measure 38
0000
0001
0000
0010
,  // measure 39
0000
0010
0000
0100
,  // measure 40
0000
0100
0000
1000
,  // measure 41
1000
1000
0000
0000
,  // measure 42
0000
0010
0000
0000
,  // measure 43
0000
0100
0000
0100
,  // measure 44
0000
0001
0000
0000
,  // measure 45
0000
1000
0000
0000
,  // measure 46
0000
0001
0000
0000
0000
0000
0000
0000
,  // measure 47
0000
0100
0000
0000
0000
0010
0000
0000
,  // measure 48
0000
1001
0000
0000
0000
0000
0000
0000
,  // measure 49
0000
1001
0000
0000
,  // measure 50
0000
0100
0000
0000
,  // measure 51
0000
0010
0000
0000
,  // measure 52
0000
1000
0000
0000
,  // measure 53
0000
0001
0000
0000
,  // measure 54
0000
0010
0000
0000
,  // measure 55
0000
0100
0000
0000
,  // measure 56
0000
1000
0000
0000
,  // measure 57
0000
1001
0000
0000
,  // measure 58
0000
0001
0000
0000
,  // measure 59
0000
0100
0000
0100
,  // measure 60
0000
0010
0000
0010
,  // measure 61
0000
1000
0000
1000
,  // measure 62
0000
0001
0000
0001
,  // measure 63
0000
1000
1000
1000
,  // measure 64
0000
0010
0010
0010
,  // measure 65
0000
0110
0000
0000
,  // measure 66
0000
1000
1000
1000
,  // measure 67
1000
1000
1000
1000
,  // measure 68
0000
0001
0000
1001
,  // measure 69
0000
1000
0000
0001
,  // measure 70
0000
0000
0000
0100
,  // measure 71
0000
0010
0000
1000
,  // measure 72
0000
1000
0000
0001
,  // measure 73
0000
1001
0000
1000
,  // measure 74
0000
0010
0000
0010
,  // measure 75
0000
0100
0000
0100
,  // measure 76
0000
0001
0000
0001
,  // measure 77
0000
0010
0000
0010
,  // measure 78
0000
0100
0000
0100
,  // measure 79
0000
1000
0000
1000
,  // measure 80
0000
0001
0000
1001
,  // measure 81
0000
0000
0000
0010
,  // measure 82
0000
0000
0000
0100
,  // measure 83
0000
0100
0000
0001
,  // measure 84
0001
0001
0000
1000
,  // measure 85
0000
0000
0000
0001
,  // measure 86
0000
0000
0000
0100
,  // measure 87
0000
0010
0000
1001
,  // measure 88
0000
0000
0000
1000
,  // measure 89
1000
1000
0000
0001
,  // measure 90
0001
0000
0001
0000
,  // measure 91
0100
0000
0010
0000
,  // measure 92
0000
0000
1000
0000
,  // measure 93
0100
0000
1000
0000
,  // measure 94
0001
0001
0001
0001
,  // measure 95
0001
0001
0001
0000
,  // measure 96
1000
1000
1000
1000
,  // measure 97
1000
1000
1000
0000
,  // measure 98
0010
0010
0010
0010
,  // measure 99
0010
0010
0010
0000
,  // measure 100
0100
0100
0100
0100
,  // measure 101
0100
0100
0100
0000
,  // measure 102
1001
0000
0000
0000
,  // measure 103
1001
1001
1001
1001
,  // measure 104
1001
1001
1001
1001
,  // measure 105
1001
1001
1001
1001
,  // measure 106
1001
1001
1001
1001
,  // measure 107
1001
1001
1001
1001
,  // measure 108
1001
1001
1001
1001
,  // measure 109
1001
1001
1001
1001
,  // measure 110
1001
0000
0000
0000
;
