#TITLE:Doll Judgment;
#SUBTITLE:~ The Girl Who Played with People's Shapes;
#ARTIST:ZUN;
#TITLETRANSLIT:;
#SUBTITLETRANSLIT:;
#ARTISTTRANSLIT:;
#GENRE:;
#CREDIT:;
#BANNER:dolljudgment-banner.png;
#BACKGROUND:dolljudgment-bg.png;
#LYRICSPATH:;
#CDTITLE:cdtitleGpop.png;
#MUSIC:dolljudgment.ogg;
#OFFSET:-0.940;
#SAMPLESTART:101.240;
#SAMPLELENGTH:24.900;
#SELECTABLE:YES;
#BPMS:0.000=154.000;
#STOPS:256.000=0.380
;
#BGCHANGES:;
#KEYSOUNDS:;

//---------------dance-single - ----------------
#NOTES:
     dance-single:
     :
     Challenge:
     11:
     0.985,1.000,0.850,0.277,0.534:
0000
0000
0000
0000
,
0000
0000
0000
0000
,
0000
0000
0000
0000
,
0000
0000
0000
0000
,
1000
0100
1000
0100
1000
0100
1000
0100
0010
0001
0010
0001
0010
0001
0010
0001
,
1000
0010
1000
0010
1000
0010
1000
0010
0100
0001
0100
0001
0100
0001
0100
0001
,
1000
0001
1000
0001
1000
0001
1000
0001
0100
0010
0100
0010
0100
0010
0100
0010
,
1000
0100
0010
0001
0010
0100
4000
0004
0000
0000
0000
0000
0000
0000
0000
3000
,
0003
0100
0001
0000
1000
0010
1000
0000
0001
0010
0001
0000
1000
0100
1000
0000
,
1001
0000
0001
0000
0010
0100
0010
0000
0001
0100
0001
0000
1000
0100
1000
0000
,
1001
0001
0100
0010
1010
1000
0100
0010
,
0011
0001
1000
0010
1010
1000
0100
1000
,
1000
0100
0010
0000
0001
0010
0100
0000
1000
0010
0100
0000
0001
0100
0010
0000
,
1001
0000
0100
0000
0001
1000
0010
0000
1000
0001
0010
0000
1001
0000
0010
0000
,
1000
0001
1000
0000
0001
1000
0001
0000
0100
0010
0100
0000
0010
0100
0010
0000
,
1001
0000
0010
0000
1000
0100
0001
0000
0001
0100
1000
0000
0001
0010
0001
0000
,
1100
0100
0010
0001
1001
1000
1010
0010
,
0110
0100
0001
1000
1100
0001
1000
0010
,
1010
0001
0010
0001
1100
0001
0010
0001
,
1001
1000
0010
0100
0101
0001
1000
0100
,
1001
1000
0010
0100
0001
0010
1001
1000
,
1010
0010
0100
0001
1001
1000
0010
0100
,
0101
0010
1000
0100
0010
0001
0101
0100
,
0110
0010
1010
1000
1001
0001
1001
1000
,
1100
0100
0010
0001
0101
0100
0110
0010
,
1010
1000
0100
0010
1001
0100
0010
1000
,
0101
0010
1000
0100
0011
1000
0001
0010
,
1100
0001
0100
0010
1100
0001
0100
0010
,
1001
1000
0010
0100
0001
0010
0011
0001
,
1001
1000
0010
0100
0101
0001
1000
0100
,
1100
1000
0010
0100
0001
1000
1001
0001
,
0101
0000
0100
0000
0110
0000
0010
0000
1010
0000
1000
0000
1001
0000
0001
0100
,
00M2
0000
1000
0000
1003
0000
0010
0000
0100
0000
0001
0000
0010
0000
0001
0010
,
M200
1000
1300
0010
M200
0001
0301
0010
,
M002
0100
0103
0010
1M00
1000
0001
0001
,
1M00
0010
0100
0001
M011
0001
10M1
1000
,
120M
0010
0310
0001
1M01
1000
101M
0010
,
M210
0001
0301
M020
0100
0130
200M
0010
,
302M
0100
0130
00M2
1000
1003
020M
0010
,
M320
0000
0001
0000
0031
0000
0100
0000
0110
0000
0000
1010
0000
0000
1001
0000
,
01M2
0000
0100
0000
0103
0000
1000
0000
0010
0000
0100
0000
0001
0000
1000
0100
,
M020
0001
0031
0100
002M
1000
1030
0100
,
M020
0001
0031
0100
001M
1000
0001
1000
,
00M1
0000
0101
0000
1001
0000
1000
0000
1010
0000
0000
0110
0000
0000
0101
0000
,
M101
0001
1000
M011
0100
0010
10M1
0100
,
0M11
1000
0010
11M0
0001
0100
01M1
1000
,
0001
1000
0100
0010
0001
0100
0010
1000
0010
0100
0001
0010
0100
1000
0001
1000
,
2002
0000
0000
0000
3003
0000
1000
0100
1000
0100
0010
0001
0100
0010
1000
0010
,
100M
1000
0100
0010
0001
0001
0100
0010
,
M100
0100
0001
0010
0001
0001
0100
0010
,
100M
1000
0100
0010
0001
0001
1000
0001
,
00M1
0001
0010
0100
0010
0010
0010
1000
,
1M01
0001
0100
0010
1000
1000
1000
0100
,
001M
0000
0010
0000
0001
0000
1000
0010
1000
0100
0010
0001
1000
0000
0001
0000
,
1M01
0001
0100
0010
1000
1000
1000
0001
,
1000
0100
0010
0001
0100
0010
1000
0010
0100
0001
0010
0100
1000
0000
0001
0000
,
1M01
1000
0001
0100
M011
1000
0010
0100
,
10M1
1000
0010
0100
M101
0001
0100
0010
,
1M01
0100
0010
0001
110M
0010
0100
0001
,
11M0
0001
0100
0010
1M01
1000
0010
0100
,
0001
0100
0010
0000
1000
0100
0010
0000
0001
0100
1000
0000
1000
0100
0001
0000
,
0001
0010
1000
0000
1000
0010
0001
0000
0001
0010
0100
0000
1000
0100
0010
0000
,
0001
1000
0010
0000
1000
0001
0100
0000
0001
0010
0100
0000
1000
0100
0010
0000
,
0001
0010
0001
0000
1000
0100
1000
0000
1000
0010
0100
0001
0010
0100
1000
0001
,
1000
MMMM
0001
0010
0200
0000
1000
0000
1300
0000
0010
0000
0100
0000
0001
0000
,
0010
0000
0001
0100
0020
0000
1000
0000
1030
0000
0100
0000
0020
0000
0001
0000
,
0031
0100
0020
1000
1030
0001
0100
0010
,
1000
0000
0002
0000
0000
0000
0000
2003
0000
0000
3001
0000
0002
0000
0100
0000
,
0203
0010
0320
1000
1030
0100
0020
0001
,
0032
1000
2003
0100
3100
0020
0001
0031
,
2000
0100
3200
0010
0310
0002
1000
1003
,
0200
0000
0010
0000
0320
0000
0001
0000
0031
0000
0100
0000
0110
0000
0000
1010
,
0000
1001
0102
0100
0103
0010
1000
0100
,
0010
0000
0001
0010
0200
0000
1000
0000
1300
0000
0010
0000
0200
0000
0001
0000
,
0301
0000
0001
0100
0002
0000
0100
0000
0103
0000
0010
0000
1000
0000
0100
0000
,
0010
0000
0001
0000
1000
0000
1100
0000
1100
0000
0100
0000
0110
0000
0000
0011
,
0000
1001
10M1
0100
0001
11M0
0001
0100
,
M011
0100
10M1
0010
0100
11M0
0001
0100
,
M101
0000
0001
0000
10M1
0000
0100
0000
0010
0000
1000
0010
0100
0001
0010
0100
,
1000
0010
0100
0001
2000
0000
0000
0000
0000
0000
3001
0100
0010
1000
0100
0010
,
0001
0010
0001
0100
0101
0000
0001
0100
0010
0000
1000
0100
0010
0000
0001
0010
,
0100
0000
1000
0010
1010
0000
0100
0001
0010
0000
0100
0000
1100
0000
1000
0010
,
0100
0000
0001
0000
0011
0000
1000
0100
0010
0000
0001
0010
0100
0000
1000
0010
,
0100
0000
0001
0010
0100
0000
1000
0100
1000
0000
0100
0000
0110
0000
0010
0000
,
0011
0000
0001
0000
1001
0000
1000
0010
0100
0000
0001
0000
1001
0000
1000
0000
,
1010
0000
0010
0000
0110
0000
0100
0001
0010
0000
1001
0000
1000
0010
0100
0000
,
0101
0000
0001
0000
1001
0000
1000
0100
0010
0000
0011
0000
0001
0100
0010
0000
,
1001
0000
1000
0000
1100
0000
1000
0100
0010
0000
0001
0000
1001
0000
0000
0101
,
0000
0000
0110
0000
1010
0000
1000
0100
0010
0001
0100
0010
1000
0010
0100
0001
,
1000
0000
0001
0100
0101
0000
0001
1000
0100
0000
0001
0000
1001
0000
1000
0100
,
0010
0000
0001
0000
1001
0000
1000
0010
0100
0001
0010
0100
1000
0100
0010
0001
,
0100
0010
1000
0100
1000
0000
1100
0000
0110
0000
0010
0000
0011
0000
0000
1001
,
0000
0000
1100
0000
110M
0000
1000
0010
0100
0000
M101
0000
0001
0010
0100
0000
,
110M
0000
1000
0000
10M1
0000
0001
0100
0010
0000
M110
0000
0010
1000
0100
0000
,
110M
0000
0100
0000
1000
0010
0100
0001
0010
0100
1000
0100
0010
0001
0100
0010
,
1000
0001
0100
0010
2000
0000
0000
0000
0000
0000
3001
0100
0010
1000
0100
0010
,
0001
0100
0010
1000
0001
0000
MMMM
0000
1001
0000
0000
0000
0000
0000
0000
0000
;

//---------------dance-single - ----------------
#NOTES:
     dance-single:
     :
     Hard:
     9:
     0.641,0.731,0.527,0.277,0.056:
0000
0000
0000
0000
,
0000
0000
0000
0000
,
0000
0000
0000
0000
,
0000
0000
0000
0000
,
1000
0100
1000
0100
0010
0001
0010
0001
,
1000
0010
1000
0010
0100
0001
0100
0001
,
1000
0001
1000
0001
0100
0010
0100
0010
,
1000
0100
0010
0001
0002
0000
0000
0000
,
1003
0100
0010
0001
0100
0010
1000
0010
,
0100
0001
1000
0100
0010
0001
1000
0000
,
0001
0100
0010
1000
0100
0010
0001
0010
,
0100
1000
0010
0100
0001
0010
0001
0000
,
1000
0100
0010
0001
0010
0100
1000
0010
,
0100
0001
0010
0100
1000
0001
1000
0000
,
0001
0100
0010
1000
0100
0010
0001
0100
,
0010
1000
0010
0100
0001
0010
0001
0000
,
2001
0000
0010
0100
,
3002
0000
2000
0003
,
3001
0100
0010
1000
0010
0100
0001
0010
,
0100
1000
0100
0010
0001
0100
0010
1000
,
2002
0000
3000
0203
,
0020
0300
2000
0030
,
0002
0000
3000
0103
,
0101
0110
1010
1001
,
1001
1000
0100
0010
0001
0100
0010
1000
,
0010
0100
0001
0010
0100
1000
0100
0000
,
1001
0001
0100
0010
1000
0010
0100
0001
,
0010
0100
1000
0100
0010
0001
1000
0000
,
1002
0000
0000
0100
,
2003
0000
0100
0000
,
3002
0000
0000
1003
,
1100
0000
0000
0000
0110
0000
0000
0000
0011
0000
0000
0000
1001
0000
1000
0100
,
2000
0000
0000
0000
0100
0000
0000
0000
0010
0000
0000
0000
3001
0000
0001
0100
,
0002
1000
2003
0010
,
3010
0100
0001
0010
0100
1000
0100
0010
,
0001
0100
0010
1000
1001
0000
1100
0000
,
0120
0031
0011
1001
,
2010
0000
3001
0002
0000
0100
0203
0000
,
0320
0000
1000
2030
0000
0001
3001
0000
,
1001
0000
0000
0000
1000
0000
0010
0000
1000
0000
0000
0100
0000
0000
0001
0000
,
1002
0000
0000
0000
0100
0000
0000
0000
0013
0000
1000
0000
0001
0000
1000
0100
,
2000
0010
3002
0100
,
0013
0100
1000
0010
0100
0001
0010
0001
,
0100
0000
0010
0000
0010
0000
0000
0000
1000
0000
0000
0001
0000
0000
1000
0000
,
1001
0000
0100
0110
0000
1000
1001
0000
,
0101
0000
0001
1001
0000
0001
0011
0000
,
0110
0000
1000
1001
0000
1000
0001
0100
,
2002
0000
3003
0000
1000
0100
0010
0001
,
1000
0010
0100
0001
,
0010
0100
1000
0001
,
1001
1000
0010
0100
,
0001
0010
0100
1000
,
0011
0100
0010
1000
,
0001
0100
0010
1000
,
0101
1000
0010
0100
,
0011
1000
0010
0100
,
1001
0001
0100
0010
1000
0100
0010
0001
,
0010
0100
1000
0010
0100
0001
1000
0000
,
0101
0001
1000
0100
0010
0001
0010
0100
,
1000
0010
0100
0001
0100
0001
1000
0000
,
1100
0100
0010
0001
0100
1000
0100
0001
,
0010
0100
1000
0010
0001
0010
1000
0000
,
1001
0001
0100
0010
1000
0100
0001
0100
,
0010
0001
0100
0010
1000
0001
1000
1001
,
0000
0000
0000
0000
0000
0000
1000
0100
2000
0000
0000
0000
0010
0000
0000
0000
,
3001
0000
0100
0000
0010
0000
1000
0010
2000
0000
0000
0000
0010
0000
0000
0000
,
3002
0000
0100
0000
1003
0010
0100
0001
,
0010
0100
1000
0100
0010
0001
0100
0010
,
1010
0110
0102
1003
,
1001
0000
1100
0000
0120
0000
0001
0032
,
0000
0100
0203
0000
0320
0000
1000
2030
,
0000
0001
3001
0000
1001
0000
0001
0100
,
0010
0000
0000
1000
0000
0000
0001
0000
1002
0000
0000
0000
0100
0000
0000
0000
,
0013
0000
0100
0000
1000
0000
0001
0100
0002
0000
0000
0000
1000
0000
0000
0000
,
0203
0000
0010
0000
0301
0100
0010
1000
,
0100
0010
0001
0010
0100
1000
2000
0000
,
3001
0000
0000
0100
0000
0000
0010
0000
1010
0000
0000
0000
0010
0000
0110
0000
,
0000
0100
0101
0000
1001
0000
1000
1100
,
0000
0100
0110
0000
0011
0000
0001
1001
,
1000
0010
0100
0001
2000
0000
0000
3001
,
0100
0000
0010
0000
1000
0000
0001
0010
0001
0000
0100
0000
0010
0000
1000
0000
,
0100
0000
0010
0000
0001
0000
1000
0100
1000
0000
0010
0000
0100
0000
0001
0000
,
0010
0100
1000
0100
0010
0001
0100
0010
,
1000
0010
0100
0001
0100
1000
0100
0001
,
1001
0000
1100
0000
0110
0010
0001
1000
,
1001
0000
0101
0000
0110
0000
1000
1010
,
0000
0010
0110
0000
1001
0000
1000
1100
,
0000
0100
0110
0000
1001
0001
0100
0010
,
1000
0000
0000
0100
0000
0000
0001
0000
1001
0000
0001
0000
0100
0000
0010
0000
,
1000
0000
0100
0000
0010
0000
0001
0100
0001
0000
0100
0000
0010
0000
1000
0000
,
0100
0010
0001
0100
0010
1000
0010
0100
,
0001
0010
0100
1000
0001
1000
1000
0000
,
1100
0000
0000
0110
0000
0000
0011
0000
0011
0000
0001
0000
0100
0000
0110
0000
,
0010
1000
1001
0001
0101
0100
0010
1010
,
1000
0100
0110
0010
0011
0001
1000
1010
,
0010
0000
0100
0000
0001
0100
0001
0100
0002
0000
0000
0000
0000
0000
1003
0000
,
0100
0010
0001
1000
1001
0000
0000
0000
;

//---------------dance-single - ----------------
#NOTES:
     dance-single:
     :
     Medium:
     7:
     0.465,0.509,0.323,0.481,0.020:
0000
0000
0000
0000
,
0000
0000
0000
0000
,
0000
0000
0000
0000
,
0000
0000
0000
0000
,
2000
0000
3002
0000
,
0203
0000
0320
0000
,
2030
0000
3200
0000
,
0320
0000
0000
0000
0031
1000
0001
1000
,
0001
0100
0010
1000
,
0100
0010
0001
0100
,
0001
0100
0001
0100
0001
0100
0001
0100
,
0010
1000
0010
1000
0010
1000
0010
0000
,
1000
0100
0010
0001
,
0100
0010
1000
0100
,
0010
0001
0100
0010
,
1000
0001
0100
0010
,
2000
0000
3100
0010
,
0002
0000
0203
0000
,
0320
0000
2030
0000
,
3002
0000
0023
0000
,
0230
0000
0000
1000
,
2300
0000
3020
0000
,
0230
0000
0000
0301
,
0001
0101
0110
1010
,
2001
0000
3100
0010
,
0002
0000
0203
0000
,
0320
0000
2030
0000
,
3020
0000
0230
0000
,
0302
0000
0000
1000
,
2003
0000
3200
0000
,
0320
0000
0000
0001
,
0031
0011
0110
1100
,
2000
0000
3001
0100
,
0020
0000
2030
0000
,
3002
0000
0103
0010
,
1000
0100
0010
0000
0011
0000
0110
0000
,
2100
0000
3001
0101
,
1002
0000
0000
0203
0000
0000
0310
0000
,
2000
0000
0000
3200
0000
0000
0310
0000
,
0002
0000
0000
0000
0000
0000
0000
0000
1003
0000
0000
1000
0000
0000
1000
0000
,
0002
0000
0000
0000
0103
0010
1000
0001
,
2000
0000
3200
0000
,
0320
0000
0031
0100
,
0001
0000
0001
0000
0001
0000
0000
0000
1000
0000
0000
1000
0000
0000
1000
0000
,
1001
0000
0000
0101
0000
0000
0110
0000
,
1010
0000
0000
1001
0000
0000
1100
0000
,
0110
0000
0000
0011
0000
0000
0001
0100
,
0002
0000
0000
1000
1003
0100
0010
0001
,
1000
0000
0100
0000
,
0010
0000
0001
0000
,
0100
0000
0010
0000
,
1000
0000
0001
0000
,
1001
0000
0100
0000
,
0010
0000
1000
0000
,
0101
0000
0001
0000
,
1100
0000
0001
0000
,
1000
0100
1000
0100
1000
0100
1000
0100
,
0010
0001
0010
0001
0010
0001
0010
0001
,
1000
0010
1000
0010
1000
0010
1000
0010
,
0100
0001
0100
0001
0100
0001
0100
0001
,
1000
0001
1000
0001
1000
0001
1000
0001
,
0100
0010
0100
0010
0100
0010
0100
0010
,
1000
0100
0010
0001
0010
0100
1000
0100
,
1000
0010
0100
0001
0010
0100
1000
0001
,
1001
0000
2000
0000
,
3010
0100
0001
0010
0002
0000
0000
0000
,
0203
0000
0320
0000
,
1030
0100
0010
0000
0100
0010
1000
0000
,
0011
0110
2100
0010
,
3001
0000
0101
0000
0120
0000
0000
2030
,
0000
0000
3001
0000
0020
0000
0000
0230
,
0000
0000
1300
0000
1001
0000
0001
0100
,
0010
0000
0000
0010
0000
0000
0010
0000
2000
0000
0000
0000
0010
0000
0000
0000
,
3001
0100
0010
1000
0002
0000
0100
0000
,
2003
0010
3200
0010
,
0301
0100
0010
1000
0100
0010
0010
0000
,
0001
0000
0000
0001
0000
0000
0001
0000
1001
0000
0000
0000
0000
0000
1010
0000
,
0000
0000
0110
0000
0101
0000
0000
1001
,
0000
0000
1100
0000
0110
0000
0000
0011
,
0000
0000
1000
0100
2000
0000
0000
3001
,
0100
0010
1000
0001
2000
0000
0010
0000
,
3001
0100
0001
0000
0200
0000
0010
0000
,
0320
1000
2030
0000
,
3001
0000
0100
0000
0010
1000
0100
0010
,
0001
0110
2001
0000
,
0100
0000
0010
0000
3002
0000
0000
0203
,
0000
0000
0310
0000
2000
0000
0000
3002
,
0000
0103
0020
0100
,
1030
0000
0000
0100
0000
0000
0010
0000
0002
0000
0000
0000
1000
0000
0000
0000
,
1003
0000
0010
0100
0002
0000
0100
0000
,
2003
0010
3200
0010
,
0301
0010
0100
0000
1000
0010
0010
0000
,
1000
0000
0000
0001
0000
0000
1000
0000
1001
0000
0000
0000
0001
0000
0101
0000
,
0000
0100
0110
0000
1010
0000
1000
1001
,
0000
0001
0011
0000
0110
0000
0100
1100
,
0000
1000
0010
0100
0002
0000
0000
1000
,
1003
0001
1000
0001
1001
0000
0000
0000
;

//---------------dance-single - ----------------
#NOTES:
     dance-single:
     :
     Easy:
     3:
     0.293,0.445,0.211,0.198,0.000:
0000
0000
0000
0000
,
0000
0000
0000
0000
,
0000
0000
0000
0000
,
0000
0000
0000
0000
,
1000
0000
0000
0000
,
0001
0000
0000
0000
,
0100
0000
0000
0000
,
0010
0000
0000
0000
,
1000
0000
0100
0000
,
0010
0000
0001
0000
,
1000
1000
0100
0100
,
0010
0010
0001
0001
,
1000
0000
0010
0000
,
0100
0000
0001
0000
,
1000
0100
0010
0001
,
0010
0100
1000
0010
,
1000
0000
0010
0100
,
0001
0000
0100
0000
,
0010
0000
1000
0000
,
0001
0000
0100
0000
,
0020
0000
0000
0000
,
1030
0000
0001
0000
,
0200
0000
0000
0000
,
0301
0010
0100
1000
,
0001
0000
0100
0010
,
1000
0000
0100
0000
,
0010
0000
0001
0000
,
0100
0000
0010
0000
,
2000
0000
0000
0000
,
3001
0000
0100
0000
,
0020
0000
0000
0000
,
1030
0100
0010
0001
,
2000
0000
3001
0100
,
0020
0000
2030
0000
,
3200
0000
0310
0001
,
0100
0010
1000
1000
,
2000
0000
3001
0001
,
0002
0000
0103
0000
,
0010
0000
1000
0000
,
0001
0000
1000
0001
,
1001
0000
0100
0010
,
1010
0000
0110
0000
,
0101
0000
1000
0100
,
0010
0001
0001
0000
,
1000
0000
0000
0010
0000
0000
0100
0000
,
0001
0000
0000
1000
0000
0000
0100
0000
,
0010
0000
0000
0001
0000
0000
1000
0000
,
1001
0000
0001
1000
,
1001
0000
0000
0000
,
0100
0000
0000
0000
,
0001
0000
0000
0000
,
0010
0000
0000
0000
,
0100
0000
0000
0000
,
1000
0000
0000
0000
,
0001
0000
0000
0000
,
1000
0000
0000
0000
,
1001
0001
0100
0010
,
1000
0010
0100
0001
,
1001
1000
0010
0100
,
0001
0010
0100
1000
,
1100
0010
0100
0001
,
0010
0001
0100
0001
,
0101
0100
0010
1000
,
1001
0001
0100
0010
,
1001
0000
2000
0000
,
3100
0010
0002
0000
,
0203
0000
0320
0000
,
1030
0100
0010
0001
,
0100
0100
0200
0000
,
0310
0010
0020
0000
,
1030
0000
0001
0000
,
0100
0000
0010
0000
,
0001
0001
0002
0000
,
0103
0010
2000
0000
,
3200
0000
0320
0000
,
0031
0100
0010
1000
,
0001
0000
0000
0000
0001
0000
0000
0100
,
0000
0000
0010
0000
1000
0000
0000
0100
,
0000
0000
0010
0000
0001
0000
0000
1000
,
0000
0001
1001
0000
,
0001
1000
1001
0000
,
0001
0100
0101
0100
,
0110
0010
1010
1000
,
0100
0010
0001
1000
,
1001
0101
0110
0010
,
1010
0000
1001
0000
0101
0000
0000
1000
,
0000
0000
0100
0000
0010
0000
0000
0001
,
0000
1000
1001
0001
,
0100
0010
1001
0000
,
1000
0100
0011
0001
,
1001
1000
1010
0010
,
0100
0001
1000
0001
,
1001
0000
0000
0000
2001
0000
0000
3020
,
0000
0000
0230
0000
0302
0000
0000
0023
,
0000
0000
0230
0000
2300
0000
0000
3002
,
0000
1003
2002
3003
,
1000
0001
1001
0000
;

//---------------dance-single - ----------------
#NOTES:
     dance-single:
     :
     Beginner:
     1:
     0.159,0.254,0.112,0.000,0.000:
0000
0000
0000
0000
,
0000
0000
0000
0000
,
0000
0000
0000
0000
,
0000
0000
0000
0000
,
1000
0000
0000
0000
,
0000
0000
0000
0000
,
0001
0000
0000
0000
,
0000
0000
1000
0000
,
1000
0000
0000
0000
,
0001
0000
0000
0000
,
0100
0000
0100
0000
,
0010
0000
0010
0000
,
1000
0000
0000
0000
,
0001
0000
0000
0000
,
0010
0000
0010
0000
,
0100
0000
0100
0000
,
1000
0000
0000
0000
,
0001
0000
0000
0000
,
0100
0000
0000
0000
,
0010
0000
0000
0000
,
1000
0000
0000
0000
,
0001
0000
0000
0000
,
0100
0000
0000
0000
,
0010
0010
0010
0010
,
0010
0000
0000
0000
,
1000
0000
0000
0000
,
0001
0000
0000
0000
,
0010
0000
0000
0000
,
0100
0000
0000
0000
,
1000
0000
0000
0000
,
0001
0000
0000
0000
,
1000
1000
1000
1000
,
1000
0000
0000
0000
,
0001
0000
0001
0000
,
1000
0000
0000
0000
,
0100
0000
0010
0010
,
0010
0000
0001
0001
,
0001
0000
1000
0000
,
0010
0000
0100
0000
,
0001
0000
1000
0000
,
1001
0000
0000
0000
,
0100
0000
0010
0000
,
1000
0000
0000
0000
,
0001
0000
1000
0000
,
1001
0000
0001
0000
,
0100
0000
0100
0000
,
0010
0000
0010
0000
,
1000
0000
1000
1000
,
1000
0000
0000
0000
,
0000
0000
0000
0000
,
0001
0000
0000
0000
,
0000
0000
0000
0000
,
0100
0000
0000
0000
,
0000
0000
0000
0000
,
0010
0000
0000
0000
,
1000
0000
0000
0000
,
1001
0000
0001
0000
,
0100
0000
0100
0000
,
0010
0000
0010
0000
,
1000
0000
1000
0000
,
0001
0000
0010
0000
,
0100
0000
1000
0000
,
0001
0000
1000
0000
,
0001
0000
1000
0000
,
1001
0000
1000
0000
,
0000
0000
0001
0000
,
0100
0000
0010
0000
,
0000
0000
1000
0000
,
0001
0001
0001
0000
,
0100
0100
0100
0000
,
0010
0000
1000
0000
,
0001
0000
1001
0000
,
1000
1000
1000
0000
,
0000
0000
0001
0000
,
0001
0000
0001
0000
,
0000
0000
0100
0000
,
0001
0000
1001
0000
,
0000
0000
0110
0000
,
0000
0000
1001
0000
,
0000
0000
1001
0000
,
1000
1000
1000
0000
,
0000
0000
0001
0000
,
0001
0000
0001
0000
,
0000
0000
1000
0000
,
0100
0100
0100
0000
,
0010
0010
0010
0000
,
0001
0000
0100
0000
,
0010
0000
1001
0000
,
1000
1000
1000
0000
,
0000
0000
0001
0000
,
0100
0000
0010
0000
,
0000
0000
1000
0000
,
0001
0000
1001
0000
,
1001
0000
0110
0000
,
0110
0000
1001
0000
,
1001
0000
1001
0000
,
1000
1000
1000
0000
;
