#TITLE:Critical Judgement;
#SUBTITLE:;
#ARTIST:Something Unreal + Sota Systems;
#TITLETRANSLIT:;
#SUBTITLETRANSLIT:;
#ARTISTTRANSLIT:;
#CREDIT:;
#BANNER:banner.png;
#BACKGROUND:back.png;
#LYRICSPATH:;
#CDTITLE:cdtitlegpop.png;
#MUSIC:Critical_Judgement.ogg;
#OFFSET:-1.476;
#SAMPLESTART:97.474;
#SAMPLELENGTH:12.000;
#SELECTABLE:YES;
#BPMS:0.000=165.000,192.000=82.500,228.000=165.000;
#STOPS:;
#BGCHANGES:;

//---------------dance-single - ----------------
#NOTES:
     dance-single:
     :
     Medium:
     6:
     0.399,0.503,0.173,0.094,0.000:
0000
0000
0000
0000
,
0000
0000
0000
0000
,
0000
0000
0000
0000
,
0000
0000
0000
0000
,
1000
0000
0000
1000
0000
0000
1000
0000
,
0010
0000
0000
0010
0000
0000
0010
0000
,
2002
0000
0000
0000
,
3003
0000
0000
0000
0000
0000
0001
0100
,
0001
0000
0000
0001
0000
0000
0001
0000
,
0100
0000
0000
0100
0000
0000
0100
0000
,
0220
0000
0000
0000
,
0330
0000
0000
0000
0000
0000
1000
0100
,
1000
0000
0010
0100
0001
0000
0001
0001
,
0000
1000
0000
0000
0000
0000
0001
0100
,
0001
0010
0100
1000
,
2200
0000
0000
0000
3300
0000
1000
0100
,
1000
0000
0000
1000
0000
0000
1000
0000
,
0010
0000
0100
0000
,
2002
0000
0000
0000
,
3003
0000
0000
0000
,
1000
0000
0000
0010
0000
0000
0100
0000
,
0001
0000
0000
0010
0000
0000
0100
0000
,
1100
1000
0100
0010
,
0001
0000
0100
0000
0010
0000
1000
0100
,
1000
0000
0000
0010
0000
0000
0100
0000
,
0001
0000
0000
0010
0000
0000
0100
0000
,
1001
1000
0010
0100
,
0001
0000
1000
0000
0100
0000
0010
0001
,
0100
0000
0010
1000
0010
0000
0100
0100
,
0000
0001
0000
0000
1000
0000
0100
0010
,
0001
0000
0100
0010
1000
0000
0001
0000
,
1001
0000
1000
0000
0001
0000
0100
0010
,
0100
0000
0000
0001
0000
0000
1000
0000
,
0110
0010
0011
0001
,
1001
1000
0010
0100
,
0001
0000
0001
0001
0000
0001
0000
0001
,
0001
0100
0010
0000
1000
0000
0100
0000
,
0010
0001
0100
0000
0010
1000
0100
0000
,
0010
0000
0001
0000
0100
0010
0100
0000
,
0001
0010
0100
0000
1000
0000
0100
0000
,
0010
0001
0010
0000
0100
1000
0100
0000
,
0010
0000
0001
0000
0100
0010
1000
0000
,
0010
0100
0001
0000
0010
0000
0100
0000
,
1000
0100
0010
0000
0001
0100
0010
0000
,
1000
0000
0010
0000
0001
0010
1000
0000
,
1000
0010
0001
0000
0100
0000
0010
0000
,
1000
0100
0001
0000
0001
0100
1000
0000
,
0010
0000
0100
0000
0001
1000
0001
0000
,
2002
0000
0000
3003
,
2000
0000
0000
0000
3010
0000
0100
0001
,
1000
0000
0100
0000
0010
0000
0001
1000
,
1000
0000
0010
0100
0001
0010
0100
0000
,
1000
0000
1000
0000
0010
0000
0100
0001
,
1000
1000
0010
0100
0100
0001
0010
0001
,
0100
0010
1000
0010
0100
0001
0100
0010
,
1000
0100
0010
0001
0010
0100
1000
0001
,
1000
0000
0001
0000
1000
0100
0010
0001
,
1001
1000
0100
0000
0010
0000
0001
0000
,
0010
1000
0010
0000
0100
0010
0100
0010
,
0100
0000
0001
1000
0001
1000
0001
0000
,
1000
0100
0010
0000
0001
0000
0100
0000
,
0010
1000
0100
0000
0011
0000
1000
0000
,
0010
0000
0100
0000
0001
0010
0100
0000
,
1100
1000
0100
0000
0010
0000
0001
0000
,
0100
0010
1000
0000
0001
0100
0001
0100
,
0001
0000
1000
0100
1000
0000
0001
0000
,
1001
1000
0001
0000
0100
0000
0010
0000
,
1000
0010
0100
0000
0001
0010
0100
0000
,
1000
0000
1000
1000
0000
1000
0000
1000
,
1000
0100
0010
0000
0001
0000
0100
0000
,
0010
1000
0010
0000
1000
0100
0010
0001
,
1000
0000
0001
0010
0100
1000
0001
0000
,
1001
1000
0001
0000
0100
0000
0010
0000
,
1000
0100
0010
0000
0011
0000
0100
0000
,
1000
0010
0100
0001
,
1001
0001
0100
0000
0010
0000
1000
0000
,
0010
0100
0001
0000
1000
0100
0010
0100
,
1000
0000
0001
0010
0100
0000
1000
0000
,
1001
0001
0101
0100
,
0110
0010
1010
1001
,
0001
0000
1000
1000
0000
0001
0000
1000
,
2002
0000
0000
0000
,
3003
0000
0000
0000
;

//---------------dance-single - ----------------
#NOTES:
     dance-single:
     :
     Challenge:
     11:
     0.869,1.000,0.354,0.267,0.909: // measure 1
0000
0000
0000
0000
,  // measure 2
0000
0000
0000
0000
,  // measure 3
0000
0000
0000
0000
,  // measure 4
0000
0000
0000
0000
,  // measure 5
2000
0000
0000
3200
0000
0000
0320
0000
,  // measure 6
0032
0000
0000
0203
0000
0000
0310
0000
,  // measure 7
2002
0000
0000
0000
,  // measure 8
3003
0000
0000
0000
0000
0000
1000
0100
,  // measure 9
0020
0000
0000
0032
0000
0000
0203
0000
,  // measure 10
0320
0000
0000
2030
0000
0000
3002
0000
,  // measure 11
0200
0000
0000
0000
,  // measure 12
0303
0000
0000
0000
0000
0000
0001
0010
,  // measure 13
0200
0000
0000
0000
1300
0000
1000
0000
0001
0000
1000
0100
0010
0100
2000
0000
,  // measure 14
0000
0000
0002
0000
0000
0000
0000
0000
3003
0000
0000
1000
0100
0000
0010
0000
,  // measure 15
0002
0000
0000
0000
0203
0000
0000
0000
0310
0000
1000
0100
0001
0100
1000
0000
,  // measure 16
2002
0000
0000
0000
0000
3003
1000
0010
,  // measure 17
0200
0000
0000
0302
0000
0000
0023
0000
,  // measure 18
0230
0000
2300
3000
,  // measure 19
2002
0000
0000
0000
,  // measure 20
0000
0000
0000
3003
,  // measure 21
1000
0100
1000
0100
1000
0100
1000
0100
,  // measure 22
0010
0001
0010
0001
0010
0001
0010
0001
,  // measure 23
1000
0010
1000
0010
1000
0010
1000
0010
,  // measure 24
0100
0000
0001
0000
0100
0000
0001
0000
0100
0000
0001
0000
1000
0100
1000
0100
,  // measure 25
1000
0001
1000
0001
1000
0001
1000
0001
,  // measure 26
0100
0010
0100
0010
0100
0010
0100
0010
,  // measure 27
1000
0100
0010
0001
0010
0100
1000
0100
,  // measure 28
0010
0000
0001
0000
0010
0000
0100
0000
1000
0000
0100
0000
1000
0001
1000
0001
,  // measure 29
1000
0100
0010
0010
0001
0100
0001
0001
,  // measure 30
1000
0010
0100
0100
0001
0100
0010
0010
,  // measure 31
1000
0100
1000
1000
0010
0100
0001
0001
,  // measure 32
0100
0000
0010
0000
1000
0000
1000
0000
0010
0000
0100
0000
0001
0100
0001
0100
,  // measure 33
0001
0100
0010
0010
0100
0001
1000
1000
,  // measure 34
0100
0010
0100
0100
1000
0010
0100
0100
,  // measure 35
0001
0100
0001
0100
0001
0100
0001
0100
0010
1000
0010
1000
0010
1000
0010
1000
,  // measure 36
0M02
0003
0101
1MM1
0000
11MM
0000
0110
,  // measure 37
1MM1
1000
0010
0100
0001
0100
0010
1000
,  // measure 38
0100
0010
0001
0010
0100
1000
0010
0100
,  // measure 39
0001
0000
0100
0000
0010
0000
1000
0000
0100
0000
0010
0000
0001
0010
0100
1000
,  // measure 40
0001
0010
0100
1000
0010
0100
0001
0100
,  // measure 41
1000
0100
0001
0010
0100
0001
0100
0010
,  // measure 42
1000
0000
0010
0000
0100
0000
1000
0000
0001
0000
0100
0000
0001
0010
0100
1000
,  // measure 43
0001
1000
0100
0001
0100
0010
0001
1000
,  // measure 44
0010
0100
0001
0100
1000
0100
0001
0010
,  // measure 45
1000
0000
0010
0000
0100
0000
0001
0000
0100
0000
1000
0000
0001
0100
0010
1000
,  // measure 46
0001
0100
0010
1000
0010
0100
0001
0100
,  // measure 47
1000
0100
0001
0010
1000
0010
0001
0100
,  // measure 48
0010
1000
0100
0001
0100
1000
0001
1000
,  // measure 49
2002
0000
0000
0000
0000
0000
0000
0000
0000
0000
0000
0000
3003
0000
1000
0010
,  // measure 50
1010
0010
0100
0001
0100
0010
1000
0001
1001
1000
0010
0100
0101
0001
1001
1000
,  // measure 51
1100
0000
0100
0000
0010
0000
0001
0000
1001
0000
1000
0000
0010
0000
0100
0000
0101
0000
0001
0000
0010
0000
0100
0000
1000
0000
0001
0000
1000
0100
1000
0100
,  // measure 52
1000
0000
0010
0000
0100
0000
0001
0000
1000
0000
0001
0010
0100
0010
0001
0000
1000
0000
0010
0000
0110
0000
0100
0000
0101
0000
0001
0000
1000
0000
0100
0000
,  // measure 53
0110
0000
0010
0000
0001
0000
0100
0000
0010
0000
1000
0000
0010
0000
0100
0000
0101
0000
0001
0000
1000
0000
1100
0000
0100
0000
0010
0000
0001
1000
0001
1000
,  // measure 54
0001
0000
0000
0000
0101
0000
0000
0000
0110
0000
0010
0100
0001
0100
0010
0000
0000
0000
1010
0000
1010
0000
0000
0000
1001
0000
0000
0101
0000
0000
0110
0000
,  // measure 55
0110
0000
0000
0000
1010
0000
0000
0000
1001
0000
0000
0000
1100
0000
1100
0000
0000
0000
1000
0000
0100
0000
0001
0000
0100
0000
1000
0000
0001
0100
0001
0100
,  // measure 56
0001
0000
1001
0000
1000
0000
1100
0100
0000
0100
0110
0010
0001
0100
0010
2002
,  // measure 57
0000
0000
0000
0000
0000
0000
0000
0000
0000
0000
0000
0000
3003
0000
0000
0000
1000
0100
0010
0001
1000
0100
0010
0001
1000
0010
0100
0001
1000
0010
0100
0001
,  // measure 58
1000
0100
1000
0100
1000
0100
1000
0100
0010
0001
0010
0001
0010
0001
0010
0001
,  // measure 59
1000
0010
1000
0010
1000
0010
1000
0010
0100
0000
0001
0000
0010
0000
0100
0000
,  // measure 60
1100
0000
0100
0010
0001
0100
0101
0000
,  // measure 61
1000
0100
1000
0100
1000
0100
1000
0100
0010
0001
0010
0001
0010
0001
0010
0001
,  // measure 62
1000
0010
1000
0010
1000
0010
1000
0010
0100
0001
0100
0001
0100
0001
0100
0001
,  // measure 63
0100
0010
0100
0010
0100
0010
0100
0010
1000
0001
1000
0001
1000
0001
1000
0001
,  // measure 64
1000
0100
0010
0001
0010
0100
1000
0100
0010
0001
0010
0100
1000
0100
0010
0001
,  // measure 65
1000
0010
0100
0001
0100
0010
1000
0010
0100
0000
0001
0000
1000
0000
0100
0000
,  // measure 66
1100
0000
0000
0000
0001
0000
0100
0000
0001
0100
0001
0100
0010
1000
0010
1000
,  // measure 67
0001
1000
0001
1000
0001
1000
0001
1000
0010
0100
0010
0100
0010
0100
0010
0100
,  // measure 68
0001
0100
0001
0100
0001
0100
0001
0100
0010
1000
0010
1000
0010
1000
0010
1000
,  // measure 69
0M02
0003
0101
M11M
0000
1M1M
0000
11MM
,  // measure 70
1000
0100
0010
0001
1000
0100
0010
0001
1000
0100
0010
0001
1000
0100
0010
0001
,  // measure 71
1000
0010
0100
0001
1000
0010
0100
0001
1000
0010
0100
0001
1000
0010
0100
0001
,  // measure 72
1000
0001
0100
0001
0010
0001
0100
0001
1000
0001
0100
0001
0010
0001
0100
0001
,  // measure 73
1000
0100
1000
0100
0010
0001
0010
0001
1000
0100
1000
0100
0010
0001
0010
0001
,  // measure 74
1000
0010
1000
0010
0100
0001
0100
0001
1000
0010
1000
0010
0100
0001
0100
0001
,  // measure 75
0100
0010
0100
0010
1000
0001
1000
0001
0100
0010
0100
0010
1000
0001
1000
0001
,  // measure 76
1000
0100
0010
0001
1000
0100
0010
0001
1000
0010
0100
0001
1000
0010
0100
0001
,  // measure 77
1000
0100
0010
0001
0010
0100
1000
0100
0010
0001
0010
0100
1000
0100
0010
0001
,  // measure 78
1000
0010
0100
0001
1000
0100
0010
0001
0100
0010
1000
0100
1000
0100
0010
0001
,  // measure 79
10M0
0100
1000
0100
1000
0100
1000
0100
M010
0001
0010
0001
0010
0001
0010
0001
,  // measure 80
1M00
0010
1000
0010
1000
0010
1000
0010
M100
0001
0100
0001
10M0
0001
1000
0001
,  // measure 81
2M00
0000
3000
0000
1100
0000
M11M
0000
0000
0000
MM11
0000
0000
0000
1001
0MM0
,  // measure 82
2002
0000
0000
0000
,  // measure 83
0000
0000
0000
0000
,  // measure 84
3003
0000
0000
0000
;

//---------------dance-single - ----------------
#NOTES:
     dance-single:
     :
     Hard:
     8:
     0.533,0.710,0.267,0.166,0.108:
0000
0000
0000
0000
,
0000
0000
0000
0000
,
0000
0000
0000
0000
,
0000
0000
0000
0000
,
2000
0000
0000
0100
0000
0000
0010
0000
,
3002
0000
0000
0100
0000
0000
0013
0000
,
2002
0000
0000
0000
,
3003
0000
0000
0000
0000
0000
1000
0100
,
0020
0000
0000
1000
0000
0000
0001
0000
,
0230
0000
0000
0001
0000
0000
1300
0000
,
2002
0000
0000
0000
,
3003
0000
0000
0000
0000
0000
1000
0100
,
1000
0000
0000
0000
0010
0000
0000
0000
0100
0000
0000
0010
0000
0000
1000
0000
,
0000
0000
0001
0000
0000
0000
0000
0000
0000
0000
0000
1000
0100
0000
0010
0000
,
0001
0000
0000
0000
0100
0000
0000
0000
0010
0000
0000
0100
0000
0000
0001
0000
,
1000
0000
0000
0000
0000
0000
1000
0010
,
0200
0000
0000
1000
0000
0000
0010
0000
,
0302
0000
2000
3003
,
2002
0000
0000
0000
,
3003
0000
0000
0000
,
1000
0000
0100
0010
0000
0001
1000
0000
,
0001
0000
0100
0010
0000
1000
0100
0000
,
1000
0001
1000
0001
1000
0100
1000
0100
,
0010
0001
0010
0001
1000
0001
1000
0100
,
0010
0000
0001
0010
0000
0100
1000
0000
,
0001
0000
1000
0010
0000
0100
0001
0000
,
1000
0100
1000
0100
0010
0001
0010
0001
,
1000
0010
1000
0010
1000
0010
1000
0100
,
0010
0000
0000
0000
0001
0000
0100
0000
0010
0000
0000
1000
0000
0000
0001
0000
,
0001
0000
1000
0000
0000
0000
0000
0000
0000
0000
0000
0001
0010
0000
0100
0000
,
1000
0000
0000
0000
0010
0000
0000
0000
0100
0000
0000
0001
0000
0000
1000
0000
,
2002
0000
0000
0000
3003
0000
1000
0001
,
0100
0000
0010
1000
0000
0001
0100
0000
,
1100
0100
0011
0001
,
2002
0000
0000
3003
,
1100
0000
0100
0110
0000
0011
0000
0001
,
1001
1000
0001
1000
0010
0100
0010
0100
,
0001
0010
0100
1000
0001
0010
0100
1000
,
0001
0010
0001
0010
0100
1000
0100
1000
,
0001
0100
0010
1000
0001
0100
0010
1000
,
0001
0100
1000
0100
0001
0100
1000
0100
,
0001
0010
0100
1000
0010
0100
0001
0100
,
0001
0010
1000
0010
0001
0010
1000
0010
,
0001
0100
0010
1000
0100
0010
0001
1000
,
0001
0001
0100
0010
1000
1000
0100
0010
,
0001
0100
0010
1000
0010
0100
0001
0010
,
0100
0100
1000
1000
0010
0010
0100
0100
,
0001
0010
0001
0100
0010
1000
0001
1000
,
2002
0000
0000
0000
0000
0000
0000
0000
0000
0000
0000
0000
3003
0000
1000
0100
,
2000
0000
0000
0000
3001
0000
0100
0010
,
1000
0000
0000
0000
0001
0000
0000
0000
0010
0000
0000
0000
1000
0000
0001
0010
,
0100
0000
0000
0000
0000
0000
0000
0000
1000
0000
0000
1000
0000
0000
1000
0000
0001
0000
0000
0000
0100
0000
0000
0000
0010
0000
0000
0000
0000
0000
0000
0000
,
0110
0000
0000
0000
0010
0000
0000
0000
1001
0000
0000
1001
0000
0000
1000
0000
,
0001
0000
0000
0000
0100
0000
0000
0000
0010
0000
0000
0010
0000
0000
0010
0000
0000
0000
1000
0000
1000
0000
0000
0000
0001
0000
0000
0001
0000
0000
0001
0000
,
1000
0000
0010
0000
0100
0000
0001
0001
0000
1000
0100
1000
0100
1000
0100
1000
,
0001
0000
0100
0000
0010
0000
1000
1000
0000
0001
0100
0001
0100
0001
0100
0002
,
0000
0000
0000
0000
0000
0000
0000
0000
1003
0100
0010
0001
1000
0100
0010
0001
,
1000
0100
1000
0100
0010
0001
0010
0001
,
1000
0010
1000
0010
0100
0100
0001
0001
,
1000
0000
0010
0100
0001
0100
0010
0000
,
1001
1000
0010
0100
0001
0100
0010
1000
,
0100
0010
0001
1000
1001
0000
1000
0010
,
0100
0001
0100
0010
1000
0100
0010
0001
,
1001
0000
1000
0010
0100
0001
0100
0010
,
1000
0100
0010
0001
1000
1000
0100
0100
,
0010
0000
0001
0100
0010
0000
0110
0000
,
1001
1000
0010
0100
0001
1000
0100
0010
,
0001
0010
0100
1000
0010
0100
0001
0100
,
0001
0000
1000
1001
0000
1100
0000
0100
,
0110
0000
1000
0100
0010
0001
0010
0100
,
1000
0010
0100
0001
0100
0100
0010
0010
,
1000
0000
0100
0010
0001
1000
0010
0000
,
1001
1000
0010
0100
0001
0010
0100
1000
,
0100
0010
0001
1000
1001
0000
0001
0100
,
0010
1000
0010
0100
0001
0010
0100
1000
,
1100
0000
1000
0010
0100
0001
0100
0010
,
1000
0100
0010
0001
1000
1000
0001
0001
,
0100
0000
0001
0010
0100
0000
1100
0000
,
0011
0000
0001
0100
1010
0000
1000
0010
,
0101
0000
0001
0010
1100
0000
0110
0000
,
0011
0000
0001
1001
0000
1100
0000
1001
,
2002
0000
0000
0000
,
3003
0000
0000
0000
;

//---------------dance-single - ----------------
#NOTES:
     dance-single:
     :
     Easy:
     3:
     0.235,0.296,0.079,0.173,0.000:
0000
0000
0000
0000
,
0000
0000
0000
0000
,
0000
0000
0000
0000
,
0000
0000
0000
0000
,
2000
0000
0000
3000
,
0002
0000
0000
0003
,
2002
0000
0000
0000
,
3003
0000
0000
1000
,
0020
0000
0000
0030
,
0200
0000
0000
0300
,
0220
0000
0000
0000
,
0330
0000
0000
1000
,
0002
0000
0100
0000
,
0203
0000
0010
0000
,
0320
0000
1000
0000
,
2030
0000
0000
0100
,
3200
0000
0010
0000
,
0320
0000
0032
0000
,
2000
0000
0000
0000
,
3003
0000
0000
0000
,
1000
0000
1000
0000
,
0010
0000
0010
0000
,
0100
0000
0000
0000
,
0010
0000
0000
0001
,
0001
0000
0001
0000
,
0100
0000
0100
0000
,
0010
0000
0000
0000
,
1000
0000
0000
0001
,
0001
0000
0001
0000
,
0100
0000
0100
0010
,
0010
0000
0010
0000
,
1001
0000
0000
1000
,
1000
0000
0100
0000
,
0010
0000
0001
0000
,
2002
0000
0000
3003
,
1000
0000
0001
0000
,
1000
1000
1000
1000
,
0001
0001
0001
0001
,
0100
0100
0100
0100
,
0010
0010
0010
0010
,
1000
0100
1000
0100
,
0010
0001
0010
0001
,
1000
0010
1000
0010
,
0100
0001
0100
0001
,
1000
0100
1000
0010
,
0100
0001
0100
0010
,
1000
0100
0010
0001
,
0010
0001
1000
0001
,
2002
0000
0000
3003
,
1000
0100
0010
0001
,
1000
0010
0100
0000
,
0001
0010
0100
1000
,
0001
0000
0100
0010
,
0010
1000
0100
0010
,
0001
0010
0100
1000
,
0001
0100
0010
1000
,
2002
0000
0000
3003
,
1000
0000
0010
0000
,
0100
0000
0001
0010
,
0100
1000
0010
0100
,
0001
0000
0100
0000
,
0010
0000
1100
0000
,
0001
0000
0100
0000
,
1010
0000
0100
0000
,
0001
0000
1000
0010
,
0100
0001
0100
0010
,
1000
0000
0001
0000
,
0010
0000
0100
0000
,
1000
0100
0010
0001
,
1000
0000
0010
0000
,
0100
0000
0001
0010
,
0100
1000
0010
0100
,
0001
0000
1000
0000
,
0010
0000
0101
0000
,
1000
0000
0010
0000
,
1001
0000
0100
0000
,
0010
0000
1000
0010
,
0100
0001
0010
0100
,
1000
0000
0100
0000
,
0010
0000
0001
0001
,
0001
0100
0010
1000
,
2002
0000
0000
0000
,
3003
0000
0000
0000
;

//---------------dance-single - ----------------
#NOTES:
     dance-single:
     :
     Beginner:
     1:
     0.124,0.205,0.065,0.000,0.000:
0000
0000
0000
0000
,
0000
0000
0000
0000
,
0000
0000
0000
0000
,
0000
0000
0000
0000
,
1000
0000
0000
0000
,
1000
0000
0000
0000
,
1001
0000
0000
0000
,
0000
0000
0000
0000
,
0001
0000
0000
0000
,
0001
0000
0000
0000
,
1001
0000
0000
0000
,
0000
0000
0000
0000
,
0100
0000
0000
0000
,
0100
0000
0000
0000
,
0010
0000
0000
0000
,
0010
0000
0000
0000
,
1000
0000
0000
0000
,
0001
0000
0000
0000
,
1001
0000
0000
0000
,
0000
0000
0000
0000
,
1000
0000
0000
0000
,
0001
0000
0000
0000
,
1001
0000
0000
0000
,
0000
0000
0000
0000
,
0100
0000
0000
0000
,
0010
0000
0000
0000
,
0110
0000
0000
0000
,
0000
0000
0000
0000
,
1000
0000
0000
0000
,
0100
0000
0000
0000
,
0010
0000
0000
0000
,
0001
0000
0000
0000
,
1000
0000
0000
0000
,
0001
0000
0000
0000
,
1001
0000
0000
0000
,
1000
0000
1000
0000
,
1000
0000
0000
0000
,
0100
0000
0100
0000
,
0000
0000
0010
0000
,
0010
0000
0000
0000
,
0001
0000
0001
0000
,
0000
0000
0100
0000
,
0100
0000
0000
0000
,
0010
0000
0010
0000
,
0000
0000
1000
0000
,
1000
0000
0000
0000
,
0100
0000
0100
0000
,
0000
0000
0001
0000
,
1001
0000
0000
0000
,
1000
0000
1000
0000
,
0001
0000
0001
0000
,
0100
0000
0100
0000
,
0010
0000
0010
0000
,
1000
0000
0001
0000
,
0100
0000
0010
0000
,
1000
0000
0001
0000
,
1001
0000
0000
0000
,
1000
0000
0000
0000
,
0001
0000
0001
0001
,
0001
0000
0100
0100
,
0100
0000
0000
0000
,
0010
0000
0010
0000
,
0000
0000
0000
0000
,
1000
0000
0000
0000
,
0001
0000
0100
0100
,
0100
0000
0001
0001
,
0001
0000
0000
0000
,
1000
0000
0000
0000
,
0001
0000
0001
0000
,
0001
0000
0001
0000
,
0100
0000
0100
0100
,
0100
0000
1000
1000
,
1000
0000
1000
0000
,
0100
0000
0100
0000
,
0010
0000
0010
0000
,
0001
0000
0001
0000
,
1000
0000
1000
1000
,
1000
0000
0001
0001
,
0001
0000
0001
0000
,
1000
0000
1000
1000
,
1000
0000
1000
0000
,
1001
0000
0000
0000
;
