#TITLE:Cirno's Perfect Math Class;
#SUBTITLE:;
#ARTIST:IOSYS;
#TITLETRANSLIT:;
#SUBTITLETRANSLIT:;
#ARTISTTRANSLIT:;
#CREDIT:;
#BANNER:Cirno's Perfect Math Class.png;
#BACKGROUND:Cirno's Perfect Math Class - bg.png;
#LYRICSPATH:;
#CDTITLE:cdtitlegpop.png;
#MUSIC:Cirno's Perfect Math Class.ogg;
#OFFSET:1.200;
#SAMPLESTART:98.900;
#SAMPLELENGTH:12.000;
#SELECTABLE:YES;
#BPMS:0.000=175.000,196.000=87.500,204.000=175.000,280.000=87.500,282.000=175.000;
#STOPS:;
#BGCHANGES:3.750=Cirno's Perfect Math Class.avi=1.000=0=0=1,
99999=-nosongbg-=1.000=0=0=0 // don't automatically add -songbackground-
;

//---------------dance-single - ----------------
#NOTES:
     dance-single:
     :
     Challenge:
     12:
     0.974,1.000,0.157,0.541,0.823: // measure 1
0000
0000
0000
0000
,  // measure 2
0000
0000
0000
0000
,  // measure 3
0000
0000
0000
0000
,  // measure 4
0000
0000
0000
0000
,  // measure 5
0000
0000
0000
0000
,  // measure 6
1000
1000
0010
0100
0000
0001
0010
0100
,  // measure 7
0010
0010
0001
0100
0000
0010
1000
0010
,  // measure 8
0100
0100
0001
0010
0001
0001
0100
0010
,  // measure 9
1000
1000
0001
0001
0000
0001
0010
0100
,  // measure 10
2000
0000
0000
3010
0100
0001
0010
0100
,  // measure 11
2000
0001
0001
0001
3001
0100
0010
1000
,  // measure 12
0020
0000
0000
0130
0010
1000
0001
0010
,  // measure 13
1100
0000
1000
0100
0010
0001
0010
0001
1000
0000
0000
0000
1001
0000
0001
0000
,  // measure 14
2001
0000
0000
3001
0010
0100
1000
0100
,  // measure 15
1100
0000
1000
0100
0010
0000
0001
0000
0100
0000
0010
0000
1000
0000
0001
0000
,  // measure 16
2000
0100
3200
0010
0320
0001
0032
0100
,  // measure 17
10M3
0000
1000
0100
001M
0000
0001
0000
0M02
0000
1000
0000
10M3
0000
MMMM
0000
,  // measure 18
1000
0000
0100
0000
0010
0000
0002
0000
0000
0000
1003
0100
1000
0100
0010
0001
,  // measure 19
1000
0010
1000
0010
0100
0000
0001
0100
0000
0010
1000
0000
0100
0000
0010
0000
,  // measure 20
0001
0000
1000
0100
1000
0000
0020
0000
0000
0000
1030
0100
0010
0001
0100
0010
,  // measure 21
1000
0100
1000
0100
0010
0000
0001
0100
0000
0100
0010
1000
0001
0000
0100
0000
,  // measure 22
0001
0000
0001
0000
0010
0000
0200
0000
0000
0000
1300
0100
0010
0001
0010
0100
,  // measure 23
1000
0001
1000
0001
0100
0000
0001
0010
0000
0100
1000
0000
0010
0000
0100
0000
,  // measure 24
0001
0000
0010
0100
1000
0000
0002
0000
0000
0000
1003
0100
0010
0001
0100
0010
,  // measure 25
1M00
0001
10M0
0001
1M00
0001
10M0
0001
2M00
0000
3200
0000
0320
0000
0032
0000
,  // measure 26
1003
0000
0010
0000
0100
0000
0002
0000
0000
0000
1003
0010
0100
0001
0010
0100
,  // measure 27
1000
0001
1000
0001
0100
0000
0010
1000
0000
1000
0001
0000
1000
0000
0010
0000
,  // measure 28
1000
0000
0100
0010
0001
0000
2000
0000
0000
0000
3001
0010
0100
1000
0001
0010
,  // measure 29
0001
0100
0010
1000
0001
0000
1000
0100
0000
0100
1000
0010
0200
0000
0302
0000
,  // measure 30
1003
0000
1000
0000
0001
0000
0200
0000
0000
0000
0301
0010
0100
1000
0010
0100
,  // measure 31
0001
0100
0001
0100
0001
0100
0001
0100
0010
1000
0010
1000
0010
1000
0010
1000
,  // measure 32
00M1
0100
M000
0010
100M
0000
0M01
0010
M000
0100
10M0
0000
M001
0100
001M
1000
,  // measure 33
0M01
0000
0011
0000
1001
0000
2000
0002
0000
0000
0000
0000
0010
0000
3003
0000
,  // measure 34
1000
0000
1000
0100
0010
0000
0001
0000
0002
0000
1000
0000
1003
0000
0000
0000
,  // measure 35
0001
0000
0010
0100
0010
0000
0001
0000
2000
0000
0001
0000
3001
0000
0000
0000
,  // measure 36
1000
0010
0100
0001
2000
0000
3002
0100
,  // measure 37
0103
0010
2000
0000
3002
0100
0103
0000
,  // measure 38
1000
0100
1000
0100
1000
0000
0010
0000
0200
0000
0001
0000
0301
0000
0000
0000
,  // measure 39
0001
0000
0100
0010
1000
0000
0001
0000
0200
0000
0010
0000
0310
0000
0000
0000
,  // measure 40
1000
0100
0001
0100
1000
0010
0001
0010
,  // measure 41
2000
0000
0001
0000
0001
0000
0001
0000
3001
0100
0001
0100
0010
1000
0010
1000
,  // measure 42
0001
0000
0010
0100
1000
0000
0010
0000
0100
0000
0001
0000
0101
0000
0000
0000
,  // measure 43
0001
0000
0010
0100
1000
0000
0010
0000
1000
0000
1001
0000
1001
0000
0000
0000
,  // measure 44
1000
0000
0100
0010
0001
0000
0100
0000
0020
0000
0000
0000
1030
0000
0001
0000
,  // measure 45
1000
0000
0001
0100
0001
0000
1000
0010
0000
0100
0001
0100
0001
0100
0001
0100
,  // measure 46
0010
1000
0010
1000
0001
0010
0001
0010
0100
1000
0100
1000
0001
0100
0001
0100
,  // measure 47
0010
0100
0010
0100
0001
1000
0001
1000
0001
0010
0001
0000
1001
0000
0000
0000
,  // measure 48
1000
1000
0100
0010
0001
0001
0100
0010
,  // measure 49
1000
0100
0010
0001
1000
0100
0010
0001
1000
0010
0100
0001
1000
0010
0100
0001
,  // measure 50
1000
0100
0010
0002
0000
0000
0003
0000
1000
0010
0100
0020
0000
1000
1030
0100
,  // measure 51
0010
0001
0010
0200
0000
0000
0300
0000
1000
0010
0100
0020
0000
1000
1030
0000
,  // measure 52
0001
0010
0100
2000
0000
3010
0100
0001
,  // measure 53
1000
0100
1000
0100
1000
0100
1000
0100
1000
0000
0100
0000
0010
0000
0001
0000
,  // measure 54
21M0
3M01
01M2
1M03
,  // measure 55
1000
0001
1000
0001
1000
0001
1000
0001
1000
0000
0010
0000
0100
0000
0001
0000
,  // measure 56
1002
1000
1003
0010
0100
0001
0100
0010
,  // measure 57
2000
0100
0100
0100
3100
0010
0001
0100
,  // measure 58
0020
1000
1030
0100
0010
0100
0010
0001
,  // measure 59
1001
0000
1000
0100
0010
0001
0010
0100
1000
0000
MM00
0000
2002
0000
0000
0000
,  // measure 60
0010
0000
0000
0000
3003
0000
1000
0100
1000
0000
0010
0000
0100
0000
0001
0000
,  // measure 61
MMMM
0000
1000
0100
0010
0000
0001
0000
0100
0000
0010
0000
1000
0000
0001
0000
,  // measure 62
1000
0000
0001
0100
0001
0000
0100
0000
0010
0000
1000
0100
1000
0000
0010
0000
,  // measure 63
2000
0000
3002
0000
0203
0010
0310
1000
,  // measure 64
0002
0100
0103
0010
1000
0010
0100
0001
,  // measure 65
0020
0100
0100
0100
0130
1000
0010
0100
,  // measure 66
0002
1000
1003
0010
0100
0010
1000
0100
,  // measure 67
0011
0000
0001
0100
0010
1000
0010
0100
0001
0000
00MM
0000
2200
0000
0000
0000
,  // measure 68
0001
0000
0000
0000
3300
0000
1000
0100
1000
0000
0010
0000
0100
0000
0001
0000
,  // measure 69
0020
0100
0230
1000
1300
0010
0100
0001
,  // measure 70
2000
0010
3020
0100
0230
0001
0302
1000
,  // measure 71
10M3
0000
010M
1000
01M0
0000
100M
0000
01M0
0000
100M
0000
01M0
0000
MMMM
0000
1000
0000
0000
0000
0100
0000
0000
0000
0010
0000
0000
0000
0002
0000
0000
0000
,  // measure 72
0000
0000
0103
0010
1000
0010
0100
0001
1000
0100
1000
0100
0010
0000
0001
0100
,  // measure 73
0000
0100
0010
0000
1000
0000
0001
0000
1000
0000
0100
0010
0001
0000
2000
0000
,  // measure 74
0000
0000
3001
0010
0100
1000
0001
0100
0010
1000
0001
0100
0010
0000
1000
0001
,  // measure 75
0000
0001
1000
0100
0010
0000
0010
0000
0001
0000
0010
0000
0100
0000
2000
0000
,  // measure 76
0000
0000
3010
0100
0001
0100
0001
1000
0100
0010
0100
0010
0001
0000
1000
0100
,  // measure 77
0000
0100
1000
0000
0010
0000
0100
0000
0001
0000
1000
0100
1000
0000
0002
0000
,  // measure 78
0000
0000
0103
0010
0100
0001
0010
0100
10M0
0001
1M00
0001
10M0
0001
1M00
0001
,  // measure 79
10M0
0M01
10M0
0M01
1000
0010
0100
0002
,  // measure 80
0000
0000
0013
0100
1000
0010
0100
0001
1000
0100
1000
0100
1000
0000
0010
0100
,  // measure 81
0000
0100
0001
0000
0010
0000
0100
0000
1000
0000
0010
0100
0001
0000
2000
0000
,  // measure 82
0000
0000
3001
0010
0100
1000
0010
0100
0001
0010
0100
1000
0100
0000
0010
0001
,  // measure 83
0000
0001
1000
0010
0100
0000
0100
0000
0001
0000
0100
0000
0010
0000
2000
0000
,  // measure 84
0000
0000
3010
0100
0001
0010
0100
1000
0001
0100
0001
0100
0001
0100
0001
0100
,  // measure 85
0010
1000
0010
1000
0010
1000
0010
1000
00M1
0100
M000
0010
1M00
0000
M001
0010
,  // measure 86
000M
0100
10M0
0000
M001
0100
001M
1000
0M01
0000
M011
0000
1MM1
0000
1M00
0001
,  // measure 87
00M0
M00M
0000
2M02
0000
0000
0000
0000
0000
0000
0000
0000
,  // measure 88
0000
0000
3003
0000
;

//---------------dance-single - ----------------
#NOTES:
     dance-single:
     :
     Hard:
     9:
     0.690,0.686,0.212,0.133,0.239:
0000
0000
0000
0000
,
0000
0000
0000
0000
,
0000
0000
0000
0000
,
0000
0000
0000
0000
,
0000
0000
0000
0000
,
0000
0000
0000
0000
,
0000
0000
0000
0000
,
0000
0000
0000
0000
,
0000
0000
0000
0000
0000
1000
0100
0010
,
0001
0000
0000
0100
0010
1000
0010
0100
,
0002
1000
1000
1000
1003
0100
0010
0001
,
0100
0000
0000
0010
1000
0100
0010
0100
,
2000
0001
0001
0001
3001
0000
1100
0000
,
1001
0000
0000
0001
0100
0010
1000
0010
,
0100
0010
1000
0100
0010
0001
1000
0010
,
1000
1000
0010
0100
0001
0001
0100
0010
,
1000
0000
0001
1000
0001
0000
1000
0000
0002
0000
1000
0000
1003
0000
0000
0000
,
1000
0100
0010
0001
0000
0100
0010
1000
,
0010
0000
0100
0000
0001
0000
1000
0100
0000
0100
1000
0000
0010
0000
0100
0000
,
0001
0010
0100
1000
0000
0001
0100
0010
,
1000
0000
0100
0000
0010
0000
0001
1000
0000
1000
0001
0000
0100
0000
0010
0000
,
1000
0100
0010
0001
0000
1000
0010
0100
,
0001
0000
0010
0000
0100
0000
1000
0100
0000
0100
1000
0000
0010
0000
0100
0000
,
0001
0010
0100
1000
0000
0010
0100
0001
,
1000
0100
1000
0100
1000
0100
1000
0100
1000
0000
0001
0000
0100
0000
0010
0000
,
1000
0100
0010
0001
0000
0100
0010
1000
,
0001
0000
0010
0000
0100
0000
1000
0001
0000
0001
1000
0000
0010
0000
0100
0000
,
0001
0010
0100
1000
0000
0010
0100
0001
,
0100
0000
0010
0000
1000
0000
0001
0100
0000
0100
0001
0000
0100
0000
0010
0000
,
1000
0100
0010
0001
0000
0100
0010
1000
,
0001
0000
0010
0000
0100
0000
1000
0010
0000
0010
0100
0000
0001
0000
0001
0000
,
1000
0100
0000
1000
0100
0000
1000
0100
0000
1000
0100
0000
1000
0000
0100
0000
,
0010
0000
0010
0000
0001
0000
1000
0001
0000
0000
0000
0000
1001
0000
0000
0000
,
1000
0100
0010
0001
0100
0000
0010
0000
,
1000
0010
0100
0001
0010
0000
0100
0000
,
1000
0100
0010
0001
0100
0000
0010
1000
,
0010
0100
0001
0000
1000
0000
0010
0000
,
1001
1000
0010
0100
0001
0000
0010
0000
,
0100
1000
0100
0010
0001
0000
1000
0000
,
0001
0010
0100
1000
0001
0010
0100
1000
,
0002
0000
0000
0100
0103
0000
0010
0000
,
1100
0100
0010
0001
1000
0000
1001
0000
,
0001
0100
0010
1000
0010
0110
0110
0000
,
0001
0010
0100
1000
0010
0000
0100
0001
,
1000
0000
0100
0000
0010
0011
0011
0000
,
1000
0100
1000
0000
0001
0100
0001
0000
1000
0010
1000
0000
0001
0010
0001
0000
,
0100
0010
0100
0000
0010
0100
0010
0000
1000
0001
1000
0000
1001
0000
0000
0000
,
1000
0100
0001
0100
1000
0010
0001
0010
,
2000
0000
0000
0001
0002
0000
3003
0000
,
1000
0100
1000
0100
0000
0000
0000
0000
0001
0100
0001
0100
0000
0010
1000
0010
,
0100
0001
0100
0001
0000
0000
0000
0000
1000
0001
1000
0001
0000
0100
0100
0000
,
1000
0100
0010
0001
0000
0100
0010
1000
,
1100
0110
0011
1001
,
2100
3100
0102
0103
,
2002
0000
0000
0000
3003
0001
1000
0001
,
1001
0000
0000
1000
0100
0010
0001
0100
,
0020
1000
1000
1000
1030
0001
0100
0010
,
1000
0000
0000
0100
0010
0001
0010
0100
,
2000
0010
0010
0010
3010
0000
0110
0000
,
1001
0000
0000
1000
0100
0010
0001
0100
,
0000
0100
0001
0100
0010
1000
0010
0100
,
0001
0001
0010
0010
0100
0100
1000
1000
,
1001
0000
1100
0000
1001
0001
0100
0010
,
1000
0000
0001
0010
0100
1000
0010
0100
,
0002
1000
1000
1000
1003
0010
0100
0001
,
0100
0000
0010
1000
0010
0100
0001
0010
,
0200
1000
1000
1000
1300
0000
1100
0000
,
1001
0000
0001
0100
0010
1000
0010
0100
,
0001
0001
1000
1000
0100
0010
0001
0100
,
0010
0010
1000
1000
0001
0001
0100
0100
,
0002
0000
0000
0000
1003
0100
0010
0001
,
0000
0000
0100
0000
0010
0000
1000
0000
0010
0000
0100
0000
0001
0000
0010
0100
,
0000
0100
1000
0000
0010
0000
0100
0000
0001
0000
0100
0000
1000
0000
0100
0000
,
0000
0000
0001
0000
0010
0000
0100
0000
1000
0000
0010
0000
0100
0000
0001
1000
,
0000
1000
0001
0000
0100
0000
0010
0000
1000
0000
0100
0000
0010
0000
0001
0000
,
0000
0000
0010
0000
0100
0000
1000
0000
0100
0000
0001
0000
0100
0000
1000
0010
,
0000
0010
0100
0000
0001
0000
1000
0000
0010
0000
0100
0000
0001
0000
1000
0000
,
0000
0000
0001
0000
0010
0000
0100
0000
1000
0001
1000
0001
1000
0001
1000
0001
,
1000
0001
1000
0001
1000
0010
0100
0001
,
0000
0000
0010
0000
0100
0000
1000
0000
0010
0000
0001
0000
0010
0000
1000
0100
,
0000
0100
0010
0000
0001
0000
0100
0000
0010
0000
1000
0000
0100
0000
1000
0000
,
0000
0000
0001
0000
0100
0000
1000
0000
0100
0000
0010
0000
1000
0000
0001
0100
,
0000
0100
0010
0000
1000
0000
0001
0000
1000
0000
0100
0000
0010
0000
0001
0000
,
0000
0000
0100
0000
0010
0000
1000
0000
0100
0000
1000
0000
0010
0000
0100
0001
,
0000
0001
1000
0000
0001
0000
1000
0000
0001
0100
0000
0001
0100
0000
0001
0100
,
0000
0001
0100
0000
0001
0000
0100
0000
0001
0000
0001
0000
1000
0000
0001
1000
,
0000
2002
0000
0000
,
0000
0000
3003
0000
;

//---------------dance-single - ----------------
#NOTES:
     dance-single:
     :
     Medium:
     6:
     0.433,0.446,0.078,0.118,0.039:
0000
0000
0000
0000
,
0000
0000
0000
0000
,
0000
0000
0000
0000
,
0000
0000
0000
0000
,
0000
0000
0000
0000
,
0000
0000
0000
0000
,
0000
0000
0000
0000
,
0000
0000
0000
0000
,
0000
0000
0000
0000
,
1001
0000
0000
0000
1000
0100
0010
0000
,
0002
1000
1003
0010
,
1001
0000
0000
0000
0001
0100
0010
0000
,
2000
0001
3001
0100
,
0100
0000
0000
0010
0100
0000
0001
0000
,
1000
0100
0010
0000
0001
0000
0100
0000
,
0001
0100
0001
0000
1000
0100
1000
0000
,
0001
0000
0100
0000
0010
1000
1000
0000
,
1001
0000
1000
0100
0000
0010
0001
0000
,
0100
0000
0001
0100
0000
0100
0010
0000
,
1000
0000
0100
0010
0000
0010
0001
0000
,
1000
0000
0010
0000
1000
0100
0010
0000
,
0001
0000
0100
0010
0000
0010
1000
0000
,
0001
0000
0010
0100
0000
1000
0100
0000
,
0010
0000
0001
0100
0000
0010
1000
0000
,
0001
1000
0001
1000
0001
0000
0100
0000
,
0001
0000
0010
0100
0000
0100
0010
0000
,
0001
0000
1000
0100
0000
0100
1000
0000
,
0001
0000
0100
0010
0000
0010
1000
0000
,
0001
0000
0010
0000
0100
1000
0001
0000
,
1000
0000
0100
0010
0000
0010
0001
0000
,
0100
0000
0010
1000
0000
1000
0001
0000
,
1000
0000
0000
0100
0000
0000
0010
0000
0000
0001
0000
0000
1000
0000
0001
0000
,
1000
0000
0001
0000
1000
0000
0001
1000
0000
0000
0000
0000
1001
0000
0000
0000
,
1000
0000
0100
0010
0001
0000
0000
0000
,
1000
0000
0010
0100
0001
0000
0000
0000
,
1000
0000
0100
0010
0001
0000
0100
0000
,
0010
0010
1000
0000
1000
0000
0000
0000
,
0001
0000
0010
0100
1000
0000
0000
0000
,
0001
0000
0100
0010
1000
0000
0000
0000
,
0001
0001
0100
0000
0001
0001
1000
0000
,
0002
0000
2003
0000
,
3001
0000
0001
0100
0001
0000
0000
0000
,
1000
0000
1000
0100
1000
0000
0000
0000
,
0001
0000
0100
0010
1000
0000
0001
0001
,
0010
0100
1000
0000
,
0001
0100
0001
0100
0010
1000
0010
1000
,
0001
0010
0001
0010
0100
1000
0001
0000
,
1000
0100
0010
0001
,
2000
0000
3002
0000
,
1003
0000
0000
1000
0000
0000
0000
0000
0001
0000
0000
0001
0000
0000
0100
0000
,
0010
0000
0000
0010
0000
0000
0000
0000
0100
0000
0000
0100
0000
0000
0001
0000
,
1000
0000
0000
0100
0000
0010
0010
0000
,
0001
0001
1000
1000
,
0101
0000
1100
0000
,
2002
0000
0000
0000
3003
0000
1000
0100
,
1000
0000
0000
0000
0010
0100
0001
0000
,
2000
0001
3001
0100
,
0010
0000
0000
0000
1000
0100
0010
0000
,
0002
1000
1003
1001
,
1001
0000
0000
0000
1000
0000
0001
0001
,
0000
1000
1000
0000
0010
0000
0100
0000
,
0001
0100
0001
0000
1000
0100
1000
0000
,
0001
0100
0010
1000
,
0001
0000
0000
0000
1000
0100
0010
0000
,
0002
1000
1003
0010
,
0100
0000
0000
0000
0001
0010
0100
0000
,
2000
0001
3001
0100
,
0100
0000
0000
0001
0001
0000
0100
0000
,
0010
1000
0001
0000
0010
0000
0100
0000
,
1000
0100
1000
0000
0001
0100
0001
0000
,
2000
0000
0000
0000
3001
0000
0100
0010
,
0000
0010
1000
0000
0001
0000
0010
0100
,
0000
0100
1000
0000
0010
0000
0100
0001
,
0000
0001
1000
0000
0001
0000
0100
0000
,
0010
1000
0001
0000
1000
0000
0100
0010
,
0000
0010
0001
0000
0100
0000
0010
1000
,
0000
1000
0001
0000
0010
0000
0100
1000
,
0000
1000
0001
0000
1000
0001
1000
0001
,
1000
0000
0001
0000
0100
0000
0010
1000
,
0000
1000
0001
0000
0010
0000
0100
1000
,
0000
1000
0100
0000
0010
0000
0001
0100
,
0000
0100
0010
0000
1000
0000
0100
0000
,
0010
0001
0100
0000
0010
0000
1000
0001
,
0000
0001
0010
0000
0100
0000
1000
0010
,
0000
0000
0010
0000
0100
0000
0000
0000
0001
0000
0000
0010
0000
0000
0100
0000
,
0000
1000
0000
0000
0001
0000
1000
0000
0001
0000
1000
0000
0001
0000
1000
0001
,
0000
2002
0000
0000
,
0000
0000
3003
0000
;

//---------------dance-single - ----------------
#NOTES:
     dance-single:
     :
     Easy:
     4:
     0.252,0.343,0.055,0.039,0.024:
0000
0000
0000
0000
,
0000
0000
0000
0000
,
0000
0000
0000
0000
,
0000
0000
0000
0000
,
0000
0000
0000
0000
,
0000
0000
0000
0000
,
0000
0000
0000
0000
,
0000
0000
0000
0000
,
0000
0000
0000
0000
,
1000
0000
0010
0100
,
0001
0000
0000
0000
,
0010
0000
0100
0010
,
1000
0000
0000
0001
,
0001
0000
1000
0100
,
1000
0000
0010
0000
,
0100
0100
0010
0010
,
1000
1000
1000
1000
,
0001
0000
0001
0000
,
0100
0000
0100
0000
,
0010
0000
0010
0000
,
1000
0100
0010
0001
,
1000
0000
1000
0000
,
0100
0000
0100
0000
,
0010
0000
0010
0000
,
0001
0010
0100
1000
,
0010
0000
0010
0000
,
0100
0000
0100
0000
,
0001
0000
0001
0000
,
1000
0010
0100
0001
,
1000
0000
1000
0000
,
0001
0000
0001
0000
,
1000
0000
0000
1000
0000
0000
1000
0000
0000
1000
0000
0000
1000
0000
0000
0000
,
0001
0000
0000
0000
0001
0000
0000
0001
0000
0000
0000
0000
1001
0000
0000
0000
,
1000
0100
0010
0000
,
0001
0100
0010
0000
,
1000
0100
0010
0010
,
0001
0100
0010
0000
,
1000
0100
1000
0000
,
0001
0100
0001
0000
,
1000
1000
0100
0100
,
0010
0000
0001
0000
,
1000
0010
1000
0000
,
0001
0010
0001
0000
,
1000
0100
0010
0010
,
0001
0100
0010
0000
,
1000
0100
0001
0010
,
0100
0001
1000
1001
,
0001
0000
0100
0000
,
0010
0000
1000
0000
,
1001
0000
0001
0000
,
0100
0000
0010
0000
,
1000
0000
1000
0000
,
0010
0010
0100
0100
,
0101
0000
1100
0000
,
2002
0000
3003
0000
,
1000
0000
0010
0100
,
0001
0000
0000
0000
,
1000
0000
0100
0010
,
0100
0000
0000
1000
,
1000
0000
0010
0100
,
0000
0001
1000
1000
,
0010
0010
0100
0100
,
0001
0001
0001
0000
,
1000
0000
0100
0100
,
0010
0000
0010
0000
,
0001
0000
0100
0100
,
0001
0000
0001
1000
,
1000
0000
0010
0000
,
0100
0000
0001
0000
,
1000
1000
0100
0100
,
0020
0000
0031
0000
,
0001
0000
0100
0000
,
0100
0000
0010
0000
,
0010
0000
1000
0100
,
0010
0001
0100
0000
,
0100
0000
0010
0000
,
0010
0000
1000
0000
,
1000
0000
0001
0010
,
0100
1000
0001
0000
,
0001
0000
0100
0000
,
0100
0000
0010
0000
,
0010
0000
1000
0010
,
0100
0001
1000
0000
,
1000
0000
0001
0000
,
0001
0000
0000
0000
0000
0000
0000
0000
1000
0000
0000
1000
0000
0000
1000
0000
,
0000
1000
0000
0000
1000
0000
0000
0000
0001
0000
0000
0000
0001
0000
0000
0001
,
0000
2002
0000
0000
,
0000
0000
3003
0000
;

//---------------dance-single - ----------------
#NOTES:
     dance-single:
     :
     Beginner:
     2:
     0.115,0.270,0.055,0.000,0.000:
0000
0000
0000
0000
,
0000
0000
0000
0000
,
0000
0000
0000
0000
,
0000
0000
0000
0000
,
0000
0000
0000
0000
,
0000
0000
0000
0000
,
0000
0000
0000
0000
,
0000
0000
0000
0000
,
0000
0000
0000
0000
,
1000
0000
0000
0000
,
0000
0000
0000
0000
,
0001
0000
0000
0000
,
0000
0000
0000
0000
,
0100
0000
0000
0000
,
0100
0000
0000
0000
,
0010
0000
0010
0000
,
0010
0000
0000
0000
,
1000
0000
0000
0000
,
1000
0000
0000
0000
,
0100
0000
0000
0000
,
0100
0000
0000
0000
,
0010
0000
0000
0000
,
0010
0000
0000
0000
,
0001
0000
0000
0000
,
0001
0001
0001
0000
,
0001
0000
0000
0000
,
0001
0000
0000
0000
,
0100
0000
0000
0000
,
0100
0000
0000
0000
,
0010
0000
0000
0000
,
0010
0000
0000
0000
,
1000
1000
1000
1000
,
1000
0000
0000
1001
,
1001
0000
0000
0000
,
1000
0000
0000
0000
,
0100
0000
0000
0000
,
0100
0000
0000
0000
,
0010
0000
0000
0000
,
0010
0000
0000
0000
,
0001
0000
0000
0000
,
0001
0000
0000
0000
,
0100
0000
0000
0000
,
0100
0000
0000
0000
,
0010
0000
0000
0000
,
0010
0000
0000
0000
,
1000
0000
0100
0000
,
0010
0000
0001
0000
,
1000
0000
0000
0000
,
0001
0000
0000
0000
,
1001
0000
0000
0000
,
1000
0000
0000
0000
,
0001
0000
0000
0000
,
0001
0000
0001
0000
,
1001
0000
1001
0000
,
1001
0000
0000
0000
,
1000
0000
0000
0000
,
1000
0000
0000
0000
,
0100
0000
0000
0000
,
0100
0000
0000
0000
,
0010
0000
0000
0000
,
0010
0000
0000
0000
,
0001
0000
0000
0000
,
0001
0001
0001
0000
,
0001
0000
0000
0000
,
0001
0000
0000
0000
,
0100
0000
0000
0000
,
0100
0000
0000
0000
,
0010
0000
0000
0000
,
0010
0000
0000
0000
,
1000
0000
1000
0000
,
1000
0000
1000
0000
,
0000
0000
1000
0000
,
0000
0000
0100
0000
,
0000
0000
0100
0000
,
0000
0000
0010
0000
,
0000
0000
0010
0000
,
0000
0000
0001
0000
,
0000
0000
0001
0001
,
0001
0000
0001
0000
,
0000
0000
0001
0000
,
0000
0000
0100
0000
,
0000
0000
0100
0000
,
0000
0000
0010
0000
,
0000
0000
0010
0000
,
0000
0000
1000
1000
,
1000
1000
1000
0000
,
0000
1001
0000
0000
;
