#TITLE:YU-MU;
#SUBTITLE:Touhou Kinema Kan ~2nd Courtain~;
#ARTIST:Kishida Brigade & The Morning Star Rockets;
#TITLETRANSLIT:YU-MU;
#SUBTITLETRANSLIT:Touhou Kinema Kan ~2nd Courtain~;
#ARTISTTRANSLIT:Kishida Brigade & The Morning Star Rockets;
#CREDIT:Gpop & Itsugo15;
#BANNER:YU-MU.jpg;
#BACKGROUND:YU-MU - BG.jpg;
#LYRICSPATH:YU-MU.lrc;
#CDTITLE:Collab.png;
#MUSIC:YU-MU.ogg;
#OFFSET:2.890;
#SAMPLESTART:63.100;
#SAMPLELENGTH:30.000;
#SELECTABLE:YES;
#DISPLAYBPM:160.000;
#BPMS:0.000=160.000,240.000=158.000,256.000=160.000,468.000=110.000;
#STOPS:;
#BGCHANGES:2.500=YU-MU.avi=1.000=1=0=1,
292.000=YU-MU - BG.jpg=1.000=1=0=1,
99999=-nosongbg-=1.000=0=0=0 // don't automatically add -songbackground-
;

//---------------dance-single - Heavy Itsugo15----------------
#NOTES:
     dance-single:
     Heavy Itsugo15:
     Hard:
     8:
     0.503,0.629,0.293,0.155,0.052:
0000
0000
0000
0000
,
0000
0000
0000
0000
,
0000
0000
0000
0000
,
0000
0000
0000
0000
,
0000
0000
0000
0000
,
0000
0000
0000
0000
,
0000
0000
0000
0000
,
0000
0000
0000
0000
,
1000
0000
1000
0000
1001
0000
0000
1000
0000
0000
0001
0000
0101
0000
0000
0000
,
0100
0000
0100
0000
0110
0000
0000
0010
0000
0000
1000
0000
1010
0000
0000
0000
,
1000
0000
0001
0000
1001
0000
0000
0001
0000
0000
1000
0000
1010
0000
0000
0000
,
0010
0100
0101
0000
0001
0100
0001
0100
,
0001
0001
0000
0100
0100
0000
0010
0010
,
0000
1000
0001
0010
1000
0010
0001
0100
,
0010
0010
0000
1000
1000
0000
0100
0100
,
0000
0001
0100
1000
0010
0001
0010
1000
,
0001
0001
0000
0010
0010
0000
0100
0100
,
0000
1000
0001
0100
0010
0001
0010
1000
,
0001
0001
0000
1000
1000
0000
0100
0100
,
0100
1000
0001
0100
0101
0000
1100
0000
,
1000
0000
0001
0001
0000
1000
0010
0000
,
1010
0000
1000
0000
0001
1000
0001
0010
,
0100
0000
0100
0010
0000
0010
0001
0000
,
0011
0000
0001
0100
0000
0100
0010
0000
,
0010
1000
0001
0010
0000
0100
0100
0000
,
0010
0001
1000
0010
0000
0100
0100
0000
,
0010
0100
0001
1000
0000
0001
0001
0000
,
0010
0100
1000
0001
0000
1000
1000
0000
,
1001
0000
1100
0000
1000
0001
0100
0000
,
0101
0000
0110
0000
0010
0000
1000
0100
,
1000
0000
0100
0010
0000
0001
0010
0000
,
0110
0000
0100
1000
0000
0100
0010
0000
,
0001
1000
0010
0100
0000
0100
0001
0000
,
0001
0100
0010
1000
0000
1000
0100
0000
,
0100
1000
0001
0100
0000
0100
0010
0000
,
0010
1000
0001
0010
0000
0010
0100
0000
,
1000
0100
1000
0100
1000
0001
1000
0001
,
0100
0001
0100
0001
0100
0010
0100
0010
,
0100
0001
0100
0001
1000
0001
1000
0001
,
1000
0010
1000
0010
1000
0001
0100
0001
,
0100
0010
1000
0001
0010
0100
0010
0001
,
1000
0100
0010
0100
1000
0001
0100
0010
,
1000
0010
0100
0001
0010
0100
1000
0100
,
0020
0001
0100
1000
,
0230
0000
0010
0000
1300
0100
1000
0100
,
2000
0000
0001
0000
3010
1000
0010
1000
,
0020
0000
0100
0000
1030
0010
1000
0010
,
2000
0000
0100
0000
3001
1000
0001
1000
,
0002
0000
0100
0000
0013
0001
0010
0001
,
0020
0000
0001
0000
0130
0010
0100
0010
,
0100
0000
0000
0010
0000
0000
0100
0000
1000
0000
0000
0100
0000
0000
0010
0000
,
0001
0000
0000
1000
0000
0000
0010
0000
0100
0000
0001
0000
0100
0001
0100
0001
,
0100
0000
0101
0000
0100
0001
0100
0001
,
1000
0000
1010
0000
0010
1000
0010
1000
,
0001
0000
1001
0000
0001
1000
0001
1000
,
0010
0100
0001
1000
0100
0010
0100
1000
,
1000
0000
1100
0000
0100
1000
0100
1000
,
0001
0000
1001
0000
1000
0001
1000
0001
,
0010
0011
0010
0110
,
0100
1100
0100
0110
,
2002
0003
0020
3000
,
0200
0030
0002
0300
,
2000
0003
0200
3000
,
0020
0300
0032
1003
,
1001
0000
1010
0000
0010
1000
0010
0000
,
1010
0000
0101
0000
0001
0100
0001
0000
,
0101
0000
1001
0000
1000
0001
1000
0000
,
0001
1000
0001
1000
0001
1000
0001
1000
0001
0000
0000
0000
1100
0000
2002
0000
,
0000
0000
0000
0000
,
0000
0000
0000
0000
,
0000
0000
0000
0000
,
0000
0000
0000
0000
,
0000
0000
0000
0000
,
3003
0000
0000
0000
;

//---------------dance-single - Light Itsugo15----------------
#NOTES:
     dance-single:
     Light Itsugo15:
     Easy:
     3:
     0.230,0.283,0.034,0.146,0.000:
0000
0000
0000
0000
,
0000
0000
0000
0000
,
0000
0000
0000
0000
,
0000
0000
0000
0000
,
0000
0000
0000
0000
,
0000
0000
0000
0000
,
0000
0000
0000
0000
,
0000
0000
0000
0000
,
1001
0001
0000
1000
,
0000
0010
0000
0100
,
0000
0001
0000
1000
,
0000
0100
0000
0010
,
0001
0000
1000
0000
,
0001
0000
1000
0010
,
0100
0000
0010
0000
,
0100
0000
0010
0100
,
0001
0000
1000
0000
,
0010
0000
1000
0001
,
0010
0000
0100
0000
,
1000
0000
0100
0010
,
0011
0000
0010
0000
,
0001
0000
1000
0000
,
0100
0000
1000
0000
,
0010
0000
0100
0000
,
0002
0000
0003
0001
,
2000
0000
3000
1000
,
0020
0000
0030
0010
,
0200
0000
0300
0100
,
0110
0010
0000
1000
,
0000
0100
0000
0001
,
0000
0100
0000
1000
,
0000
0010
0000
0100
,
0002
0000
0003
0001
,
0200
0000
0300
0100
,
0020
0000
0030
0010
,
2000
0000
3000
1000
,
0010
0000
0010
0000
0020
0000
0000
0030
,
0100
0000
0100
0000
0200
0000
0000
0300
,
0001
0000
0001
0000
0002
0000
0000
0003
,
1000
0000
1000
0000
2000
0000
0000
3000
,
0100
0100
0010
0010
,
0001
0001
1000
1000
,
0010
0100
0001
1000
,
0100
0010
0002
0000
,
0013
0100
1000
1000
,
0001
0001
1000
0010
,
0100
0100
0010
0010
,
0100
0001
1000
0100
,
0010
0010
0001
0001
,
1000
1000
0100
0100
,
1000
0010
0100
0010
,
1000
0001
0010
0100
,
2000
0000
3100
0010
,
0001
0001
0020
0000
,
0031
1000
0010
0100
,
0001
0100
0010
1000
,
0001
0010
0200
0000
,
1300
0100
0010
0001
,
0010
0010
0001
0100
,
0010
0010
1000
0001
,
0100
0000
0000
0000
,
0001
0000
0000
0000
,
0010
0000
0000
0000
,
0100
0000
1000
0001
,
1001
0001
0000
0001
,
0000
0001
0000
1000
,
0000
1000
0000
1000
,
0000
0000
0100
0000
0000
0000
1000
2000
,
0000
0000
0000
0000
,
0000
0000
0000
0000
,
0000
0000
0000
0000
,
0000
0000
0000
0000
,
0000
0000
0000
0000
,
3000
0000
0000
0000
;

//---------------dance-single - Standard by Gpop----------------
#NOTES:
     dance-single:
     Standard by Gpop:
     Medium:
     5:
     0.316,0.409,0.086,0.078,0.000:
0000
0000
0000
0000
,
0000
0000
0000
0000
,
0000
0000
0000
0000
,
0000
0000
0000
0000
,
0000
0000
0000
0000
,
0000
0000
0000
0000
,
0000
0000
0000
0000
,
0000
0000
0000
0000
,
1000
1100
0100
0110
,
0010
0011
0001
1001
,
1000
1010
0010
0110
,
0100
0000
0101
0000
0001
0000
1000
0001
,
1000
0000
0000
0001
0000
0000
0100
0000
,
0000
0010
0000
0000
1000
0000
0001
0000
,
1000
0000
0000
0100
0000
0000
0010
0000
,
0000
0001
0000
0000
0100
0000
0010
0000
,
0100
0000
0000
0001
0000
0000
0010
0000
,
0000
0100
0000
0000
1000
0000
0010
0000
,
0100
0000
0000
0001
0000
0000
1000
0000
,
0001
0100
0010
0010
,
1000
0001
0010
0010
,
0200
0000
0000
0000
0300
0000
1000
0001
,
0001
0000
0000
0100
0000
0000
0000
0000
,
0010
1000
0001
0000
,
1000
0100
0000
1000
0000
0000
0001
0000
,
0001
0100
0000
0001
0000
0000
1000
0000
,
0010
0100
0000
0010
0000
0000
0100
0000
,
0001
1000
0000
0001
0000
0000
1000
0000
,
0001
0000
1000
0000
0010
0100
0001
0000
,
1000
0000
0001
0000
1000
0100
0010
0010
,
0001
0000
0000
0100
0000
0000
0000
0000
,
0010
1000
0001
0010
,
0100
1000
0000
0100
0000
0000
1000
0000
,
0001
0010
0000
0001
0000
0000
0010
0000
,
0100
0010
0000
0100
0000
0000
1000
0000
,
0001
1000
0000
0001
0000
0000
0001
0000
,
1000
1000
0001
0001
,
0100
0100
0010
0010
,
1000
0100
1000
0100
,
0010
0001
0010
0001
,
1000
0010
0100
0001
,
0010
0100
1000
0100
,
0010
0001
0100
0010
,
2000
0000
3002
0000
,
1003
0000
0001
0000
0100
0010
1000
0000
,
0001
0000
0010
0000
0100
1000
0010
0000
,
0100
0000
0001
0000
1000
0100
0010
0000
,
0001
0000
0100
0000
0010
1000
0010
0000
,
0100
0000
0001
0000
0010
0100
1000
0000
,
0100
0000
0010
0000
0001
0100
0010
0000
,
1000
0000
0010
0000
0100
0001
1000
0000
,
0001
0000
0100
0000
0010
0010
1000
0000
,
1001
0000
0001
0000
0010
0100
1000
0000
,
0010
0000
0100
0000
0001
0100
0010
0000
,
1000
0000
0100
0000
1000
0010
0100
0000
,
0001
0000
1000
0000
0001
1000
0010
0000
,
0100
0000
0001
0000
1000
0001
0100
0000
,
0010
0000
1000
0000
0100
0010
0001
0000
,
0010
0000
0100
0000
1000
1000
0001
0000
,
0100
0000
0010
0000
0100
0100
0001
0000
,
2000
0000
0000
0000
,
3020
0000
0000
0000
,
0230
0000
0000
0000
,
0302
0000
0000
1000
,
1003
0000
0001
0000
0001
1000
0001
0000
,
1000
0000
0010
0000
0100
0010
0100
0000
,
0001
0000
0010
0000
0100
1000
0100
0000
,
0010
0000
0001
0000
1000
0000
1001
2002
,
0000
0000
0000
0000
,
0000
0000
0000
0000
,
0000
0000
0000
0000
,
0000
0000
0000
0000
,
0000
0000
0000
0000
,
3003
0000
0000
0000
;

//---------------dance-single - Expert by Gpop----------------
#NOTES:
     dance-single:
     Expert by Gpop:
     Challenge:
     9:
     0.635,0.817,0.121,0.250,0.357:
0000
0000
0000
0000
,
0000
0000
0000
0000
,
0000
0000
0000
0000
,
0000
0000
0000
0000
,
0000
0000
0000
0000
,
0000
0000
0000
0000
,
0000
0000
0000
0000
,
0000
0000
0000
0000
,
1000
0000
0100
0000
0010
0001
0010
0100
1000
0000
0010
0000
0100
0001
0100
0010
,
1000
0000
0001
0000
0010
0100
1000
0100
1000
0000
0010
0000
0100
0001
0100
0001
,
1000
0000
0001
0000
0010
0100
1000
0100
1000
0000
0010
0000
1000
0100
1000
0010
,
0100
0000
0001
0000
1000
0100
0010
0001
1000
0000
0001
0100
0001
0100
0001
0100
,
0001
0001
0100
0010
0010
1000
0100
0100
,
0010
0001
0001
0100
0100
0010
0020
0000
,
1030
1000
0100
0010
0010
0001
0100
0100
,
0010
1000
1000
0001
0001
0010
0020
0000
,
0130
0100
1000
0010
0010
0100
0001
0001
,
1000
0010
0010
0100
0100
0001
0002
0000
,
0103
0100
0010
1000
1000
0001
0010
0010
,
0100
0000
0100
0000
0200
0000
1000
0000
1300
0000
0001
1000
0001
1000
0001
1000
,
0001
0010
0100
2000
0000
0001
0001
0000
,
3002
0000
0100
0000
0100
0100
0103
0010
,
2000
0000
0010
3020
0000
0100
0230
0000
,
0301
0000
0000
0010
0000
0000
0100
0000
0000
0000
1000
0000
0100
0000
1000
0000
,
0001
0001
0100
0020
0000
1000
1030
0000
,
1000
1000
0100
0020
0000
0001
0031
0000
,
1000
1000
0010
0200
0000
0001
0301
0000
,
0001
0000
0001
0000
0010
0000
0100
1000
0100
0000
1000
0000
1001
0000
0000
0000
,
0001
0100
0010
2000
0000
0001
3002
0000
,
0203
0000
0010
0000
0010
0010
0310
1000
,
0002
0000
0010
0023
0000
0100
0230
0000
,
1300
0000
0000
0010
0000
0000
0100
0000
0000
0000
0001
0000
0100
0000
0010
0000
,
1000
1000
0100
2000
0000
0010
3010
0000
,
0001
0001
0100
0002
0000
1000
1003
0000
,
1000
0100
0010
0002
0000
0100
0103
0000
,
0010
1000
0010
0200
0000
0001
0301
0000
,
1000
0000
0100
0000
0010
0000
0001
0000
0100
0000
0000
0010
0000
0000
0100
0000
,
0001
0000
0000
0010
0000
0000
0100
0000
2000
0000
0001
0000
3001
0000
1001
0000
,
0001
0000
0100
0000
0010
0000
1000
0000
0010
0000
0000
0100
0000
0000
0001
0000
,
0010
0000
0000
0010
0000
0000
0010
0000
0200
0000
1000
0000
1300
0000
1100
0000
,
0100
0000
0010
0000
0001
0000
0100
0000
0010
0000
0000
1000
0000
0000
0001
0000
,
0100
0000
0000
0010
0000
0000
1000
0000
0002
0000
0100
0000
0103
0000
0101
0000
,
0001
0000
0010
0000
0100
0000
1000
0000
0010
0000
0000
0100
0000
0000
0001
0000
,
1001
0000
1001
1001
1001
1001
1001
1001
,
2100
0000
0100
0000
3100
0000
0010
0000
0001
0000
0000
0100
0000
0000
0010
0000
,
1000
0000
0000
0001
0000
0000
0010
0000
0010
0000
0100
0000
1000
0000
0100
0000
,
0010
0000
0000
0001
0000
0000
0010
0000
0100
0000
1000
0000
0010
0000
0100
0000
,
0001
0000
0000
0100
0000
0000
0001
0000
0010
0000
0100
0000
1000
0000
0010
0000
,
1000
0000
0000
0100
0000
0000
1000
0000
1000
0000
0100
0000
1000
0000
0100
0000
,
0010
0000
0000
0001
0000
0000
0010
0000
0010
0000
0100
0000
0010
0000
0100
0000
,
1000
0000
0000
0100
0000
0000
0010
0000
0001
0000
0000
0100
0000
0000
0010
0000
,
1000
0000
0000
0001
0000
0000
0100
0000
0001
0100
0001
0100
0001
0100
0001
0100
,
0002
0000
0100
0000
0103
0000
0010
0000
1000
0000
0000
0100
0000
0000
1000
0000
,
0010
0000
0000
0100
0000
0000
0001
0000
0100
0000
0001
0000
0100
0000
0001
0000
,
1000
0000
0000
0100
0000
0000
0010
0000
0001
0000
0010
0000
0001
0000
0010
0000
,
0100
0000
0000
1000
0000
0000
0010
0000
0100
0000
0001
0000
0100
0000
0010
0000
,
1000
0000
0000
0100
0000
0000
1000
0000
0010
0000
0100
0000
0010
0000
0100
0000
,
0001
0000
0000
0010
0000
0000
0100
0000
1000
0000
0100
0000
1000
0000
0010
0000
,
0100
0000
0000
0001
0000
0000
0010
0000
0100
0000
0000
0010
0000
0000
0001
0000
,
0100
0000
0000
1000
0000
0000
0100
0000
0001
0000
1000
0000
0001
0000
1000
0000
,
0001
0000
0010
0000
0100
1000
0100
1000
0010
0000
0100
0000
0001
0100
0010
1000
,
0001
0000
0010
0000
0100
1000
0100
1000
0010
0000
0100
0000
0001
0010
0100
0010
,
0001
0000
0100
0000
0010
1000
0010
0100
0001
0000
0010
0000
0100
1000
0100
1000
,
0001
0000
0100
0000
0010
1000
0010
0100
0001
0000
0010
0000
0100
1000
0100
1000
,
0001
0000
0010
0000
0100
0010
0001
0010
0100
0000
1000
0000
0010
0100
0001
0100
,
0010
0000
1000
0000
0010
0100
0001
0010
0100
0000
1000
0000
0100
1000
0100
1000
,
0010
0000
0100
0000
0001
0100
0010
1000
0001
0000
0100
0000
0010
1000
0010
0100
,
0001
0000
1000
0100
0010
0001
0010
0100
1000
0000
0000
0000
0110
0000
2002
0000
,
0000
0000
0000
0000
,
0000
0000
0000
0000
,
0000
0000
0000
0000
,
0000
0000
0000
0000
,
0000
0000
0000
0000
,
3003
0000
0000
0000
;

//---------------dance-single - Beginner by Gpop----------------
#NOTES:
     dance-single:
     Beginner by Gpop:
     Beginner:
     1:
     0.108,0.175,0.026,0.000,0.000: // measure 1
0000
0000
0000
0000
,  // measure 2
0000
0000
0000
0000
,  // measure 3
0000
0000
0000
0000
,  // measure 4
0000
0000
0000
0000
,  // measure 5
0000
0000
0000
0000
,  // measure 6
0000
0000
0000
0000
,  // measure 7
0000
0000
0000
0000
,  // measure 8
0000
0000
0000
0000
,  // measure 9
1000
0000
1000
0000
,  // measure 10
0001
0000
0001
0000
,  // measure 11
0100
0000
0100
0000
,  // measure 12
0010
0000
0010
0000
,  // measure 13
1001
0000
1000
0000
,  // measure 14
0001
0000
0001
0000
,  // measure 15
0100
0000
0100
0000
,  // measure 16
0010
0000
0010
0000
,  // measure 17
1000
0000
0100
0000
,  // measure 18
1000
0000
0100
0000
,  // measure 19
0010
0000
0001
0000
,  // measure 20
0100
0000
0001
0001
,  // measure 21
0001
0000
0000
0000
,  // measure 22
1000
0000
0000
0000
,  // measure 23
0010
0000
0000
0000
,  // measure 24
0100
0000
0000
0000
,  // measure 25
0001
0000
0000
0000
,  // measure 26
0001
0000
0000
0000
,  // measure 27
1000
0000
0000
0000
,  // measure 28
1000
0000
0000
0000
,  // measure 29
0001
0000
0001
0000
,  // measure 30
0100
0000
0000
0000
,  // measure 31
0010
0000
0010
0000
,  // measure 32
1000
0000
0000
0000
,  // measure 33
0001
0000
0000
0000
,  // measure 34
1000
0000
0000
0000
,  // measure 35
0010
0000
0000
0000
,  // measure 36
0100
0000
0000
0000
,  // measure 37
0001
0000
0000
0000
,  // measure 38
0000
0000
0000
0000
,  // measure 39
1000
0000
0000
0000
,  // measure 40
0000
0000
0000
0000
,  // measure 41
0010
0000
0000
0000
,  // measure 42
0000
0000
0000
0000
,  // measure 43
0100
0000
0000
0000
,  // measure 44
0000
0000
0000
0000
,  // measure 45
0001
0000
0001
0000
,  // measure 46
0100
0000
0100
0000
,  // measure 47
0010
0000
0010
0000
,  // measure 48
1000
0000
1000
0000
,  // measure 49
0001
0000
0001
0000
,  // measure 50
1000
0000
1000
0000
,  // measure 51
0100
0000
0100
0000
,  // measure 52
0010
0000
0010
0000
,  // measure 53
0001
0000
0100
0000
,  // measure 54
0001
0000
0100
0000
,  // measure 55
0010
0000
1000
0000
,  // measure 56
0010
0000
1000
0000
,  // measure 57
0001
0000
0010
0000
,  // measure 58
0100
0000
1000
0000
,  // measure 59
0001
0000
0100
0000
,  // measure 60
0010
0000
1000
0000
,  // measure 61
1001
0000
0000
0000
,  // measure 62
0000
0000
0000
0000
,  // measure 63
0000
0000
0000
0000
,  // measure 64
0000
0000
0000
0000
,  // measure 65
1000
0000
0000
0000
,  // measure 66
0001
0000
0000
0000
,  // measure 67
0100
0000
0000
0000
,  // measure 68
0010
0000
0000
1001
;
