#TITLE:Voile, the Magic Library;
#SUBTITLE:;
#ARTIST:Twilight Frontier;
#TITLETRANSLIT:;
#SUBTITLETRANSLIT:;
#ARTISTTRANSLIT:;
#GENRE:;
#CREDIT:;
#BANNER:Voile - BN.png;
#BACKGROUND:Voile - BG.png;
#LYRICSPATH:;
#CDTITLE:;
#MUSIC:Voile, The Magic Library.ogg;
#OFFSET:-0.400;
#SAMPLESTART:17.554;
#SAMPLELENGTH:12.000;
#SELECTABLE:YES;
#BPMS:0.000=168.000,176.000=84.000,208.000=168.000;
#STOPS:;
#BGCHANGES:;
#KEYSOUNDS:;

//---------------dance-single - ----------------
#NOTES:
     dance-single:
     :
     Challenge:
     9:
     0.717,1.000,0.619,0.188,0.448:
0000
0000
0000
0000
,
0000
0000
0000
0000
,
0000
0000
0000
0000
,
0000
0000
0000
0000
,
0000
0000
0000
0000
,
0000
0000
0000
0000
,
0000
0000
0000
0000
,
0000
0000
0000
0000
,
1000
0100
1000
0100
0010
0001
0010
0001
,
1000
0010
1000
0010
0100
0001
0100
0010
,
1000
0100
0010
0001
1000
0100
0010
0001
,
1000
0000
0100
0000
0001
0000
0100
0000
1000
0100
1000
0000
0001
0100
0001
0000
,
4000
0000
3000
0001
0001
1000
0010
0200
,
0004
0000
0303
0100
0010
1000
0001
0020
,
0400
0000
0330
1000
0010
0100
0001
1000
,
1000
0010
0100
0001
0001
0010
0100
1000
,
0004
0000
0003
0100
0010
1000
0010
0200
,
0004
0000
0303
0010
0100
1000
0100
0020
,
0004
0000
0033
0100
0010
1000
0001
1000
,
1000
0000
0010
0000
0100
0000
0001
0000
0001
0000
0010
0100
0010
0000
0100
0000
,
4100
0000
3000
0001
0001
0100
0010
0200
,
0004
0000
0303
0010
0001
0100
0010
2000
,
0040
0000
3030
0100
0010
1000
0001
0100
,
0100
0010
1000
0010
0010
0100
0001
0010
,
0400
0000
0300
1000
0010
0100
0001
0002
,
4000
0000
3003
0010
0100
0001
0100
0200
,
0004
0000
0303
0010
0100
1000
0010
0100
,
0100
0000
0001
0000
0010
0000
0100
0000
1000
0100
1000
0100
0010
0001
0010
0001
,
1000
0000
0001
0101
0000
0100
0110
0000
,
1010
0000
1000
1001
0000
0001
0011
0000
,
0110
0000
1000
1100
0000
1100
1001
0101
,
1001
0000
0000
0101
0000
0100
0110
1010
,
1010
0000
1000
1001
0000
0001
0011
0000
,
0110
0000
0100
1100
0000
1000
1001
0000
,
0101
0000
0100
0110
0000
1010
1001
0101
,
1002
0000
0000
1000
1003
0100
0010
0001
,
1001
0000
0001
0101
0000
0100
0110
0000
,
1010
0000
1000
1001
0000
0001
0011
0000
,
0101
0000
0100
0110
0000
0110
1010
1001
,
0101
0000
0000
0101
0000
0000
0101
1001
,
1100
0000
0100
0110
0000
0001
0011
0000
,
1001
0000
1000
1010
0000
0010
0110
0000
,
0102
0000
0000
0000
0000
0000
0103
0000
0010
0000
1000
0000
0001
0100
0010
1000
,
1001
0000
0000
M00M
0000
0000
1101
0000
0000
MM0M
0000
0000
1000
0100
0010
0001
,
1000
1000
0010
1000
0001
1000
0100
1000
0001
0001
0010
0001
1000
0001
0100
0001
,
0100
0100
0010
0100
1000
0100
0001
0100
0010
0010
1000
0010
0001
0010
0100
0010
,
1000
1000
0100
0010
0001
0010
1000
0010
0001
0001
0100
1000
0100
0001
0100
0010
,
0100
0000
0100
0000
0010
0000
1000
0000
0010
0000
0001
0000
0010
0000
0100
0010
0100
0000
0100
0000
0001
0000
1001
0000
1000
0000
0001
0000
0011
0000
0010
0000
,
0010
0100
1000
1000
0001
0001
1000
0001
0001
0100
0010
0010
0100
0100
0001
0100
,
0100
0010
1000
1000
0001
0001
0010
0100
0100
1000
0100
0010
0001
0100
1000
0100
,
0100
0001
1000
0010
1000
0100
1000
0001
0001
0100
0010
1000
0010
0001
0010
0100
,
0100
0000
0001
0000
0100
0000
0010
0000
0100
0000
1000
0000
0100
0000
0010
0000
1000
0000
0100
0000
0110
0000
0010
0001
1000
0000
0001
0000
1000
0001
1000
0001
,
2000
0010
0010
0010
3020
0100
0100
0100
,
0230
0001
0001
0001
0302
1000
2003
3001
,
2002
0000
0000
3003
,
1001
0000
0000
0000
;

//---------------dance-single - ----------------
#NOTES:
     dance-single:
     :
     Hard:
     7:
     0.558,0.548,0.531,0.199,0.017:
0000
0000
0000
0000
,
0000
0000
0000
0000
,
0000
0000
0000
0000
,
0000
0000
0000
0000
,
0000
0000
0000
0000
,
0000
0000
0000
0000
,
0000
0000
0000
0000
,
0000
0000
0000
0000
,
1000
0100
0010
0001
0100
0010
1000
0010
,
0100
0001
0010
0100
1000
0100
1000
0010
,
0100
0001
0100
0010
0100
0010
1000
0001
,
0010
0001
0100
0010
1000
0001
1000
0001
,
2000
0001
0001
3001
0100
0010
1000
0020
,
0000
0100
0130
0001
0010
0001
0100
0020
,
0000
1000
1030
0001
0010
0001
0100
0010
,
1000
0010
0100
0001
0010
0100
1000
0001
,
0200
0010
0010
0310
1000
0010
0100
0002
,
0000
1000
1000
1003
0100
1000
0010
0200
,
0000
0001
0001
0301
0010
0001
0100
0010
,
1000
0001
0010
0001
0100
0010
1000
0001
,
2000
0001
0001
3001
0100
0010
0100
0020
,
0000
1000
1000
1030
0001
0100
0001
0020
,
0000
0100
0100
0130
1000
0010
0100
0001
,
0001
0010
0100
1000
0001
0010
0100
1000
,
0002
0100
0100
0103
0010
1000
0010
0200
,
0000
0001
0001
0301
1000
0010
0100
0020
,
0000
1000
1000
1030
0001
0100
0001
0100
,
0010
1000
0001
0010
0001
0100
0010
1000
,
1001
0000
0000
0101
0000
0000
0110
0000
,
1010
0000
0000
1001
0000
0000
1100
0000
,
0110
0000
0000
0011
0000
0001
0100
0010
,
1010
0000
0000
1010
0000
0000
1010
1000
,
1010
0000
0000
0110
0000
0000
0101
0000
,
1001
0000
0000
1100
0000
0000
0110
0000
,
0011
0000
0000
1001
0000
1000
0001
0100
,
0201
0000
0000
0001
0301
0000
0100
0010
,
1010
0000
0000
1001
0000
0000
0101
0000
,
0110
0000
0000
1010
0000
0000
1001
0000
,
0101
0000
0000
0110
0000
0010
1000
0001
,
1001
0000
0000
1001
0000
0000
0101
0100
,
0101
0000
0000
0110
0000
0000
1010
0000
,
1001
0000
0000
0101
0000
0000
1001
0000
,
1100
0000
0000
0000
0000
0000
1000
0000
0100
0000
0010
0000
0001
1000
0001
1000
,
0001
0000
0000
1001
0000
0000
1001
0000
,
1001
1000
0010
0100
0001
0100
0010
1000
,
0010
0100
0001
0010
0100
1000
0001
0100
,
0001
0100
0010
1000
0100
0001
0010
1000
,
0001
0000
0100
0000
1000
0000
0100
0000
0101
0000
0000
0110
0000
0000
1010
0000
,
1010
1000
0100
0010
0001
0010
1000
0010
,
0001
0100
1000
0100
0001
0010
0100
1000
,
0100
0010
0001
0100
1000
0010
0001
0100
,
0010
1000
0010
0100
0001
0100
0010
1000
,
1002
1000
2003
0010
,
3020
0100
0130
0101
,
2002
0000
0000
0000
,
3003
0000
0000
0000
;

//---------------dance-single - ----------------
#NOTES:
     dance-single:
     :
     Medium:
     5:
     0.389,0.426,0.100,0.265,0.000:
0000
0000
0000
0000
,
0000
0000
0000
0000
,
0000
0000
0000
0000
,
0000
0000
0000
0000
,
0000
0000
0000
0000
,
0000
0000
0000
0000
,
0000
0000
0000
0000
,
0000
0000
0000
0000
,
2000
0010
3020
0100
,
0230
0001
0302
2003
,
3200
0010
0010
0310
,
0020
0000
0001
0000
0031
1000
0001
1000
,
0002
0000
0003
1000
0100
0000
0010
0002
,
0000
0000
0003
0100
0010
0000
1000
0020
,
0000
0000
0030
0100
0001
1000
0001
0000
,
0100
0010
1000
0000
0001
0100
0001
0000
,
2000
0000
3000
0010
0100
0000
0001
0200
,
0000
0000
0300
0010
1000
0000
0001
0200
,
0000
0000
0300
0010
1000
0001
1000
0000
,
0001
0010
0100
0000
1000
0100
0010
0000
,
0002
0000
0003
1000
0100
0000
1000
0200
,
0000
0000
0300
0010
0001
0000
0001
2000
,
0000
0000
3000
0010
0100
0001
1000
0000
,
0001
0100
0001
0000
1000
0100
1000
0000
,
0002
0000
0003
0100
0010
0000
0100
0020
,
0000
0000
0030
1000
0001
0000
0001
2000
,
0000
0000
3000
0001
0100
0001
0100
0000
,
0010
1000
0001
0000
0100
0010
1000
0001
,
1000
0000
0000
0010
0000
0000
0100
0000
,
0001
0000
0000
0010
0000
0000
0100
0000
,
1000
0000
0000
0010
0000
0100
0001
0100
,
0001
0000
0000
0001
0000
0000
1000
0001
,
1000
0000
0000
0010
0000
0000
0100
0000
,
0100
0000
0000
0010
0000
0000
1000
0000
,
1000
0000
0000
0001
0000
0010
0100
0010
,
0100
0000
0000
1000
1000
0000
0000
0000
,
1001
0000
0000
0001
0000
0000
0100
0000
,
0010
0000
0000
1000
0000
0000
0100
0000
,
0001
0000
0000
0010
0000
1000
0001
1000
,
0001
0000
0000
1001
0000
0000
1000
0001
,
1000
0000
0000
0010
0000
0000
0001
0000
,
0100
0000
0000
1000
0000
0000
0010
0000
,
0110
0000
0000
0100
0001
0100
0001
1000
,
0001
0000
0000
1001
0000
0000
1001
0000
,
1001
1000
0010
0100
0000
0001
0010
0100
,
0000
1000
0100
1000
0000
0001
0100
0001
,
0000
1000
0100
0010
0000
0001
0100
0010
,
0000
1000
1000
0010
0000
0100
0001
0001
,
1001
1000
0100
1000
0000
0010
0100
0001
,
0000
1000
0100
0010
0000
0001
0010
0100
,
0000
1000
0100
1000
0000
0010
0100
0100
,
0000
0001
0100
0100
0000
0010
1000
0001
,
2001
0001
3002
0100
,
0203
0010
0310
1000
,
2002
0000
0000
0000
,
3003
0000
0000
0000
;

//---------------dance-single - ----------------
#NOTES:
     dance-single:
     :
     Easy:
     3:
     0.254,0.304,0.111,0.243,0.000:
0000
0000
0000
0000
,
0000
0000
0000
0000
,
0000
0000
0000
0000
,
0000
0000
0000
0000
,
0000
0000
0000
0000
,
0000
0000
0000
0000
,
0000
0000
0000
0000
,
0000
0000
0000
0000
,
2000
3000
0002
0003
,
0200
0300
0010
1000
,
0002
0000
0000
0003
,
2000
0000
0000
3000
,
0002
0003
0100
0010
,
2000
3000
0010
0100
,
0020
0030
0100
0001
,
1000
1000
0001
0001
,
0200
0300
0010
1000
,
0020
0030
0100
0001
,
0020
0030
0100
1000
,
0100
1000
0010
0100
,
0002
0003
1000
0001
,
0200
0300
0010
1000
,
0020
0030
0100
0001
,
0100
0100
0010
0010
,
2000
3000
0001
0010
,
0200
0300
1000
0010
,
0200
0300
0001
0100
,
0010
1000
0001
1000
,
1001
0000
1000
0000
,
0001
0000
0001
0000
,
0100
0000
0100
0000
,
0010
0000
0010
0000
,
1000
0000
0100
0000
,
0010
0000
0001
0000
,
0100
0000
0010
0000
,
1000
0000
0001
0000
,
1001
0000
0100
0000
,
0010
0000
1000
0000
,
0010
0000
0100
0000
,
0001
0000
0001
0000
,
0010
0000
0100
0000
,
1000
0000
0010
0000
,
0100
0000
0001
0000
,
1001
0000
1001
0000
,
1001
1000
0001
0100
,
0010
1000
0010
0100
,
0001
0010
0100
1000
,
0001
1000
0101
1100
,
1001
0001
0100
0010
,
1000
0010
0100
0001
,
0010
0100
1000
0001
,
0010
0100
1000
0100
,
2001
3000
0020
0030
,
0200
0300
0001
1000
,
2002
0000
0000
0000
,
3003
0000
0000
0000
;

//---------------dance-single - ----------------
#NOTES:
     dance-single:
     :
     Beginner:
     1:
     0.106,0.149,0.044,0.000,0.000:
0000
0000
0000
0000
,
0000
0000
0000
0000
,
0000
0000
0000
0000
,
0000
0000
0000
0000
,
0000
0000
0000
0000
,
0000
0000
0000
0000
,
0000
0000
0000
0000
,
0000
0000
0000
0000
,
1000
0000
1000
0000
,
1000
0000
1000
0000
,
1000
0000
0000
0000
,
0001
0000
0000
0000
,
1000
0000
0000
0000
,
1000
0000
0000
0000
,
0001
0000
0000
0000
,
0001
0000
0001
0000
,
0100
0000
0000
0000
,
0100
0000
0000
0000
,
0010
0000
0000
0000
,
0010
0000
0010
0000
,
1000
0000
0000
0000
,
1000
0000
0000
0000
,
0001
0000
0000
0000
,
0001
0000
0001
0000
,
1000
0000
0000
0000
,
1000
0000
0000
0000
,
0010
0000
0000
0000
,
0010
0000
0010
0000
,
0110
0000
0000
0000
,
0100
0000
0000
0000
,
0001
0000
0000
0000
,
0001
0000
0000
0000
,
1000
0000
0000
0000
,
0001
0000
0000
0000
,
0100
0000
0000
0000
,
0010
0000
0000
0000
,
1000
0000
0000
0000
,
1000
0000
0000
0000
,
0001
0000
0000
0000
,
0001
0000
0000
0000
,
0100
0000
0000
0000
,
0100
0000
0000
0000
,
0010
0000
0000
0000
,
1000
0000
0000
0000
,
1001
0000
1000
0000
,
1000
0000
1000
0000
,
0001
0000
0001
0000
,
0001
0000
0001
0000
,
0100
0000
0100
0000
,
0100
0000
0100
0000
,
0010
0000
0010
0000
,
0010
0000
0010
0000
,
1001
0000
1000
0000
,
0001
0000
0001
0000
,
1001
0000
0000
0000
;
