#TITLE:Usatei;
#SUBTITLE:;
#ARTIST:IOSYS;
#TITLETRANSLIT:;
#SUBTITLETRANSLIT:;
#ARTISTTRANSLIT:;
#CREDIT:;
#BANNER:Usatei.png;
#BACKGROUND:usatei-bg.png;
#LYRICSPATH:;
#CDTITLE:cdtitle.png;
#MUSIC:usatei.ogg;
#OFFSET:0.720;
#SAMPLESTART:62.447;
#SAMPLELENGTH:14.980;
#SELECTABLE:YES;
#BPMS:0.000=190.001;
#STOPS:;
#BGCHANGES:2.500=Usatei.avi=1.000=0=0=0,
99999=-nosongbg-=1.000=0=0=0 // don't automatically add -songbackground-
;

//---------------dance-single - ----------------
#NOTES:
     dance-single:
     :
     Medium:
     7:
     0.483,0.616,0.185,0.028,0.000:
0000
0000
0000
0000
,
0000
0000
0000
0000
,
0000
0000
0000
0000
,
0000
0000
0000
0000
,
0000
0000
0000
0000
,
0000
0000
0000
0000
,
0000
0000
0000
0000
,
0000
0000
0000
0000
,
0000
0000
0000
0000
,
0000
0000
0000
0000
,
1000
0100
0010
0000
0001
0100
0010
0000
,
1000
0001
1000
0000
0001
0001
0001
0000
,
1001
1000
0010
0000
0100
0001
0100
0000
,
0010
1000
0001
0000
1000
1000
1000
0000
,
1001
0001
0010
0000
0100
1000
0100
0000
,
0010
0001
0100
0000
0010
0010
0010
0000
,
0110
0100
0001
0000
1000
0001
1000
0000
,
0001
1000
0001
1000
0002
0000
1003
0000
,
1001
1000
0100
0010
,
0001
0100
0010
1000
,
0010
0100
0001
0010
,
0100
1000
0001
0010
,
0100
1000
0010
0100
,
0001
1000
0001
1000
,
0100
0010
0001
0010
,
0100
1000
0001
1000
,
0101
0010
1000
0010
,
0100
0001
0010
0100
,
1000
0001
0010
0100
,
1000
0010
0100
0001
,
0010
0010
0100
1000
,
0010
0001
0100
1000
,
0100
0010
0001
0010
,
0100
1000
0001
1000
,
0010
0000
0100
0000
,
0001
0100
0001
0000
,
1000
0000
0010
0000
,
0100
0001
1000
0000
,
0001
0000
0010
0000
,
0100
1000
0001
0000
,
0100
0000
0010
0000
,
1000
0001
1000
0000
,
0001
0001
0100
0100
,
0010
0000
1000
0001
1000
0000
0000
0000
,
0001
0001
0010
0010
,
0100
0000
1000
0001
0100
0000
0000
0000
,
0010
0010
0100
0100
,
0001
0000
0010
0100
1000
0000
0000
0000
,
0101
0000
1100
0000
,
1100
0000
0101
0000
1000
0001
1000
0000
,
1001
0000
0001
0000
0100
0010
1000
0000
,
0001
0010
0001
0010
0100
1000
0001
1000
,
0001
0000
0100
0000
0010
0000
1000
0001
,
1000
0100
0010
0001
,
1001
0000
1000
0000
0010
0100
0001
0000
,
1000
0100
1000
0100
0010
0001
0100
0100
,
0001
0000
0100
0000
0010
0000
1000
0100
,
1000
0000
0001
0000
0100
0010
0110
0000
,
1001
0000
1000
0000
0001
0100
0010
0000
,
1000
0100
0010
0001
0100
0010
1000
0001
,
1000
0000
0001
0000
0100
0000
0010
0100
,
0010
1000
0001
0100
,
0101
0000
0010
1000
0001
0000
1000
0100
,
1000
0010
0100
0001
0000
0000
1000
0100
,
1000
0000
0010
0000
0100
0000
0001
0100
,
0001
0000
0100
0000
0010
1000
0001
0100
,
0101
0000
0100
0000
0010
1000
0001
0000
,
1000
0100
0010
0001
0100
0010
1000
1000
,
1000
0000
0001
0000
0010
0000
0100
1000
,
0100
0010
0001
0100
,
0110
0000
0010
0000
1000
0001
1000
0000
,
0001
0100
0010
1000
0001
0100
0001
1000
,
0001
0000
0010
0000
0100
0000
1000
0100
,
1000
0000
0010
0000
0100
0100
0101
0000
,
1001
0000
1000
0000
0010
0100
0001
0000
,
1000
0100
0010
0100
1000
0010
0100
0100
,
0001
0000
0100
0000
0010
0000
1000
0001
,
1000
0010
0100
0001
,
1001
0000
1000
0000
0000
0000
0100
0001
,
1000
0001
0100
0010
0000
0000
1000
0100
,
1000
0000
0010
0000
0100
0000
0001
0100
,
0001
0000
1000
0000
0001
0010
0100
1000
,
2002
0000
0000
0000
,
0000
3003
0000
0000
0000
0000
0000
0000
;

//---------------dance-single - ----------------
#NOTES:
     dance-single:
     :
     Challenge:
     12:
     1.000,1.000,0.083,0.195,0.862: // measure 1
0000
0000
0000
0000
,  // measure 2
0000
0000
0000
0000
,  // measure 3
0000
0000
0000
0000
,  // measure 4
0000
0000
0000
0000
,  // measure 5
0000
0000
0000
0000
,  // measure 6
0000
0000
0000
0000
,  // measure 7
1000
0000
0001
0100
0001
0000
1000
0000
0010
0000
0100
0001
0100
0000
0010
0000
,  // measure 8
1000
0000
0001
0010
0100
0000
1000
0000
0001
0000
0001
1000
0001
0000
0001
0000
,  // measure 9
1000
0000
0001
0010
0001
0000
1000
0000
0100
0000
0010
0001
0100
0000
0010
1000
,  // measure 10
0001
0000
0100
0000
0010
0000
1000
0001
1000
0000
0000
0000
0000
0000
0001
1000
,  // measure 11
0001
0000
0100
0000
0010
0000
1000
0100
1000
0000
0010
0000
0100
0000
0001
0010
,  // measure 12
0100
0000
1000
0000
0010
0000
0100
0001
1000
0000
0001
0000
0010
0000
0100
0000
,  // measure 13
1000
0000
0001
0100
0010
0000
1000
0000
0001
0000
0010
0100
1000
0000
0001
0000
,  // measure 14
1000
0000
0001
0100
0001
0000
1000
0000
1001
0000
0001
0000
1001
0000
1000
0000
,  // measure 15
1001
0000
0001
0100
0010
0000
1000
0000
0010
0000
0100
0001
1000
0000
0001
0000
,  // measure 16
0010
0000
0100
1000
0100
0000
0010
0000
0001
0000
0100
0000
0010
0000
1000
0001
,  // measure 17
1000
0000
0001
0100
0010
0000
1000
0000
0001
0000
0010
0100
1000
0000
0001
0100
,  // measure 18
0001
0000
0100
0000
0010
0000
1000
0001
1000
0000
0000
0000
MMMM
0000
0000
0000
,  // measure 19
0001
0100
0001
0100
0001
0100
0001
0100
,  // measure 20
0010
0100
0010
0100
0010
0100
0010
0100
,  // measure 21
0010
1000
0010
1000
0010
1000
0010
1000
,  // measure 22
0001
0000
1000
0000
0001
0000
1000
0000
0001
0000
1000
0001
1000
0000
0001
1000
,  // measure 23
0001
0100
0010
1000
0001
0100
0010
1000
,  // measure 24
0001
0010
0100
1000
0001
0010
0100
1000
,  // measure 25
0001
0100
0001
0010
0100
1000
0100
1000
,  // measure 26
0010
0000
0100
0000
0001
0000
0010
0000
0001
0000
0100
0010
0100
0000
0001
0000
,  // measure 27
1001
0100
0001
0010
0001
1000
0001
1000
,  // measure 28
0001
0010
0001
0100
0001
1000
0001
0100
,  // measure 29
0010
1000
0010
0100
0010
0001
0010
1000
,  // measure 30
0010
0000
0100
0000
0010
0000
0001
0000
0010
0000
0100
0010
0100
0000
0001
0000
,  // measure 31
1000
0100
1000
0010
1000
0001
1000
0010
,  // measure 32
1000
0100
1000
0010
1000
0001
1000
0010
,  // measure 33
0100
0001
0100
0010
0100
1000
0100
0010
,  // measure 34
0100
0000
0001
0000
0100
0000
0010
0000
0100
0000
0001
1000
0001
0000
1000
0001
,  // measure 35
1000
0000
0001
0100
0000
0001
0100
0000
0010
0000
1000
0100
0000
1000
0100
0000
,  // measure 36
0010
0000
0001
0000
0010
0000
0100
0000
1000
0000
0001
0100
0001
0000
1000
0100
,  // measure 37
0010
0000
0001
0010
0000
0001
0010
0000
0100
0000
1000
0010
0000
1000
0010
0000
,  // measure 38
0100
0000
0001
0000
0010
0000
0100
1000
0100
1000
0100
1000
0100
0000
0010
0001
,  // measure 39
0010
0000
0100
1000
0000
0001
0100
0000
0010
0000
1000
0100
0000
0001
0100
0000
,  // measure 40
1000
0000
0010
0000
0100
0000
0001
1000
0002
0000
1000
0000
2003
0000
3001
0100
,  // measure 41
0001
0000
0010
1000
0000
0010
0001
0000
0100
0000
0010
1000
0000
0001
0100
0000
,  // measure 42
0010
0000
1000
0000
0001
0000
1000
0000
0001
0100
0000
0001
0100
0000
0010
0000
,  // measure 43
1010
0000
1000
0010
0000
0100
0001
0000
1000
0000
0010
0100
0000
0001
1000
0000
,  // measure 44
0001
0000
0010
0000
0100
0000
1000
0000
0001
0000
1000
0000
1000
0000
0001
0100
,  // measure 45
0001
0000
1000
0100
0000
1000
0100
0000
0010
0000
0001
0100
0000
0001
0100
0000
,  // measure 46
0010
0000
0010
0000
1000
0000
1000
0000
0001
0000
1000
0000
0100
0000
0010
0001
,  // measure 47
0100
0000
0010
1000
0000
0001
0100
0000
0010
0000
1000
0100
0000
0001
0100
0000
,  // measure 48
1000
0010
0100
0001
0100
0010
0010
1000
,  // measure 49
0001
0100
0001
0100
0001
0100
0001
0100
0010
1000
0010
1000
0010
1000
0010
1000
,  // measure 50
0001
0100
0010
1000
0001
0010
0100
0010
0001
1000
0000
0001
1000
0000
0001
0000
,  // measure 51
1001
0000
1000
0001
1000
0000
0001
0100
0001
0000
1000
0000
1000
0000
0010
0000
,  // measure 52
1000
0001
1000
0010
1000
0100
0010
0010
,  // measure 53
0010
0001
0010
0100
1000
0000
0001
0100
0001
0000
0001
0000
1000
0000
1000
0000
,  // measure 54
0001
0100
0001
0000
0100
0010
0100
0000
0010
1000
0010
1000
0002
0000
1000
0000
,  // measure 55
1003
0000
0001
0100
0001
0000
1000
0100
1000
0000
0010
0000
0100
0000
0001
0000
,  // measure 56
1000
0001
0100
0001
0010
0001
0010
0010
,  // measure 57
0010
0100
1000
0100
0010
0000
0001
0100
0001
1000
0001
0000
1000
0000
1000
0000
,  // measure 58
0001
0000
1000
0100
1000
0000
0001
0100
0001
0000
0101
0000
2010
0000
0001
0000
,  // measure 59
3001
1000
0001
1000
0001
0000
1000
0100
1000
0000
0010
0000
0100
0000
0001
0000
,  // measure 60
1000
0000
0100
0000
0010
0000
0001
0000
1000
0000
0001
0100
0001
0100
0001
0100
,  // measure 61
0001
0100
0010
1000
0100
0000
0010
0001
0010
0000
0100
1000
0001
0000
1000
0000
,  // measure 62
0001
0100
0001
0000
1000
0100
1000
0100
0010
0001
0010
0001
2000
0000
0001
0000
,  // measure 63
3001
0100
0001
0100
0010
0100
0010
1000
0001
0000
1000
0100
1000
0100
0010
0001
,  // measure 64
1000
0010
0200
0000
0302
0000
2003
0000
3001
0010
0100
0010
0001
0000
2000
0000
,  // measure 65
3020
0000
0130
0001
0100
0000
0010
0100
0001
0000
1000
0100
0010
0001
0100
0010
,  // measure 66
2000
0000
3001
0100
0002
0000
1003
0001
1000
0100
1000
0100
0020
0000
0031
1000
,  // measure 67
0001
0000
1000
0001
1000
0000
0001
0100
0001
0000
0100
0000
0010
0000
1000
0000
,  // measure 68
1000
0001
0100
0001
0010
0001
1000
1000
,  // measure 69
1000
0100
1000
0010
1000
0000
0001
0000
0100
0010
0100
0000
0001
0000
0010
0000
,  // measure 70
0001
0000
1000
0100
1000
0000
0001
0100
0001
0000
1000
0001
2000
0000
0001
0000
,  // measure 71
3001
0000
0001
1000
0001
0000
1000
0100
1000
0000
0010
0000
0100
0000
0001
0000
,  // measure 72
1000
1000
0100
0100
0010
0010
0001
0001
,  // measure 73
0001
0000
1000
0100
1000
0000
0010
0000
0100
0000
0100
0000
0001
0000
0001
0000
,  // measure 74
0001
0100
0001
0000
0100
0010
0100
0000
0010
1000
0010
1000
0010
0100
0010
0100
,  // measure 75
0010
0000
1000
0001
1000
0000
0001
0100
0001
0000
0100
0000
0010
0000
1000
0000
,  // measure 76
0010
0000
0100
0000
0001
0000
0100
0000
1000
0000
0100
0001
0100
0001
1000
0001
,  // measure 77
1000
0010
0100
0001
1000
0000
0001
1000
0001
0000
1000
0000
0010
0000
0010
0100
,  // measure 78
0010
1000
0010
0000
0100
0010
0100
0000
0001
0000
1000
0001
1000
0000
1000
0000
,  // measure 79
0001
0100
0000
0010
1000
0001
0000
1000
0100
0000
0010
0001
0010
0100
1000
0001
,  // measure 80
1000
0000
0002
0000
0203
0000
0320
0000
1030
0001
0000
0100
0001
0100
0020
0000
,  // measure 81
2030
0000
3001
0100
0001
0100
0010
1000
0001
0000
1000
0100
0010
0001
1000
0001
,  // measure 82
1000
0100
1000
0100
0010
0100
0010
0100
0010
0001
0000
0010
0001
0000
1000
0000
,  // measure 83
2002
0000
0000
0000
,  // measure 84
0000
3003
0000
0000
0000
0000
0000
0000
;

//---------------dance-single - ----------------
#NOTES:
     dance-single:
     :
     Easy:
     4:
     0.318,0.538,0.158,0.019,0.000:
0000
0000
0000
0000
,
0000
0000
0000
0000
,
0000
0000
0000
0000
,
0000
0000
0000
0000
,
0000
0000
0000
0000
,
0000
0000
0000
0000
,
0000
0000
0000
0000
,
0000
0000
0000
0000
,
0000
0000
0000
0000
,
0000
0000
0000
0000
,
1000
0100
0010
0001
,
0100
0010
1000
1000
,
0001
0010
0100
1000
,
0010
0100
0001
0001
,
1000
0100
1000
0010
,
0100
0001
0100
0100
,
0010
1000
0001
1000
,
0001
0001
0001
0000
,
1000
0000
0100
0000
,
0010
0000
0001
0000
,
0100
0000
0010
0000
,
1000
0000
0010
0000
,
0100
0000
0001
0000
,
0010
0000
0100
0000
,
1000
0000
0100
0000
,
0010
0000
0001
0000
,
1001
0000
1000
0000
,
0010
0000
0100
0000
,
0001
0000
0010
0000
,
0100
0000
0010
0000
,
0001
0000
0100
0000
,
0010
0000
1000
0000
,
0010
0000
0100
0000
,
0001
0000
1000
0000
,
0001
0000
0000
0000
,
0100
0000
0000
0000
,
0010
0000
0000
0000
,
1000
0000
0000
0000
,
0001
0000
0000
0000
,
0010
0000
0000
0000
,
0100
0000
0000
0000
,
1000
0000
0000
0000
,
1001
0000
0001
0000
,
0100
0010
1000
0000
,
0001
0000
0010
0000
,
0100
1000
0001
0000
,
0100
0000
0010
0000
,
1000
0001
0100
0000
,
0110
0000
1001
0000
,
1100
0101
0011
1010
,
1001
1000
0100
0010
,
0001
0100
0010
1000
,
1000
0001
0100
0010
,
1000
1000
0001
0001
,
1001
1000
0100
0010
,
0001
0100
0010
1000
,
1000
0010
0100
0001
,
0010
0010
0100
0100
,
1100
1000
0010
0100
,
0001
0100
0010
1000
,
1000
0001
0010
0100
,
0010
0010
0001
0001
,
0101
0100
0010
1000
,
0010
0100
0001
1000
,
1000
0001
0010
0100
,
1000
1000
0001
0001
,
1001
1000
0010
0100
,
0001
0100
0010
1000
,
1000
0001
0010
0100
,
0100
0100
0010
0010
,
0011
0001
1000
0010
,
0100
0001
0100
0010
,
0010
1000
0001
0010
,
0100
0100
1000
1000
,
1001
0001
0100
0010
,
1000
0010
0100
0001
,
0001
0010
0100
1000
,
0001
0001
0100
0100
,
0110
0010
1000
0010
,
0100
0001
0010
0100
,
0100
1000
0010
0100
,
0001
0001
1000
1000
,
2002
0000
0000
0000
,
3003
0000
0000
0000
;

//---------------dance-single - ----------------
#NOTES:
     dance-single:
     :
     Hard:
     9:
     0.657,0.847,0.158,0.074,0.083:
0000
0000
0000
0000
,
0000
0000
0000
0000
,
0000
0000
0000
0000
,
0000
0000
0000
0000
,
0000
0000
0000
0000
,
0000
0000
0000
0000
,
0000
0000
0000
0000
,
0000
0000
0000
0000
,
0000
0000
0000
0000
,
0000
0000
0000
0000
,
1000
0000
0001
0100
0001
0000
0100
0000
0010
0000
1000
0100
1000
0000
0010
0000
,
0100
0000
0001
1000
0001
0000
0100
0000
0010
0000
0010
0000
0010
0000
0000
0000
,
1000
0000
0001
0100
0001
0000
0100
0000
0010
0000
1000
0001
1000
0000
0001
0000
,
0100
0000
0010
0100
0010
0000
1000
0000
0001
0000
0001
0000
0001
0000
0000
0000
,
1000
0000
0010
1000
0010
0000
0100
0000
0001
0000
1000
0100
1000
0000
0100
0000
,
0010
0000
0001
0010
0001
0000
0010
0000
0100
0000
0100
0000
0100
0000
0000
0000
,
1000
0000
0010
0100
0010
0000
0100
0000
0001
0000
1000
0100
1000
0000
0001
1000
,
0001
0100
0010
1000
0001
0000
1001
0000
,
1000
0100
0010
0001
,
0100
0010
1000
0010
,
0100
0001
0010
0100
,
1000
0000
0100
0000
1000
0000
0100
0010
,
0010
0001
0100
0010
,
1000
0001
0100
0010
,
1000
0001
0010
0100
,
1000
0000
0001
0000
0100
0000
0001
1000
,
1001
1000
0100
0010
,
0001
0100
0010
1000
,
0010
0100
0001
0010
,
0100
0000
1000
0000
0100
0000
0010
0001
,
0001
0100
0010
1000
,
0010
0000
0100
0000
0001
0000
1000
0100
,
0100
0010
0001
0100
,
0010
0000
1000
0000
0001
0000
0100
0100
,
0001
0000
1000
0000
,
0001
1000
0001
1000
0001
0000
0000
0000
,
1000
0000
0010
0000
,
0100
0001
0100
0001
0100
0000
0000
0000
,
0010
0000
1000
0000
,
0001
0010
0100
0010
0001
0000
1000
0000
,
0010
0000
0100
0000
,
0001
0100
0010
1000
0001
1000
0001
0000
,
1000
1000
0001
0001
,
0100
0010
1000
0001
1000
0000
0001
0000
,
0010
0010
0100
0100
,
1000
0100
0010
0001
1000
0000
0001
0000
,
0100
0100
0010
0010
,
1000
0100
1000
0001
0100
0000
0010
0000
,
1000
0100
1000
0100
0010
0001
0010
0001
,
1000
0000
0010
0000
0100
0000
0001
0000
1000
0001
0000
0001
1000
0000
0001
0000
,
1001
0001
0100
0010
1000
0001
0100
0001
,
0010
0001
0010
0001
0010
0001
0010
0010
,
0010
0100
1000
0010
0100
0001
1000
1000
,
1100
0110
0011
1001
,
0101
0100
0010
1000
0010
0001
0010
1000
,
0100
0010
0100
0010
0100
0010
0100
0100
,
0100
1000
0010
0001
0010
1000
0001
0001
,
0101
0000
0110
0000
1010
1000
1010
0000
,
1001
0001
0100
0010
1000
0100
0001
0100
,
1000
0000
0001
0000
1000
0000
0001
0000
1000
0000
0001
0000
1000
0100
1000
0100
,
1000
0000
0100
0000
0001
0000
0100
0000
0001
0000
0100
0000
1000
0001
1000
0001
,
1000
1000
0010
0010
0100
0100
0001
0001
,
1001
1000
0010
0001
0010
1000
0100
0010
,
0001
2000
0001
0001
3001
0100
0020
1000
,
1030
0001
0010
0100
1000
0001
0200
0010
,
0320
1000
2030
0001
3002
0010
0013
0100
,
1001
0000
1000
0010
0001
0010
1000
0100
,
0001
0100
1000
0100
0010
0001
0100
0010
,
1000
0010
0100
0001
0010
0001
0010
0100
,
1000
1000
0100
0100
0010
0010
0001
0001
,
1000
0010
0001
0010
1000
0100
0010
0001
,
0010
1000
0010
0100
1000
0010
0100
0001
,
1000
0100
1000
0010
0100
0001
0010
0001
,
0100
0100
0010
0010
1000
1000
1000
0001
,
1001
0001
0100
0010
1000
0010
0100
0001
,
0010
1000
0010
0001
0100
1000
0100
0010
,
1000
0001
0100
0010
1000
0100
0010
0001
,
1000
1000
0010
0010
0100
0100
0001
0001
,
1000
0100
0010
0001
0100
0010
1000
0001
,
0010
1000
0010
0001
0100
0010
1000
0100
,
0001
0100
1000
0010
0100
0001
0010
0100
,
0010
0010
0001
0001
1000
1000
0001
1000
,
2002
0000
0000
0000
,
0000
3003
0000
0000
0000
0000
0000
0000
;

//---------------dance-single - ----------------
#NOTES:
     dance-single:
     :
     Beginner:
     2:
     0.180,0.456,0.074,0.000,0.000:
0000
0000
0000
0000
,
0000
0000
0000
0000
,
0000
0000
0000
0000
,
0000
0000
0000
0000
,
0000
0000
0000
0000
,
0000
0000
0000
0000
,
0000
0000
0000
0000
,
0000
0000
0000
0000
,
0000
0000
0000
0000
,
0000
0000
0000
0000
,
1000
0000
1000
0000
,
0001
0000
0001
0000
,
0100
0000
0100
0000
,
0010
0000
0010
0000
,
1000
0000
0001
0000
,
0100
0000
0010
0000
,
1000
0000
0100
0000
,
0010
0010
0010
0000
,
0001
0000
0000
0000
,
0100
0000
0000
0000
,
0010
0000
0000
0000
,
1000
0000
0000
0000
,
0001
0000
0000
0000
,
0010
0000
0000
0000
,
0001
0000
0000
0000
,
0100
0000
0000
0000
,
1001
0000
0000
0000
,
0001
0000
0000
0000
,
0100
0000
0000
0000
,
0010
0000
0000
0000
,
1000
0000
0000
0000
,
0001
0000
0000
0000
,
0010
0000
0000
0000
,
0100
0000
0000
0000
,
1000
0000
0000
0000
,
0000
0000
0000
0000
,
0001
0000
0000
0000
,
0000
0000
0000
0000
,
0100
0000
0000
0000
,
0000
0000
0000
0000
,
0010
0000
0000
0000
,
0000
0000
0000
0000
,
1000
0000
0000
0000
,
1000
0000
1000
0000
,
0001
0000
0000
0000
,
0001
0000
0001
0000
,
0100
0000
0000
0000
,
0100
0000
0100
0000
,
0110
0000
0110
0000
,
1001
1001
1001
0000
,
1001
0000
1000
0000
,
0001
0000
0100
0000
,
0010
0000
0010
0000
,
1000
1000
1000
1000
,
1000
0000
1000
0000
,
0001
0000
0001
0000
,
0100
0000
0010
0000
,
0100
0100
0100
0000
,
0100
0000
0001
0000
,
0010
0000
0001
0000
,
0100
0000
0001
0000
,
0010
0010
0010
0010
,
0010
0000
0100
0000
,
1000
0000
0010
0000
,
0100
0000
0100
0000
,
0001
0001
0001
0000
,
0001
0000
1000
0000
,
0010
0000
0100
0000
,
0001
0000
0001
0000
,
1000
1000
1000
1000
,
1000
0000
0010
0000
,
0100
0000
0001
0000
,
0010
0000
0100
0000
,
0100
0100
0100
0000
,
0100
0000
0010
0000
,
0001
0000
0100
0000
,
0010
0000
1000
0000
,
0010
0010
0010
0010
,
0010
0000
0100
0000
,
0001
0000
1000
0000
,
0001
0000
0100
0000
,
0001
0001
0001
0000
,
1001
0000
0000
0000
;
