#TITLE:Usatei;
#ARTIST:IOSYS;
#FILE:usatei.ogg;
#BPM:190.001;
#GAP:-720;
#SAMPLESTART:62.447;
#SAMPLELENGTH:14.980;
#CDTITLE:cdtitle.png;
#SINGLE:ANOTHER:7:
00000000
00000000
00000000
00000000
00000000
00000000
00000000
00000000
00000000
00000000
42806280
46406660
B4802620
84604440
B6802420
86208880
A2604640
64646!60B0
B0402080
60208040
80206080
20406080
20408020
60406040
20806080
20406040
30804080
20608020
40608020
40802060
80802040
80602040
20806080
20406040
80002000
60206000
40008000
20604000
60008000
20406000
20008000
40604000
60602020
80464000
60608080
20462000
80802020
60824000
30001000
10304640
B0602840
68682464
60208046
40208060
B0408260
42428622
60208042
406028A0
B0406280
42862846
40602082
80406020
30846042
48260042
40802062
60208462
30208460
42862844
40608024
20806020
A0804640
62846264
60802042
40802230
B0408260
42824822
60208046
40802060
B0400026
46280042
40802062
60406824
B!B0000000
0B000000
;
#SINGLE:SMANIAC:12:
00000000
00000000
00000000
00000000
00000000
00000000
(4062604080262080)
(4068204060646060)
(4068604020862084)
(6020804640000064)
(6020804240802068)
(2040802640608020)
(4062804060824060)
(40626040B060B040)
(B062804080264060)
(8024208060208046)
(4062804060824062)
(6020804640000000)
62626262
82828282
84848484
(6040604060464064)
62846284
68246824
62682424
(8020608060282060)
B2686464
68626462
84828684
(8020806080282060)
42484648
42484648
26282428
(2060208020646046)
(4062062080420420)
(8060802040626042)
(8068068020480480)
(2060802424242086)
(8024062080420620)
(408020646!6040B!40B2)
(6084086020840620)
(8040604062062080)
(7048026040820640)
(6080204060404062)
(6042042080620620)
(8080404060402086)
(2084062080420620)
48262884
(6262626284848484)
(6284682864064060)
(B046406260404080)
46484288
(8682406260604040)
(6260282084846!6040)
(B062604240802060)
46268688
(8242806264604040)
(6042406260307!4060)
(B464604240802060)
(4020806040626262)
(6284208680246040)
(6260424286864!4060)
(B262828460424286)
(482!203!60B!40B828604!40)
(7!80A6208260428628)
(4!40B26!60B642428!8094)
(6046406260208040)
46268644
(4248406028206080)
(6042406260464!4060)
(B064604240802060)
44228866
(6042408020206060)
(6260282084848282)
(8046406260208040)
(8020602040262646)
(4826406460408082)
(8480282060464040)
(6208460420868246)
(406!603!20A!807602628!80)
(7!40B2628460428646)
(4242828286086040)
B!B0000000
0B000000
;
#SINGLE:BASIC:4:
00000000
00000000
00000000
00000000
00000000
00000000
00000000
00000000
00000000
00000000
40208060
20804040
60802040
80206060
40204080
20602020
80406040
60606000
40002000
80006000
20008000
40008000
20006000
80002000
40002000
80006000
B0004000
80002000
60008000
20008000
60002000
80004000
80002000
60004000
60000000
20000000
80000000
40000000
60000000
80000000
20000000
40000000
B0006000
20804000
60008000
20406000
20008000
40602000
A000B000
10309070
B0402080
60208040
40602080
40406060
B0402080
60208040
40802060
80802020
10408020
60208040
40608020
80806060
30208040
80206040
40608020
40406060
B0408020
60208040
40608020
20208080
90604080
20602080
80406080
20204040
B0602080
40802060
60802040
60602020
A0804080
20608020
20408020
60604040
B!B0000000
B0000000
;
#SINGLE:MANIAC:9:
00000000
00000000
00000000
00000000
00000000
00000000
00000000
00000000
00000000
00000000
(4062602080424080)
(2064602080808000)
(4062602080464060)
(2082804060606000)
(4084802060424020)
(8068608020202000)
(4082802060424064)
628460B0
40208060
20804080
20608020
40204028
80602080
40602080
40608020
40602064
B0402080
60208040
80206080
20402086
60208040
80206042
20806020
80406022
60004000
64646000
40008000
26262000
80004000
68286040
80002000
62846460
40406060
28464060
80802020
42864060
20208080
42462080
42428686
(4080206046064060)
B6284626
86868688
82482644
10A090B0
32848684
28282822
24868466
30A07470
B6284262
(4060406040604242)
(4020602060204646)
44882266
B4868428
64!466B28!84
7682462!28
A!847!46B!6892
B0486842
62428628
48268682
44228866
48684286
84824826
42482686
22884446
B6284826
84862428
46284286
44882266
42862846
84862842
62482682
88664464
B!B0000000
0B000000
;
#SINGLE:BEGINNER:2:
00000000
00000000
00000000
00000000
00000000
00000000
00000000
00000000
00000000
00000000
40004000
60006000
20002000
80008000
40006000
20008000
40002000
80808000
60000000
20000000
80000000
40000000
60000000
80000000
60000000
20000000
B0000000
60000000
20000000
80000000
40000000
60000000
80000000
20000000
40000000
00000000
60000000
00000000
20000000
00000000
80000000
00000000
40000000
40004000
60000000
60006000
20000000
20002000
A000A000
B0B0B000
B0004000
60002000
80008000
40404040
40004000
60006000
20008000
20202000
20006000
80006000
20006000
80808080
80002000
40008000
20002000
60606000
60004000
80002000
60006000
40404040
40008000
20006000
80002000
20202000
20008000
60002000
80004000
80808080
80002000
60004000
60002000
60606000
B0000000
;
