#TITLE:UFO Romance in the Night Sky;
#SUBTITLE:;
#ARTIST:ZUN;
#TITLETRANSLIT:;
#SUBTITLETRANSLIT:;
#ARTISTTRANSLIT:;
#CREDIT:;
#BANNER:RomanceintheNightSky-BNpng.png;
#BACKGROUND:UFORomanceintheSky-BG.png;
#LYRICSPATH:;
#CDTITLE:cdtitlegpop.png;
#MUSIC:Romance in the Sky.ogg;
#OFFSET:-1.540;
#SAMPLESTART:60.833;
#SAMPLELENGTH:12.000;
#SELECTABLE:YES;
#BPMS:0.000=162.000;
#STOPS:12.000=0.741
,26.000=0.185
,27.000=0.185
,41.000=0.741
,55.000=0.185
,56.000=0.185
,70.000=0.370
,165.000=0.741
,179.000=0.185
,180.000=0.185
,194.000=0.741
,208.000=0.185
,209.000=0.185
,223.000=0.741
,237.000=0.185
,238.000=0.185
,252.000=0.741
;
#BGCHANGES:;

//---------------dance-single - ----------------
#NOTES:
     dance-single:
     :
     Challenge:
     10:
     0.788,0.783,0.461,0.439,0.436:
0000
0000
0000
0000
,
0000
0000
0000
0000
,
0000
0000
0000
0000
,
0000
0000
0000
0000
,
0000
0000
0000
0000
,
0000
0000
0000
0000
,
0000
0000
0000
0000
,
0000
0000
1000
0100
1000
0000
0010
0000
0101
0000
0000
0000
0001
0000
1001
0000
,
1000
0001
0100
0100
0110
0000
0010
1010
,
1000
0000
0010
0000
0100
0001
0100
0000
1001
0000
1000
0000
0001
0100
0010
1000
,
0001
0000
1000
0000
1001
0001
1000
0000
0000
0000
1001
0000
0001
0000
0100
0000
,
0110
0000
0000
0000
0010
1000
0001
0000
1000
0100
1000
0000
0001
0000
0100
0000
,
1010
0000
0000
0000
0001
0000
1100
0000
1000
0000
0001
0000
1000
0100
0010
0000
,
0011
0000
0001
0000
1000
0100
0010
0100
1000
0000
0010
1000
0001
0000
0000
0000
,
0110
0000
0000
0000
1001
0000
1000
0001
2000
0000
0010
0000
3010
0000
0100
0000
,
0001
0000
0000
0200
0000
0000
0001
0000
0000
0301
0000
0000
2000
0000
0000
0000
3020
0000
0000
0000
0230
0000
0000
0000
,
0302
0000
0000
0000
0000
0000
0000
0000
2003
0000
0000
0000
0000
0000
0000
0000
3020
0000
0000
0000
0000
0000
0000
0000
0130
0000
0000
0001
0000
0000
0100
0000
0000
0001
0000
0000
2000
0000
0000
0000
0000
0000
0000
0000
0000
0000
0000
0000
,
3001
0000
0021
0000
0000
0000
0130
0000
1001
0000
0000
0000
1000
0001
1000
0000
,
0000
0001
1000
0010
0100
0001
0000
1000
,
0100
0000
1000
0000
0010
0100
0010
0100
0001
0010
0001
0000
0000
0000
1000
0100
,
1000
0000
0001
0010
0100
0000
1000
0000
0010
0000
0100
0001
0000
1000
0001
0000
,
1000
0000
0001
1000
0001
0000
0000
M0M0
0M0M
0000
0100
0010
0100
0010
0100
0000
,
0001
1000
0001
0000
1000
0000
0100
0000
0010
0000
0001
0000
0100
0000
0010
0000
,
0100
0001
1000
1000
0100
0010
0001
0100
,
0010
1000
0001
0001
0010
0100
0010
0001
,
0100
0010
1000
1000
0100
0010
0100
1000
,
0010
0100
0001
0001
0010
0100
0010
0100
,
1000
0010
0100
0100
0001
0100
0010
1000
,
0001
0010
0001
0001
0100
0010
1000
0001
,
0100
0001
0010
0010
0100
1000
0010
0100
,
0002
0100
0103
0010
1000
0010
0100
0001
,
2000
0001
0001
0001
3001
0000
0201
0000
,
0010
0000
0302
1000
1003
0010
0100
0001
,
2000
0100
0100
0100
3100
0000
0120
0000
,
0001
0000
0130
1000
0010
0100
0001
1000
,
0002
0100
0100
0100
0103
0000
0120
0000
,
1000
0000
0130
0001
0010
0100
1000
0010
,
0100
0001
2001
0000
0000
3001
0102
0100
,
0100
0000
0103
0000
1001
0000
1000
0100
0010
0000
0000
0000
0001
0000
0011
0000
,
0001
0000
0100
0000
0010
1000
0001
1000
0001
0000
0000
0000
1000
0000
2100
0000
,
0000
0000
0001
0000
3001
0100
0001
0100
0010
0000
0000
0000
0100
0000
0101
0000
,
0000
0000
0001
0000
1001
0001
2000
0000
0000
0000
3001
0000
1000
0100
1000
0100
,
0001
0000
0000
0000
0100
0000
0110
0000
0010
0000
0001
0000
1000
0010
1000
0010
,
0100
0000
0000
0000
0001
0000
2001
0000
0000
0000
0001
0000
3001
0100
0001
0100
,
1000
0000
0000
0000
0100
0000
0201
0000
0001
0000
0301
1000
0001
0000
0000
0000
,
0110
0000
0000
0000
1001
0000
1000
0100
2000
0000
0010
0000
0010
0000
0010
0000
,
3010
0100
0001
1000
0200
0010
0010
0010
,
0310
0001
0100
0100
0010
1000
1000
0001
,
0010
0000
0100
0000
0100
0000
1000
0000
0101
1000
0002
0000
0000
0000
1003
0000
,
1002
1000
1000
1000
2003
0010
0010
0010
,
3020
0100
0100
0100
0230
0001
0001
0001
,
0302
0100
0100
0100
0203
0001
0001
0301
,
0101
0000
0000
0000
1100
0000
0000
0000
1000
0001
1000
0001
1000
0000
1000
0000
,
0010
0100
0002
1000
1000
1000
1003
0010
,
0100
0001
0200
0010
0010
0010
0310
1000
,
1000
0000
1000
0000
0001
0000
0010
0000
0010
0100
0010
0100
1001
1000
0001
0000
,
0000
1000
0001
0100
0100
0100
0010
1000
,
1000
1000
0001
0010
0010
0010
0001
0100
,
0100
0100
0010
1000
1000
1000
0001
0100
,
0100
0000
0001
0000
1001
0000
0000
0000
0110
0000
0000
0000
1001
0000
1000
0001
,
2000
0000
0001
0001
3001
0001
0010
0100
,
2000
0000
0010
0010
3001
0100
0010
1000
,
0001
0000
0000
0000
1000
0000
0100
0000
0010
0000
0001
0000
1000
0001
1000
0001
,
2000
3000
0001
0000
1000
0000
0000
0000
0000
0000
0000
0000
0001
0000
0100
0000
0002
0000
0000
0000
0000
0000
0000
0000
0100
0000
0000
0000
0100
0000
0000
0000
,
0003
0100
0010
1000
0020
0000
0100
0100
,
1030
0001
0010
0100
1000
0010
0100
0100
,
0001
1000
0010
1000
1100
0000
0000
0101
,
0001
0000
0000
1000
0000
0000
0001
0000
0000
1000
0000
0000
0001
0000
1000
0000
0001
0000
1000
0000
0001
0000
1000
0000
0001
0000
0000
0000
0000
0000
0010
0000
0000
0100
0000
0000
0000
0000
0000
0000
0000
0000
1000
0000
0000
0000
0000
0000
,
0001
0000
0100
0010
0000
0000
1000
0000
0001
0000
1000
0100
0000
0000
0010
0000
,
0001
0000
0000
0000
0000
0100
0010
0000
0000
0000
1000
0100
0000
0000
0010
0000
,
0001
0000
0100
0001
0000
0000
0100
0000
0010
0000
1000
0000
0000
0000
1001
0000
,
0000
0000
0000
0000
0000
0000
0001
0000
0000
0000
0000
0000
0000
0000
0000
0000
0000
0000
0100
0000
0000
0000
0010
0000
0000
0000
0000
0000
0000
0000
1000
0000
0000
0100
0000
0000
0000
0000
0000
0000
0000
0000
0010
0000
0000
0000
0000
0000
,
0100
0000
1000
0010
0000
0000
0100
0000
0001
0000
0100
0000
0010
0000
0100
0000
,
0001
0000
1000
0000
0001
0000
0000
0000
1000
0000
0010
0100
0000
0000
0001
0000
,
0010
0000
0100
1000
0000
0000
0001
1000
0001
1000
0000
0000
0000
0000
0001
0000
,
0000
0000
0100
0000
0010
0000
0100
0010
0100
0000
0001
0100
0000
0000
0010
0000
,
1000
0000
0001
0010
0000
0000
0100
0000
1000
0000
0010
0100
0000
0000
0010
0000
,
0100
0000
0000
0000
0000
0000
0001
1000
0000
0000
0001
0100
0000
0000
0010
0000
,
1000
0000
0010
0100
0000
0000
0010
0000
2000
0000
0001
0000
0000
0000
3001
0000
,
0000
0000
0000
0000
0000
0000
0100
0000
0000
0000
0000
0000
0000
0000
0000
0000
0000
0000
0010
0000
0000
0000
0010
0000
0000
0000
0000
0000
0000
0000
1000
0000
0000
0100
0000
0000
0000
0000
0000
0000
0000
0000
1000
0000
0000
0000
0000
0000
,
0010
0000
0100
0001
0000
0000
0100
0000
0010
0000
1000
0000
0100
0000
1000
0000
,
0010
0000
0100
0000
0001
0000
0000
0000
1000
0000
0100
0001
0000
0000
0100
0000
,
1000
0000
0010
0001
0000
0000
0010
0000
0100
0001
1000
0000
0000
0000
1000
0000
,
0000
0000
1000
0001
1000
0001
1000
0001
1000
0000
0000
0010
0000
0000
0100
0000
,
0101
0000
0000
0001
0010
0100
1000
0000
1001
0000
0000
0001
0100
0000
0010
0000
,
1000
0000
0001
0000
0100
0010
0100
0001
0000
0000
0000
1000
0000
0000
0010
0000
,
0101
0000
0000
1000
0100
0010
0001
0000
1002
0000
0000
0000
0100
0000
0203
0000
,
0000
0000
0000
0000
0000
0000
0001
0000
0000
0000
0000
0000
0301
0000
0000
1000
0000
0000
0001
0000
0000
0000
1001
0000
0000
0000
0000
0000
0000
0000
0000
0000
0000
0010
0000
0000
0000
0000
0000
0000
0000
0000
0100
0000
0000
0000
0000
0000
,
0011
0000
0000
0100
0010
1000
0100
0000
0020
0000
0001
0000
0031
0000
0100
0000
,
0010
0000
1000
0000
0001
0100
0001
0000
2000
0000
0000
0100
0000
0000
0010
0000
,
3002
0000
0000
0103
0010
1000
0001
0000
1000
0000
0100
0000
0010
0000
0001
0000
,
0100
0000
0001
0000
0001
1000
0001
0000
2001
0000
0000
0010
0000
0000
3001
0000
,
1002
0000
0000
0103
0010
1000
0010
0000
0210
0000
0000
1000
0000
0000
0001
0000
,
0310
0000
1000
0000
0001
0100
0001
0000
0002
0000
0000
0010
0000
0000
1000
0000
,
0203
0000
0000
0310
1000
0010
1000
0000
1002
0000
0000
0000
1000
0000
2003
0000
,
0000
0000
3010
0000
0100
0010
1000
0000
1002
0000
0000
0010
0000
0000
0103
0000
,
0120
0000
0000
1030
0001
0100
0010
0000
1000
0000
0001
0000
0010
0000
0100
0000
,
1100
0000
0100
0000
0100
0010
0100
0000
2000
0000
0000
0010
0000
0000
0100
0000
,
3002
0000
0000
0103
0010
0100
0010
0000
1001
0000
1000
0000
0010
0000
0100
0000
,
0001
0000
1000
0000
1000
0100
1000
0000
2100
0000
0000
0100
0000
0000
3100
0000
,
0102
0000
0000
0100
0000
0000
0103
0000
2001
0000
0000
0001
0000
0000
3001
0000
,
2002
0000
3000
0000
1003
0100
0010
0000
0011
0000
0000
0010
0000
0000
0100
0000
,
1100
0000
0000
1000
0000
0000
0001
0000
0102
0000
0000
0000
0000
0000
2003
0000
,
0000
0000
3001
0000
0100
0010
1000
0000
2200
0000
0000
0001
0300
0000
3100
0000
,
0220
0000
0000
0001
0300
0000
0130
0000
0010
0000
0001
0000
0100
0000
0010
0000
,
0101
0000
0001
0000
0001
0100
0010
0000
1200
0000
0000
0302
0000
0000
1003
0000
,
2001
0000
0000
3020
0000
0000
0230
0000
2000
0000
0000
0000
0000
0000
3300
0000
,
1100
0000
1000
0000
0001
0100
0001
0000
1001
0000
0000
0101
0000
0000
0110
0000
,
1010
0000
0000
1000
0001
1000
0001
0000
0101
0000
0100
0010
0000
0000
1000
0000
,
0002
0000
1000
0000
1003
0100
1000
0001
0000
0000
0000
0110
0000
0000
1010
0000
,
1001
0000
0000
0001
0010
0100
1000
0000
2001
0000
0000
0000
0000
0000
3002
0000
,
0000
0000
1003
0000
0100
0010
0001
0000
1200
0000
0000
0001
0000
0000
1300
0000
,
0021
0000
0000
1030
0010
0001
1000
0000
0001
0000
0100
0000
0010
0000
1000
0000
,
1001
0000
0001
0000
0100
0010
0100
0000
0101
0000
0000
0110
0000
0000
1010
0000
,
1001
0000
0000
0100
0001
0100
0010
0000
2020
0000
0000
0000
0030
0000
3001
0000
,
1000
0100
0010
0001
0100
0010
1000
0001
1000
0000
0000
0000
0000
0000
0000
0000
;

//---------------dance-single - ----------------
#NOTES:
     dance-single:
     :
     Hard:
     8:
     0.571,0.626,0.434,0.276,0.168: // measure 1
0000
0000
0000
0000
,  // measure 2
0000
0000
0000
0000
,  // measure 3
0000
0000
0000
0000
,  // measure 4
0000
0000
0000
0000
,  // measure 5
0000
0000
0000
0000
,  // measure 6
0000
0000
0000
0000
,  // measure 7
0000
0000
0000
0000
,  // measure 8
0000
0000
1000
0100
0010
0000
0001
1001
,  // measure 9
0000
1000
0010
0010
0100
0000
0001
0101
,  // measure 10
0000
0100
0010
0010
1000
0000
1000
1100
,  // measure 11
0000
0001
1001
1000
0000
0001
0100
0010
,  // measure 12
1000
0000
0001
0101
0000
0100
0010
0010
,  // measure 13
1000
0000
0001
0101
0000
0100
0001
0001
,  // measure 14
1000
0000
0001
1001
0000
1000
1010
0000
,  // measure 15
0110
1001
0002
0100
,  // measure 16
0103
0000
0100
0000
0000
0000
0010
0000
1000
0000
0000
0100
0000
0000
0010
0000
,  // measure 17
0001
0000
0000
0100
0000
0000
0010
0000
1000
0000
0100
0000
1000
0000
0000
0000
,  // measure 18
0001
0101
0000
0100
0110
0000
0010
1000
,  // measure 19
0000
0001
1000
0100
0001
1000
0000
0010
,  // measure 20
0100
1000
0010
0100
0001
1000
0000
0001
,  // measure 21
0100
0001
0100
0010
1000
0001
1000
0100
,  // measure 22
1000
0001
0100
0000
0000
0210
0000
0300
,  // measure 23
1002
1003
0100
0010
,  // measure 24
0001
0000
0100
0010
1000
0000
0001
0000
,  // measure 25
0100
0000
0010
0100
0001
0000
0100
0000
,  // measure 26
0010
0000
1000
0100
0001
0000
0010
0000
,  // measure 27
1000
0000
0001
0001
0100
0000
1000
0000
,  // measure 28
0010
0000
0100
0001
1000
0000
0010
0000
,  // measure 29
0100
0000
0010
0100
0001
0000
0100
0000
,  // measure 30
0010
0000
1000
0100
0001
0000
0100
0000
,  // measure 31
1000
0100
2000
0000
0001
0000
0001
0000
,  // measure 32
3001
0100
0001
0100
0010
0000
2000
0000
,  // measure 33
0010
3002
0100
0100
,  // measure 34
0103
0010
0100
0010
1000
0000
0002
0000
,  // measure 35
0100
0023
0100
0100
,  // measure 36
0130
1000
0100
1000
0001
0000
0020
0000
,  // measure 37
1000
0230
0010
0010
,  // measure 38
0310
0220
0330
2002
,  // measure 39
3003
0000
1001
0001
0100
0000
0010
1010
,  // measure 40
0000
1000
0001
0100
0101
0000
1000
1100
,  // measure 41
0000
1000
0010
0100
0101
0000
0001
1001
,  // measure 42
0000
1000
1001
0001
0000
0100
0010
0100
,  // measure 43
1001
0000
0001
1100
0000
1000
0010
1000
,  // measure 44
0101
0000
0001
0110
0000
0100
1000
0010
,  // measure 45
1100
0000
0010
1001
0000
0100
1001
0000
,  // measure 46
0110
1001
2000
0001
,  // measure 47
3001
0100
0010
1000
0020
0000
0100
0000
,  // measure 48
0130
0001
0100
0010
1000
0100
1000
0100
,  // measure 49
0010
0001
0010
0001
1001
1000
0000
0001
,  // measure 50
0200
0010
0320
1000
,  // measure 51
2030
0000
0100
0000
3100
0010
0001
0001
,  // measure 52
1000
0100
0010
0001
1000
0010
0100
0001
,  // measure 53
1001
0000
0110
0000
1001
0000
1000
0100
,  // measure 54
1000
0100
0010
0001
0010
0001
1000
0010
,  // measure 55
1000
0010
0100
0001
0100
0001
1000
0100
,  // measure 56
0010
0001
1000
0010
0100
0001
1001
1000
,  // measure 57
0000
0000
0001
0100
0001
0100
0010
0100
,  // measure 58
0010
0100
0010
1000
0010
1000
0001
1000
,  // measure 59
0001
1000
0001
0010
0100
1000
0001
0100
,  // measure 60
0010
0100
0101
0000
1100
0000
1001
0000
,  // measure 61
1001
0000
0001
0100
0010
0100
0001
1000
,  // measure 62
0001
0000
1000
0100
2000
0000
3001
0100
,  // measure 63
0001
0000
0100
0000
0010
0000
1000
0000
0010
0000
0100
0000
0001
1000
0001
1000
,  // measure 64
0001
1000
0000
0001
1000
0000
0001
0100
,  // measure 65
0000
0010
0100
0001
1000
0000
0001
0010
,  // measure 66
0100
0000
1000
0000
0001
0000
1000
0000
0001
0100
0001
0000
1000
0000
0010
0000
,  // measure 67
1000
0100
1000
0000
0010
0000
0100
0000
0101
0000
0000
0000
0000
0000
1100
0000
,  // measure 68
0000
0000
0000
0000
0110
0000
0000
0000
1001
0000
0000
0100
0000
0000
0010
0000
,  // measure 69
1000
0000
0000
0010
0000
0000
0100
0000
0001
0000
0000
0010
0000
0000
0100
0000
,  // measure 70
1000
0000
0000
0000
0000
0000
0001
0000
0000
0000
0000
1000
0000
0000
0010
0000
,  // measure 71
0100
0000
0000
0010
0000
0000
1000
0000
0001
0000
0000
0000
0000
0000
1100
0000
,  // measure 72
0000
0000
0000
0000
0000
0000
0001
0000
1000
0000
0000
0001
0000
0000
0010
0000
,  // measure 73
0001
0000
0000
0100
0000
0000
0010
0000
1000
0000
0000
0000
0001
0000
0100
0000
,  // measure 74
0010
0000
1000
0000
0001
0000
0000
0000
1000
0000
0000
1000
0000
0000
0100
0000
,  // measure 75
0010
0000
0000
0010
0000
0000
0001
0000
1000
0000
0000
0000
0001
0000
0000
0000
,  // measure 76
0100
0000
0000
0000
0010
0000
0000
0000
1000
0000
0000
0010
0000
0000
0100
0000
,  // measure 77
0001
0000
0000
1000
0000
0000
0100
0000
1000
0000
0000
0010
0000
0000
0100
0000
,  // measure 78
0001
0000
0000
0000
0000
0000
1000
0000
0000
0000
0000
0001
0000
0000
0010
0000
,  // measure 79
0100
0000
0000
1000
0000
0000
0010
0000
0100
0000
0000
0000
0000
0000
1001
0000
,  // measure 80
0000
0000
0000
0000
0000
0000
0001
0000
1000
0000
0000
0100
0000
0000
1000
0000
,  // measure 81
0010
0000
0000
0100
0000
0000
0001
0000
1000
0000
0000
0000
0001
0000
0100
0000
,  // measure 82
0001
0000
0100
0000
0010
0000
0000
0000
1000
0000
0000
0100
0000
0000
1000
0000
,  // measure 83
0010
0000
0000
0100
0000
0000
0001
0000
1000
0000
0000
0000
0001
0000
0000
0000
,  // measure 84
0100
0000
0000
0000
0010
0100
0010
0100
0010
0000
0000
1000
0000
0000
0001
0000
,  // measure 85
0101
0000
0000
0100
0000
0000
0010
0000
1010
0000
0000
1000
0000
0000
0001
0000
,  // measure 86
1000
0000
0000
0000
0001
0000
0011
0000
0010
0000
0000
0100
0000
0000
1000
0000
,  // measure 87
1001
0000
0000
0001
0000
0000
0100
0000
0120
0000
0000
0000
0000
0000
2000
0000
,  // measure 88
0000
0000
0030
0000
0000
0000
3001
0000
1001
0000
0000
0001
0000
0000
0010
0000
,  // measure 89
0110
0000
0000
0100
0000
0000
1000
0000
0000
0000
0001
0000
0100
0000
0010
0000
,  // measure 90
0100
0000
0001
0000
1000
0000
0000
0000
1001
0000
0000
0001
0000
0000
0001
0000
,  // measure 91
1000
0000
0000
1000
0000
0000
1000
0000
0020
0000
0000
0000
0100
0000
0000
0000
,  // measure 92
0100
0000
0000
0000
0130
0000
0000
0000
0101
0000
0000
0001
0000
0000
1000
0000
,  // measure 93
1100
0000
0000
0100
0000
0000
0010
0000
0011
0000
0000
0001
0000
0000
1000
0000
,  // measure 94
0200
0000
0000
0000
0000
0000
0320
0000
0000
0000
0000
0031
0000
0000
1000
0000
,  // measure 95
0100
0000
0000
1000
0000
0000
0010
0000
0200
0000
0000
0000
0000
0000
0002
0000
,  // measure 96
0000
0000
0300
0000
0000
0000
1003
0000
1001
0000
0000
1000
0000
0000
0010
0000
,  // measure 97
0110
0000
0000
0100
0000
0000
0001
0000
0000
0000
1000
0000
0100
0000
1000
0000
,  // measure 98
0010
0000
0100
0000
0001
0000
0000
0000
1001
0000
0000
0100
0000
0000
0100
0000
,  // measure 99
0010
0000
0000
0010
0000
0000
0010
0000
2002
0000
0000
0000
0000
0000
0000
0000
,  // measure 100
0000
0000
0000
0000
3003
0000
0000
0000
1200
0000
0000
1000
0000
0000
1300
0000
,  // measure 101
2001
0000
0000
0001
0000
0000
3001
0000
0102
0000
0000
0100
0000
0000
0103
0000
,  // measure 102
0010
0000
0000
0000
1000
0000
0200
0000
0010
0000
0000
0010
0000
0000
0010
0000
,  // measure 103
0320
0000
0000
0001
0000
0000
0001
0000
0032
0000
0000
0000
0000
0000
2000
0000
,  // measure 104
0000
0000
0003
0000
0000
0000
3001
0000
1002
0000
0000
1000
0000
0000
1003
0000
,  // measure 105
2010
0000
0000
0010
0000
0000
3010
0000
0000
0000
0100
0000
0001
0000
0100
0000
,  // measure 106
0110
0000
0010
0000
1000
0000
0000
0000
1002
0000
0000
1000
0000
0000
1000
0000
,  // measure 107
2003
0000
0000
0010
0000
0000
3010
0000
1002
0000
0000
0000
1000
0000
0000
0000
,  // measure 108
1000
0000
0000
0000
1003
0000
0001
0000
2001
0000
0000
0001
0000
0000
3001
0000
,  // measure 109
0102
0000
0000
0100
0000
0000
0103
0000
0210
0000
0000
0010
0000
0000
0310
0000
,  // measure 110
2001
0000
0000
0000
0001
0000
3002
0000
0100
0000
0000
0100
0000
0000
0100
0000
,  // measure 111
0203
0000
0000
0010
0000
0000
0010
0000
0320
0000
0000
0000
0000
0000
2030
0000
,  // measure 112
0000
0000
0000
0000
0000
0000
3001
0000
1001
0000
0000
0100
0000
0000
0010
0000
,  // measure 113
1100
0000
0000
0010
0000
0000
0100
0000
0011
0000
0001
0000
0100
0000
0010
0000
,  // measure 114
1000
0000
0001
0000
1000
0000
0000
0000
1001
0000
0000
0100
0000
0000
0100
0000
,  // measure 115
0011
0000
0000
1000
0000
0000
1000
0000
2002
0000
0000
0000
0000
0000
0000
0000
,  // measure 116
0000
0000
3003
0000
;

//---------------dance-single - ----------------
#NOTES:
     dance-single:
     :
     Medium:
     5:
     0.414,0.501,0.390,0.249,0.043:
0000
0000
0000
0000
,
0000
0000
0000
0000
,
0000
0000
0000
0000
,
0000
0000
0000
0000
,
0000
0000
0000
0000
,
0000
0000
0000
0000
,
0000
0000
0000
0000
,
0000
0000
1000
0000
0100
0000
0000
0010
,
0000
0010
0001
0000
0100
0000
0000
0010
,
0000
1000
0001
0000
0010
0000
0000
0010
,
0000
1000
1001
0000
0000
0000
1000
0000
,
0010
0000
0000
0100
0000
0100
0001
0000
,
0010
0000
0000
0100
0000
1000
0010
0000
,
0100
0000
0000
0001
0000
1000
1001
0000
,
1001
1001
1001
0001
,
0000
0100
0000
0000
0010
0000
1000
0000
,
0000
0001
0000
0000
0010
0000
0100
0000
,
0000
1000
0000
0000
1001
0000
0000
1000
,
0000
0001
0001
0000
0100
0000
0000
0010
,
0000
0000
1000
0000
0100
0000
0000
0010
,
0000
0000
0001
0000
0100
0000
0000
0010
,
0000
1000
1001
0000
0000
0110
0000
0000
,
1001
1001
0000
1000
,
0000
0010
0000
0100
,
0000
0001
0000
0010
,
0000
0100
0000
1000
,
0000
0100
0000
1000
,
0000
0010
0000
0100
,
0000
0001
0000
0010
,
0000
0100
0000
1000
,
0001
1000
0002
0000
0000
0000
0000
0000
,
1003
0000
0100
0010
0001
0000
0100
0000
,
0100
0200
0000
0000
,
0310
0000
1000
0001
1000
0000
0001
0000
,
0100
0020
0000
0000
,
1030
0100
1000
0000
0010
0000
0100
0000
,
0100
0002
0000
0000
,
1003
1100
0000
0101
,
0000
0000
1001
0000
0001
0000
0000
0101
,
0000
0000
0010
0000
0110
0000
0000
1010
,
0000
0000
1000
0000
1001
0000
0000
0101
,
0000
1001
1000
0001
,
0101
0000
0000
0110
0000
0000
0010
0000
,
1010
0000
0000
1001
0000
0000
0100
0000
,
0011
0000
0000
1100
0000
0000
1001
0000
,
0110
1001
1001
0001
,
0100
0000
0010
1000
0001
0000
0100
0000
,
0001
0010
0100
0000
1000
0100
1000
0000
,
0001
0100
0001
0000
1001
0000
1000
0000
,
0001
0000
0100
0000
0010
1000
0010
1000
,
0001
0000
0010
0000
0100
1000
0100
1000
,
0001
0100
0001
0000
1000
0100
1000
0000
,
1001
0110
1001
1000
,
0001
0100
0001
0000
1000
0100
0010
0000
,
0001
0100
0001
0000
1000
0100
0010
0001
,
0010
0000
0100
1000
0100
0000
1100
0000
,
0001
0000
1000
0000
0001
0100
0001
0000
,
1000
0100
0010
0000
0001
0010
0100
0000
,
1000
0010
1000
0000
0001
0100
0001
0000
,
1000
0001
1001
0000
0110
0000
1001
0000
,
1001
0000
1000
0100
1000
0100
0000
0100
,
0000
0000
0100
0010
0100
0000
0010
0000
,
0001
1000
0001
0000
1000
0001
1000
0000
,
1001
0000
0001
0000
1000
0000
0100
0010
,
0000
0010
0100
0010
0000
0000
0100
1000
,
0100
0000
0010
0000
0001
1000
0001
0000
,
1000
0001
1000
0000
0001
0000
0000
0110
,
0000
1001
1001
1000
,
0010
0000
0100
0000
0001
0000
1000
0100
,
1000
0000
0000
0001
0000
0000
1000
0000
,
0010
0000
0100
0000
0001
0000
0000
1000
,
0000
0000
0000
0001
0001
0000
0100
0000
,
0010
0000
1000
0000
0000
0000
0001
1000
,
0001
1000
0001
0000
1000
0000
1000
0000
,
0001
0001
2002
0000
,
0000
3003
1000
0100
,
0010
0000
0001
0000
0100
0000
0010
1000
,
0001
0000
0000
1000
0000
0000
0001
0000
,
0010
0000
0100
0000
1000
0000
0000
1000
,
0000
0000
0000
0001
0001
0000
0100
0000
,
0010
0000
0100
0000
0000
0000
0001
0100
,
0001
0100
0001
0000
1000
0000
1000
0000
,
0001
0000
0001
1000
2002
0000
0000
0000
,
0000
3003
2002
3003
,
2200
3300
0202
0303
,
0001
1000
0101
0001
,
1100
0000
1000
0000
1001
0000
0000
1001
,
0000
0000
1000
0001
0202
0000
0303
0000
,
2200
0000
3300
0000
1000
0000
0100
0010
,
0100
0010
0100
0000
0220
0000
0330
0000
,
2200
3300
2002
0000
,
0000
3003
2200
3300
,
0202
0303
0110
0010
,
1000
0000
0101
0001
,
1100
0000
1000
0000
0110
0000
0000
0220
,
0000
0330
0220
0330
,
2002
0000
3003
0000
1000
0000
0001
0010
,
0001
0010
0001
0000
0022
0000
0033
0000
,
2020
3030
2002
0000
,
0000
0000
0000
0000
3003
0000
0000
0000
1000
0000
0000
1000
0000
0000
1000
0000
,
0001
0000
0000
0001
0000
0000
0001
0000
0100
0000
0000
0100
0000
0000
0100
0000
,
0010
0000
0000
0000
1000
0000
0001
0000
1000
0000
0000
1000
0000
0000
1000
0000
,
0100
0000
0000
0100
0000
0000
0100
0000
0020
0000
0000
0000
0000
0000
0001
0000
,
0000
0000
0000
0000
0000
0000
0001
0000
0031
0000
0000
0001
0000
0000
0001
0000
,
0100
0000
0000
0100
0000
0000
0100
0000
0010
0000
0000
0000
1000
0000
0001
0000
,
1000
0001
1000
0000
0101
0000
0000
0000
,
1100
0000
2002
0000
,
0000
0000
0000
0000
3003
0000
0000
0000
1000
0000
0000
1000
0000
0000
1000
0000
,
0010
0000
0000
0010
0000
0000
0010
0000
0100
0000
0000
0100
0000
0000
0100
0000
,
0001
0000
0000
0000
0000
0000
1000
0000
1000
0000
0000
1000
0000
0000
1000
0000
,
0001
0000
0000
0001
0000
0000
0001
0000
0200
0000
0000
0000
0000
0000
0010
0000
,
0000
0000
0000
0000
0000
0000
0010
0000
0310
0000
0000
0010
0000
0000
0010
0000
,
0100
0000
0000
0100
0000
0000
0100
0000
0001
0000
0000
0000
1000
0000
0100
0000
,
1000
0000
0100
0000
1000
0000
0000
0000
0001
0000
0000
0001
0000
0000
0001
0000
,
1000
0000
0000
1000
0000
0000
1000
0000
2002
0000
0000
0000
0000
0000
0000
0000
,
0000
0000
3003
0000
;

//---------------dance-single - ----------------
#NOTES:
     dance-single:
     :
     Easy:
     3:
     0.256,0.376,0.309,0.065,0.000:
0000
0000
0000
0000
,
0000
0000
0000
0000
,
0000
0000
0000
0000
,
0000
0000
0000
0000
,
0000
0000
0000
0000
,
0000
0000
0000
0000
,
0000
0000
0000
0000
,
0000
1000
0000
1000
,
0000
0001
0000
0001
,
0000
0100
0000
0010
,
0000
1001
0000
1000
,
0000
0100
0000
0010
,
0000
0001
0000
0100
,
0000
0010
1000
1001
,
1001
1001
0001
0000
,
0100
0000
0010
1000
,
0001
0000
1000
0000
,
0100
0010
0011
0000
,
0000
0001
0000
0100
,
0000
0010
1000
0001
,
0000
1000
1000
0001
,
0001
0000
1000
0000
0000
1000
0000
0000
,
1000
1001
0000
0000
,
0000
0001
0000
0000
,
0000
0100
0000
0000
,
0000
0010
0000
0000
,
0000
1000
0000
0000
,
0000
0100
0000
0000
,
0000
0010
0000
0000
,
0000
0001
0000
0000
,
1000
2000
0000
3000
,
0001
0100
1000
0010
,
0010
2000
0000
3000
,
0001
0010
0100
0010
,
0010
0002
0000
0003
,
1000
0100
0001
0010
,
0010
0200
0000
0000
,
0300
0110
0000
1001
,
0000
1001
0001
0000
,
0100
0000
0010
0000
,
1000
0000
0001
0000
,
1000
1001
0000
0001
,
0100
0000
0010
0000
,
1000
0000
0001
0000
,
0010
0000
0100
0110
,
0110
0110
0010
0000
,
0001
1000
0010
0000
,
0100
0000
0001
0001
,
1000
1000
1001
0000
,
0001
0000
0100
0010
,
1000
0000
0001
0000
,
1000
0100
0010
0001
,
1001
1001
1001
0001
,
0001
0100
0100
0010
,
0010
1000
1000
0001
,
0010
0100
1000
1001
,
0000
0001
0100
0001
,
0100
0010
1000
0010
,
1000
0001
0010
0100
,
1000
1100
1100
1100
,
1000
0000
0010
0100
,
0001
0000
1000
0100
,
1000
1000
0001
0001
,
1001
0000
0001
0000
,
0100
0010
1000
0000
,
0001
0010
0001
0001
,
0100
0000
0100
0000
0001
0000
0000
1000
,
0000
0001
1000
0000
,
0100
0000
0010
0001
,
1000
0000
0001
0000
,
0100
0000
0010
0000
,
0010
0000
1000
0000
,
0001
0000
0010
0100
,
1000
0001
1000
0000
,
0010
0000
1001
0000
,
0000
0000
1000
0000
,
0100
0000
0010
0001
,
1000
0000
0001
0000
,
0100
0000
0010
0000
,
0010
0000
1000
0000
,
0001
0000
1000
0100
,
0010
0100
1000
0000
,
0010
0000
1001
0000
,
0000
0000
1001
0000
,
0101
0000
1100
0000
,
1000
0000
0001
0000
,
0001
0000
1000
0000
,
1000
0000
0110
0000
,
0110
0000
0010
0100
,
0001
1000
0001
0000
,
0001
0000
2002
0000
,
3003
0000
1100
0000
,
0101
0000
1001
0000
,
0001
0000
0100
0000
,
0100
0000
0010
0000
,
0010
0000
1010
0000
,
0011
0000
0010
0000
,
0001
0000
1000
0000
,
1000
0000
0220
0000
,
0330
0000
1100
0000
,
1100
0000
1100
0000
,
0010
0000
0101
0000
,
0101
0000
0101
0000
,
1000
0000
1001
0000
,
1001
0000
1001
0001
,
0010
0100
1000
0000
,
1000
0000
0202
0000
,
0303
0000
0011
0000
,
0011
0000
0011
0000
,
0001
0000
1010
0000
,
1010
0000
1010
0000
,
0001
0000
0110
0000
,
0110
0000
0100
0001
,
1000
0001
1100
0000
,
1100
0000
2002
0000
,
0000
0000
3003
0000
;

//---------------dance-single - ----------------
#NOTES:
     dance-single:
     :
     Beginner:
     1:
     0.119,0.188,0.114,0.000,0.000:
0000
0000
0000
0000
,
0000
0000
0000
0000
,
0000
0000
0000
0000
,
0000
0000
0000
0000
,
0000
0000
0000
0000
,
0000
0000
0000
0000
,
0000
0000
0000
0000
,
0000
1000
0000
0000
,
0000
0001
0000
0000
,
0000
0100
0000
0000
,
0000
1001
0000
0001
,
0000
0000
0000
1000
,
0000
0000
0000
0010
,
0000
0000
0000
1001
,
0000
0000
1000
0000
,
0000
0000
0001
0000
,
0000
0000
0100
0000
,
0000
0000
0110
0000
,
0000
0010
0000
0000
,
0000
1000
0000
0000
,
0000
0001
0000
0000
,
0000
1001
0000
1001
,
0000
1001
0000
0000
,
0000
0000
0000
0000
,
0000
0100
0000
0000
,
0000
0000
0000
0000
,
0000
0010
0000
0000
,
0000
0000
0000
0000
,
0000
1000
0000
0000
,
0000
0000
0000
0000
,
0000
0001
0000
0000
,
0000
0100
0000
0100
,
0000
0100
0000
0000
,
0000
0010
0000
0010
,
0000
1000
0000
0000
,
0000
1000
0000
0001
,
0000
0001
0000
0000
,
0000
1000
0000
0001
,
0000
1001
0000
0000
,
0000
1000
0000
0000
,
0000
0010
0000
0000
,
0000
1001
0000
0001
,
0000
0000
0000
0100
,
0000
0000
0000
0010
,
0000
0000
0000
0110
,
0000
0000
0100
0000
,
0000
0000
0001
0000
,
0000
0000
1000
0000
,
0000
0000
1001
0000
,
0001
0000
0000
0000
,
1000
0000
0000
0000
,
0001
0000
0000
0000
,
1001
0000
0000
1000
,
0000
0000
0000
0001
,
0000
0000
0000
0100
,
0000
0000
0000
0110
,
0000
0010
0000
0000
,
0000
0100
0000
0000
,
0000
0001
0000
0000
,
0000
1001
0000
0000
,
1000
0000
0000
0000
,
0001
0000
0000
0000
,
0100
0000
0000
0000
,
1001
0000
0001
0000
,
0000
0000
1000
0000
,
0000
0000
0010
0000
,
0000
0000
1001
0000
,
1001
0000
1001
0000
,
0000
0000
0001
0000
,
0000
0000
0100
0000
,
0000
0000
0100
0000
,
0000
0000
0010
0000
,
0000
0000
1000
0000
,
0000
0000
0001
0000
,
0000
0000
1001
0000
,
0000
0000
0001
0000
,
0000
0000
0001
0000
,
0000
0000
1000
0000
,
0000
0000
1000
0000
,
0000
0000
0010
0000
,
0000
0000
0010
0000
,
0000
0000
0100
0000
,
0000
0000
0110
0000
,
0000
0000
0001
0000
,
0001
0000
0001
0000
,
0000
0000
1000
0000
,
1000
0000
1000
0000
,
0000
0000
0010
0000
,
0010
0000
0010
0000
,
0000
0000
0100
0000
,
0100
0000
0100
0000
,
0000
0000
0001
0000
,
0001
0000
1000
0000
,
0000
0000
0010
0000
,
0010
0000
0100
0000
,
0000
0000
1000
0000
,
1000
0000
0100
0000
,
0000
0000
0010
0000
,
0010
0000
0001
0000
,
0000
0000
1000
0000
,
0001
0000
1000
0000
,
0000
0000
0010
0000
,
0100
0000
0010
0000
,
0000
0000
0100
0000
,
0001
0000
1000
0000
,
0000
0000
0001
0000
,
0010
0000
0100
0000
,
0000
0000
1000
0000
,
0010
0000
0100
0000
,
0000
0000
0001
0000
,
1000
0000
0001
0000
,
0000
0000
1000
0000
,
0100
0000
0010
0010
,
0010
0000
0010
0000
,
0010
0000
1001
0000
,
0000
0000
1001
0000
;
