#TITLE:The Youkai Mountain;
#SUBTITLE:~ Mysterious Mountain;
#ARTIST:Colour Sound ~xi-on~;
#TITLETRANSLIT:;
#SUBTITLETRANSLIT:;
#ARTISTTRANSLIT:;
#CREDIT:;
#BANNER:bom-bn.PNG;
#BACKGROUND:bom-bg.PNG;
#LYRICSPATH:;
#CDTITLE:!rebirth.png;
#MUSIC:The Youkai Mountain ~ Mysterious Mountain.ogg;
#OFFSET:-3.540;
#SAMPLESTART:85.893;
#SAMPLELENGTH:12.000;
#SELECTABLE:YES;
#BPMS:0.000=62.500,31.000=54.000,31.500=25.000,32.000=170.000,176.000=168.000,180.000=170.000,300.000=17.000,300.000=150.000;
#STOPS:;
#BGCHANGES:;

//---------------dance-single - ----------------
#NOTES:
     dance-single:
     :
     Challenge:
     10:
     0.796,0.866,0.699,0.567,0.509: // measure 1
0000
0000
0000
0000
,  // measure 2
0000
0000
0000
0000
,  // measure 3
0000
0000
0000
0000
,  // measure 4
0000
0000
0000
0000
0000
0000
0000
0000
0000
0000
0000
0000
0000
0000
0000
1001
,  // measure 5
1001
0000
0000
0000
0000
0000
0000
0000
0000
0000
0000
0000
0000
0000
0000
0000
0000
0000
0000
0000
0000
0000
0000
0000
0000
0000
0000
0000
0000
0000
0000
0000
0000
0000
0000
0000
1000
0000
0000
0000
0000
0000
0100
0000
0000
0000
0000
0000
1000
0000
0000
0000
0000
0000
0000
0000
0000
0000
0000
0000
0100
0000
0000
0000
0000
0000
0000
0000
0000
0000
0000
0000
0000
0000
0000
0000
0000
0000
0000
0000
0000
0000
0000
0000
0010
0000
0000
0000
0000
0000
0000
0000
0000
0000
0000
0000
0001
0000
0000
0000
0000
0000
0000
0000
0000
0000
0000
0000
0000
0000
0000
0000
0000
0000
0000
0000
0000
0000
0000
0000
0000
0000
0000
0000
0000
0000
0000
0000
0000
0000
0000
0000
0100
0000
0000
0000
0000
0000
0010
0000
0000
0000
0000
0000
0100
0000
0000
0000
0000
0000
0000
0000
0000
0000
0000
0000
0001
0000
0000
0000
0000
0000
0000
0000
0000
0000
0000
0000
1000
0000
0000
0000
0100
0000
0000
0000
1000
0000
0000
0000
0100
0000
0000
0000
0000
0000
0000
0000
0000
0000
0000
0000
,  // measure 6
0010
0000
0000
0001
0000
0000
0100
0000
0010
0000
0000
1000
0000
0000
0001
0000
2000
0000
0000
0000
0000
0000
0010
0000
3020
0000
0000
0000
0030
0000
0110
0000
,  // measure 7
0210
0000
0000
0000
0000
0000
0300
0000
0001
0000
0000
0010
0000
0000
0100
0000
1000
0000
0000
0010
0000
0000
0100
0000
0001
0000
0000
0010
0000
0000
0001
0000
,  // measure 8
0100
0000
0000
0010
0000
0000
1000
0000
0001
0010
0100
1000
0001
0010
0100
1000
0001
0000
0000
0000
1000
0000
0000
0000
0010
0000
0000
0000
0100
0000
0000
0000
,  // measure 9
1001
0001
0100
0010
1000
0100
0110
0010
,  // measure 10
0001
0100
0010
1000
1001
0001
0100
0001
,  // measure 11
0010
0000
0100
0000
1100
0000
1000
0000
0010
0100
0001
0000
1000
0000
0001
0000
,  // measure 12
0011
0001
0011
0010
0110
0100
1100
1000
,  // measure 13
1001
0001
0101
0100
0110
0010
1010
1000
,  // measure 14
1001
0000
0001
0000
0011
0000
0010
0000
0001
0100
0010
0000
1010
0000
1000
0000
,  // measure 15
1001
0001
0101
0100
0110
0010
0110
0100
,  // measure 16
0101
0001
0011
0010
0110
0100
1100
1000
,  // measure 17
1001
0000
0001
0000
0101
0000
0100
0000
0010
1000
0001
0100
0001
0100
0001
0100
,  // measure 18
0001
1000
1100
0100
0110
0010
0011
0001
,  // measure 19
1001
0000
1000
0000
1010
0000
0010
0000
1000
0001
1000
0001
1000
0001
1000
0001
,  // measure 20
1000
0001
1000
0001
1000
0100
0010
0001
1000
0100
0010
0001
1000
0010
0100
0001
,  // measure 21
1000
0000
0001
0100
0010
1000
0001
0000
,  // measure 22
0011
0000
0110
0000
1100
0000
1000
0010
,  // measure 23
0100
0001
0010
0000
0110
0000
0110
0000
,  // measure 24
1100
0000
1000
0010
0100
0001
0100
0000
,  // measure 25
0110
0000
1010
1000
1001
0001
0100
0000
,  // measure 26
0101
0000
0000
0000
1002
0000
0000
0000
1000
0000
0000
0000
1003
0100
1000
0100
,  // measure 27
1000
0000
1000
0100
0010
0001
0100
0000
,  // measure 28
0110
0000
1010
0000
0101
0000
0001
0010
,  // measure 29
0100
1000
0010
0000
0101
0000
0101
0000
,  // measure 30
1001
0000
1000
0100
1000
0010
0100
0000
,  // measure 31
0101
0000
1001
1000
1100
0100
0110
0000
,  // measure 32
0011
0000
0000
0000
1002
0000
0000
0000
1000
0000
1003
0100
1000
0100
1000
0100
,  // measure 33
2000
0000
3002
0000
0100
0000
0103
0010
,  // measure 34
1000
0000
0001
0100
0001
0000
1000
0000
0020
0000
0000
0000
0230
0000
0000
0000
,  // measure 35
0000
0300
0102
0000
2000
0000
0000
3003
,  // measure 36
2100
0000
0002
0000
0000
3000
0103
0010
,  // measure 37
1000
0000
0001
0010
0100
0000
1000
0000
0002
0000
0000
0000
0100
0000
0000
0000
,  // measure 38
0100
0000
0103
0100
0010
1000
0010
0100
,  // measure 39
0002
1000
2003
0000
0100
0000
3100
0010
,  // measure 40
0001
0000
0100
0010
1000
0000
0001
0000
0202
0000
0000
0000
1000
0000
0000
0000
,  // measure 41
0000
0303
2200
0000
0001
0000
0000
3300
,  // measure 42
2002
0000
0010
0000
0000
3003
1000
0100
,  // measure 43
0010
0000
0001
0010
0001
0000
0010
0000
0001
1000
0001
1000
0001
1000
0001
1000
,  // measure 44
0001
1000
0001
1000
0001
0010
0100
1000
0001
0010
0100
1000
0001
0100
0010
1000
,  // measure 45
0002
0000
1000
0000
1003
0000
0100
0010
0001
0000
2000
0000
0010
0000
3020
0000
,  // measure 46
0230
0000
0000
0000
0000
0000
0001
0000
0000
0000
0000
0000
0301
0000
0000
0000
0000
0000
0010
0000
0000
0100
0000
0000
1000
0000
0000
0000
0000
0000
0010
0000
0000
0000
0000
0000
0100
0000
0001
0000
0100
0000
0001
0000
0000
0000
0000
0000
,  // measure 47
2000
0000
0000
3200
0000
0000
0302
0000
0023
0000
0000
2030
0000
0000
3002
0000
,  // measure 48
0200
0000
0000
1000
1000
0303
0101
0001
,  // measure 49
2002
0000
0000
0000
3003
0000
0000
0000
2100
0000
0000
3200
0000
0000
0302
0000
,  // measure 50
0023
0000
0000
2030
0000
0000
3020
0000
0032
0000
0000
0203
0000
0000
2300
0000
,  // measure 51
3002
0000
0000
0203
0000
0000
0320
0000
1030
0100
0010
0001
1000
0010
0100
0001
,  // measure 52
1000
11MM
M11M
MM11
,  // measure 53
1MM2
0000
1000
0000
1003
0000
0100
0010
0001
0000
2000
0000
0010
0000
3020
0000
,  // measure 54
0230
0000
0000
0000
0000
0000
0001
0000
0000
0000
0000
0000
0301
0000
0000
0000
0000
0000
0010
0000
0000
0100
0000
0000
0010
0000
0000
0000
0000
0000
0001
0000
0000
0000
0000
0000
0100
0000
0001
0000
0100
0000
0001
0000
0000
0000
0000
0000
,  // measure 55
2000
0000
0000
3020
0000
0000
0032
0000
2003
0000
0000
3002
0000
0000
0023
0000
,  // measure 56
0200
0000
0000
1000
1000
0330
0110
0010
,  // measure 57
0220
0000
0000
0000
0330
0000
0000
0000
0002
0000
0000
0203
0000
0000
2300
0000
,  // measure 58
3002
0000
0000
2003
0000
0000
3200
0000
0320
0000
0000
2030
0000
0000
3002
0000
,  // measure 59
0023
0000
0000
2030
0000
0000
3020
0000
0031
0100
0001
0100
0010
1000
0010
1000
,  // measure 60
0001
M1M1
1MM1
11MM
,  // measure 61
1MM1
1000
0100
0010
0001
0100
0101
0001
,  // measure 62
0010
0100
1000
0010
1010
1000
0100
0010
,  // measure 63
0001
0000
0000
0000
0011
0000
0001
0000
0010
0100
1000
0000
0001
0100
0001
0100
,  // measure 64
0001
0001
0100
0010
1000
0001
1001
1000
,  // measure 65
0100
0000
0010
0000
0001
0000
0100
0000
0110
0000
0010
0000
0100
0000
0100
0010
,  // measure 66
1000
0000
0000
0000
0001
0100
0010
1000
0100
0010
0001
0010
0100
1000
0100
1000
,  // measure 67
0001
0100
0110
0010
1010
1000
1100
0100
,  // measure 68
0110
0010
0011
0001
1001
1000
1010
0010
,  // measure 69
0110
0000
0100
0000
0101
0000
0001
0000
1000
0100
0010
0000
0011
0000
0001
0000
,  // measure 70
1000
0100
1000
0100
0010
0001
0010
0001
1000
0010
1000
0010
0100
0001
0100
0001
,  // measure 71
1000
0001
1000
0001
0100
0010
0100
0010
1000
0100
1000
0100
0010
0001
0010
0001
,  // measure 72
1000
0001
1000
0001
1000
0100
0010
0001
1000
0010
0100
0001
2000
0000
0000
0000
,  // measure 73
3000
0000
0000
0000
;

//---------------dance-single - ----------------
#NOTES:
     dance-single:
     :
     Hard:
     7:
     0.528,0.641,0.621,0.248,0.089:
0000
0000
0000
0000
,
0000
0000
0000
0000
,
0000
0000
0000
0000
,
0000
0000
0000
0000
0000
0000
0000
0000
0000
0000
0000
0000
0000
0000
0000
1001
,
1001
0000
0000
0001
1000
0100
0000
0010
0001
0000
0000
0100
0010
1000
0010
0100
,
0001
0000
0010
0000
0100
0000
1000
0000
0001
0000
0000
1000
1000
0000
0000
1001
,
1001
0000
0001
0100
0010
1000
0010
0100
,
0001
0000
0010
0000
0100
1000
0100
0010
0001
0000
0100
0000
0010
0000
1000
0000
,
1001
0001
0100
0010
1000
0001
1000
1000
,
0100
0010
0001
0100
0010
0010
1000
0010
,
0100
0001
0010
0010
0100
1000
0001
0100
,
0101
1001
1100
0110
,
0011
1001
1100
1001
,
0101
0110
1010
1001
,
1100
0110
0011
1001
,
0101
0110
1010
1001
,
1100
0110
0011
1001
,
1100
0110
1100
1001
,
0101
0110
1002
1000
,
1003
1001
1001
1001
,
1001
0000
1000
0100
0010
0001
0100
0000
,
0010
0000
1000
0000
0001
0000
0010
0100
,
1000
0010
0100
0000
0001
0000
0001
0000
,
0100
0000
0010
1000
0010
0100
0001
0000
,
0010
0000
0100
1000
0010
0100
0001
0000
,
1000
0002
0100
0103
,
0101
0000
0100
0010
1000
0010
0100
0000
,
0001
0000
0010
0000
0100
0000
1000
0100
,
0010
0001
0100
0000
0010
0000
0010
0000
,
1000
0000
0010
0100
0001
0100
0010
0000
,
1000
0000
0001
0010
0100
1000
0010
0000
,
0100
1002
1000
1003
,
1002
0000
0200
0000
0003
0000
0310
1000
,
0010
0100
0001
0010
0200
0000
2300
0000
,
0001
3000
0002
0000
0203
0000
0010
0300
,
0020
0000
2030
0000
0001
0000
3001
0100
,
0010
0100
0001
0010
0200
0000
1000
0000
,
0001
0010
0001
1300
,
1002
0000
0200
0000
0003
0000
0310
1000
,
0010
0100
0001
0010
0200
0000
2300
0000
,
0010
3000
0020
0000
0230
0000
0001
0300
,
0002
0000
2003
0000
0010
3000
0010
0100
,
0001
0100
0010
1000
0002
0000
1000
0000
,
1003
1100
0110
0011
,
1002
0000
1000
0000
1003
0100
0000
0010
,
0001
0000
0100
0010
1000
0001
1000
1000
,
0010
0000
0000
0100
0000
0000
0001
0000
0010
0000
0000
0100
0000
0000
1000
0000
,
0020
0000
0000
0100
0230
0000
0001
0001
,
0302
0000
0000
0000
0000
0000
0003
0000
1000
0000
0000
0100
0000
0000
1000
0000
,
0010
0000
0000
0100
0000
0000
0001
0000
0010
0000
0000
0001
0000
0000
0100
0000
,
0010
0000
0000
1000
0000
0000
0010
0000
0100
0000
0001
0000
0100
0000
0010
0000
,
1000
1100
0110
0011
,
1002
0000
1000
0003
1000
0100
0000
0010
,
0001
0000
1000
0100
1000
0001
0100
0100
,
0010
0000
0000
1000
0000
0000
0001
0000
0010
0000
0000
0100
0000
0000
1000
0000
,
0020
0000
0000
0100
0230
0000
0001
0001
,
0302
0000
0000
0000
0000
0000
0003
0000
1000
0000
0000
0010
0000
0000
0100
0000
,
0001
0000
0000
0100
0000
0000
0010
0000
1000
0000
0000
0100
0000
0000
0010
0000
,
0001
0000
0000
1000
0000
0000
0010
0000
0100
0000
0001
0000
0100
0000
0001
0000
,
0100
0101
0110
1010
,
2001
0010
0100
0010
,
0001
0010
0001
0100
,
0010
0100
0001
3010
,
1001
0001
0100
0010
1000
0010
0100
0001
,
0010
0100
1000
0001
2000
0000
0000
3010
,
0200
0000
0301
0010
0001
0100
0010
1000
,
0001
0101
0101
0101
,
0110
0110
0110
1010
,
1010
1010
1001
1001
,
1001
1100
0110
0011
,
1001
0101
0110
1010
,
1001
1100
1001
0101
;

//---------------dance-single - ----------------
#NOTES:
     dance-single:
     :
     Medium:
     5:
     0.396,0.418,0.295,0.225,0.000:
0000
0000
0000
0000
,
0000
0000
0000
0000
,
0000
0000
0000
0000
,
0000
0000
0000
0000
,
1000
0000
0001
0100
0010
0000
1000
0100
,
1000
0010
0100
0001
,
1000
0001
0100
0010
,
1000
0000
0100
0010
0001
0001
0001
0001
,
1002
1000
1000
1000
,
1000
1000
1000
1000
,
1000
1000
1000
1000
,
1003
0100
0010
0011
,
0001
0100
1010
1000
,
0100
0011
0100
0010
,
1010
0100
0001
1100
,
0010
0100
1001
0100
,
0010
1001
0010
0100
,
1100
0010
0100
0101
,
1000
0010
0102
0100
,
0010
2003
0100
3100
,
1100
0000
0100
0010
0001
0000
0100
0000
,
0010
0000
1000
0000
0010
0000
0100
0001
,
1000
0001
0010
0010
,
0100
0000
1000
0010
0100
0000
0001
0000
,
1000
0000
0001
0000
0100
0010
1000
0000
,
0001
2000
0010
0010
,
3010
0000
0100
0001
1000
0000
0001
0000
,
0010
0000
0010
0000
0100
0000
1000
0010
,
0100
0001
1000
1000
,
0010
0000
0100
0001
0100
0000
0010
0000
,
0100
0000
0001
0000
0010
0100
1000
0000
,
0010
0200
0001
0301
,
0102
2003
0000
3001
,
0100
0000
0010
1000
0002
0000
0023
0000
,
0000
0230
2300
0000
,
3002
0203
0000
0310
,
1000
0000
0010
0100
0002
0000
1000
0000
,
1000
1000
1000
1003
,
2001
3020
0000
0130
,
0001
0000
0100
0010
2000
0000
3020
0000
,
0000
0230
0302
0000
,
0023
0230
0000
1300
,
0010
0000
0100
0001
2000
0000
0001
0000
,
3001
0101
1100
0101
,
1002
0000
0000
0000
1003
1000
0000
0001
,
0001
0000
0000
0100
0100
0000
0010
1000
,
0001
0001
1000
1000
,
0010
0000
0010
0100
0002
0000
1000
0000
,
2003
3000
0001
0001
,
0100
0100
0010
0010
,
1000
0000
1000
0000
0001
0010
0001
0010
,
0001
0011
0011
0011
,
1001
0000
0001
0000
0100
0100
0000
0010
,
0010
0000
0000
1000
1000
0000
0001
0000
,
0010
0100
1000
0010
,
0100
0000
0100
0001
2000
0000
0001
0000
,
3002
0003
0100
0010
,
1000
0010
0100
0001
,
0010
0000
0100
0000
1000
0100
1000
0100
,
1000
1100
1100
1100
,
1001
0001
0100
0110
,
0010
1000
1001
0001
,
0010
0110
0100
1000
,
1001
0001
0100
0110
,
0010
1000
0002
1000
,
1003
0000
0010
0100
0001
0100
0010
1000
,
0001
0010
0100
1100
,
0010
0100
1001
0010
,
0100
0011
0100
1000
,
0110
0001
1000
0110
,
0001
1000
0011
0100
,
0010
1100
0001
1000
;

//---------------dance-single - ----------------
#NOTES:
     dance-single:
     :
     Easy:
     3:
     0.251,0.334,0.155,0.023,0.000:
0000
0000
0000
0000
,
0000
0000
0000
0000
,
0000
0000
0000
0000
,
0000
0000
0000
0000
,
1000
0000
0001
0000
,
0100
0100
0010
0000
,
1000
0000
0001
0000
,
0010
0100
1000
1000
,
1100
0000
0000
0101
,
0000
0000
0011
0000
,
0000
1010
0000
0000
,
0101
0001
0001
0100
,
0100
0100
0010
0010
,
0010
1000
1000
1000
,
0001
0001
0001
0010
,
0010
0010
0100
0100
,
0100
1000
1000
1000
,
0010
0010
0010
0100
,
0100
0100
0001
0001
,
0001
2000
0000
3000
,
1001
0001
0100
0010
,
1000
1000
0001
0010
,
0100
1000
0100
0100
,
0100
0010
0001
0100
,
0010
0010
0010
1000
,
0010
0100
0000
0000
,
1001
0001
0100
0010
,
0010
0010
1000
0010
,
0100
0001
0001
0001
,
0010
0100
1000
0001
,
0001
0001
0100
0100
,
0001
1000
0000
0000
,
1001
0001
0000
0100
,
0010
1000
0010
0010
,
0000
0100
0100
0000
,
0001
0001
0000
1000
,
0100
1000
0020
0000
,
0000
0000
0000
0030
,
0100
0100
0000
0001
,
0010
0100
1000
1000
,
0000
0010
0100
0000
,
0001
0100
0000
0010
,
1000
0010
0200
0000
,
0300
1001
1001
1001
,
1001
0000
0001
0100
,
0010
0000
1000
0010
,
0100
0000
0001
0000
,
1000
0000
0001
0000
,
1000
0000
0001
0000
,
0100
0000
0010
0000
,
1000
0000
0010
0100
,
0001
0001
0001
0001
,
1001
0000
1000
0010
,
0100
0000
0001
0010
,
0001
0000
0010
0000
,
0100
0000
1000
0000
,
0010
0000
0100
0000
,
0001
0000
0100
0000
,
0010
0000
1000
0010
,
0100
0100
0100
0100
,
1001
0000
0000
0101
,
0000
0000
0110
0000
,
0000
1010
0000
0000
,
1001
0000
0000
1100
,
0000
0000
0110
0000
,
0001
0100
0010
0100
,
0001
0001
0001
0100
,
0100
0100
0010
0010
,
0010
1000
1000
1000
,
0001
0001
0001
0010
,
0010
0010
0100
0100
,
0100
1000
1000
1000
;

//---------------dance-single - ----------------
#NOTES:
     dance-single:
     :
     Beginner:
     2:
     0.121,0.195,0.047,0.000,0.000:
0000
0000
0000
0000
,
0000
0000
0000
0000
,
0000
0000
0000
0000
,
0000
0000
0000
0000
,
1000
0000
0000
0000
,
0001
0000
0000
0000
,
0100
0000
0000
0000
,
0010
0000
0000
0000
,
1001
0000
0000
1000
,
0000
0000
1000
0000
,
0000
1000
0000
0000
,
0001
0000
0000
0001
,
0000
0000
0001
0000
,
0000
0001
0000
0000
,
0010
0000
0000
0010
,
0000
0000
0010
0000
,
0000
0010
0000
0000
,
0100
0000
0000
0100
,
0000
0000
0100
0000
,
0000
0100
0000
0000
,
1000
0000
0000
1000
,
1000
1000
0000
0000
,
0000
0001
0001
0001
,
0000
0000
0000
0010
,
0010
0010
0000
0000
,
0000
1001
0000
0000
,
0001
0000
0000
0100
,
0100
0100
0000
0000
,
0000
0010
0010
0010
,
0000
0000
0000
1000
,
1000
1000
0000
0000
,
0000
1001
0000
0000
,
1001
0000
0000
0001
,
0000
0000
0100
0000
,
0000
0100
0000
0000
,
0010
0000
0000
0010
,
0000
0000
1000
0000
,
0000
0000
0000
0000
,
1001
0000
0000
1000
,
0000
0000
0010
0000
,
0000
0100
0000
0000
,
0001
0000
0000
0010
,
0000
0000
0100
0000
,
0000
1000
1000
1000
,
1000
0000
0000
0000
,
0001
0000
0000
0000
,
0100
0000
0100
0000
,
0100
0000
0000
0000
,
0010
0000
0000
0000
,
0010
0000
0000
0000
,
0100
0000
0100
0000
,
0100
0100
0100
0100
,
0100
0000
0000
0000
,
0100
0000
0000
0000
,
0001
0000
0001
0000
,
1000
0000
1000
0000
,
0001
0000
0000
0000
,
0100
0000
0000
0000
,
0010
0000
0010
0000
,
0010
0010
0010
0010
,
0010
0000
0000
0010
,
0000
0000
0010
0000
,
0000
0010
0000
0000
,
0100
0000
0000
0100
,
0000
0000
0100
0000
,
0000
0100
0000
0000
,
0001
0000
0000
0001
,
0000
0000
0001
0000
,
0000
0001
0000
0000
,
1000
0000
0000
1000
,
0000
0000
1000
0000
,
0000
1000
0000
1001
;
