#TITLE:Reach for the Moon, Immortal Smoke;
#SUBTITLE:;
#ARTIST:ZUN;
#TITLETRANSLIT:;
#SUBTITLETRANSLIT:;
#ARTISTTRANSLIT:;
#GENRE:;
#CREDIT:;
#BANNER:Reach for the Moon, Immortal Smoke - BN.png;
#BACKGROUND:Reach for the Moon, Immortal Smoke - BG.png;
#LYRICSPATH:;
#CDTITLE:!rebirth.png;
#MUSIC:Reach for the Moon, Immortal Smoke.ogg;
#OFFSET:-0.440;
#SAMPLESTART:24.473;
#SAMPLELENGTH:14.700;
#SELECTABLE:YES;
#BPMS:0.000=158.000,30.000=164.000,56.000=160.000,60.000=148.000,62.000=145.000,63.000=156.000,96.000=160.000,128.000=164.000,328.000=158.000,392.000=164.000;
#STOPS:;
#BGCHANGES:;
#KEYSOUNDS:;

//---------------dance-single - ----------------
#NOTES:
     dance-single:
     :
     Challenge:
     13:
     1.000,1.000,0.200,0.654,1.000:
0000
0000
0000
0000
,
0000
0000
0000
0000
,
0000
0000
0000
0000
,
0000
0000
0000
0000
,
2000
0000
0000
0000
3010
0100
0002
0000
,
0023
0000
0230
0000
,
1300
0100
0010
0001
0010
0100
1000
0100
,
1000
0000
0100
0000
0010
0000
0001
0000
0001
0000
1000
0100
0010
0000
0001
0000
,
1000
0100
1000
0100
1000
0100
1000
0100
0010
0001
0010
0001
0010
0001
0010
0001
,
1000
0010
1000
0010
1000
0010
1000
0010
0100
0001
0100
0001
0100
0001
0100
0001
,
1000
0100
1000
0100
1000
0100
1000
0100
0010
0100
0010
0100
0010
0100
0010
0100
,
0010
0001
0010
0001
0010
0001
0010
0001
1000
0001
1000
0001
1000
0001
1000
0001
,
1000
0100
0010
0001
1000
0100
0010
0001
1000
0010
0100
0001
1000
0010
0100
0001
,
1000
0100
0010
0001
0010
0100
1000
0010
0100
0001
0010
0100
0010
0001
0100
0010
,
1000
0100
1000
0010
0100
0001
0010
0100
1000
0100
0010
0001
0010
0100
1000
0001
,
0010
0100
1000
0010
0100
0001
0010
0100
1000
0010
0100
0001
1000
0000
0001
0000
,
2000
0010
3010
0100
0001
0010
0200
1000
,
2300
0000
0001
0000
3001
0000
0100
0000
0000
0000
0010
0100
0001
0000
1000
0100
,
2000
0010
3020
0100
0230
0001
0302
1000
,
2003
0000
0001
0000
3001
0000
0100
0000
0010
0000
1000
0100
0010
0000
0001
0000
,
1001
1000
0010
0100
0101
0101
1001
0100
,
0101
0000
0010
0000
1000
0000
0001
0000
1100
0000
1000
0100
1000
0000
0010
0000
,
2000
3200
0302
2003
3002
0203
0320
0032
,
0203
0000
2300
0000
3002
0000
0023
0000
1030
0001
1000
0001
1000
0100
0010
0001
,
1000
0000
0010
0000
0100
0000
0001
0000
0010
0000
0100
1000
0000
0010
0100
0001
,
1000
0000
0010
0000
0100
0000
0001
0000
0010
0000
0100
1000
0000
0010
0100
0000
,
0101
0100
0110
0010
1010
1000
1001
0001
,
0101
0000
0100
0000
0010
0000
1000
0000
0001
0000
1000
0100
0000
0010
0000
0001
,
1001
1000
0010
0100
0101
1001
1100
0100
,
0110
0010
0001
1000
1010
0010
0100
0001
,
2000
3200
0302
2003
3002
0203
2300
3020
,
0032
0000
0000
2003
0000
0000
3200
0000
0000
0320
0000
0000
4030
0004
0000
0000
0000
0000
0000
0000
0000
3003
0000
0000
,
1000
0100
0010
0001
0100
0010
1000
0010
0100
0001
0010
0100
0010
0001
0100
0010
,
1000
0100
1000
0010
0100
0001
0010
0100
1000
0010
0100
0001
0100
0010
1000
0100
,
0010
0001
0010
0100
1000
0100
0010
0001
1000
0100
0010
0001
1000
0010
0100
0001
,
1000
0100
1000
0100
0010
0001
0010
0001
1000
0010
1000
0010
0100
0001
0100
0001
,
1000
0100
0010
0001
0100
0010
0100
0010
1000
0100
0010
0001
0010
0100
1000
0100
,
0010
0100
0010
0001
0100
0010
1000
0100
1000
0100
0010
0001
0100
0010
1000
0001
,
1000
0100
1000
0001
0100
0010
0100
0001
0100
0010
1000
0100
1000
0100
1000
0010
,
0100
0010
0100
0001
0010
0100
1000
0100
1000
0010
0100
0001
0100
0010
1000
0100
,
1000
0010
0001
0010
1000
0100
0010
0001
0100
0010
1000
0100
0010
0001
0010
0100
,
1000
0100
0001
0100
1000
0010
0100
0001
0010
0100
1000
0100
0010
0001
0100
0010
,
1000
0100
0001
0100
1000
0010
0100
0001
0010
1000
0010
0001
0100
0010
1000
0001
,
1000
0100
0001
0100
1000
0010
0100
0001
1000
0100
0001
0100
1000
0010
0100
0001
,
1000
0100
0001
0100
1000
0100
0001
0100
1000
0010
0001
0010
1000
0010
0001
0010
,
1000
0100
0001
0100
1000
0010
0001
0010
1000
0100
0010
0001
0100
0010
1000
0001
,
1000
0100
0001
0100
1000
0100
0001
0100
1000
0010
0001
0010
1000
0010
0001
0010
,
1000
0100
0010
0001
0100
1000
0100
0001
0010
1000
0010
0001
0100
0010
1000
0001
,
1M00
0000
00M0
0000
M000
0000
00M1
0000
0M00
0000
100M
0100
10M0
0000
M010
0100
,
0001
0100
0001
0100
0001
0100
0001
0100
0010
1000
0010
1000
0010
1000
0010
1000
,
0001
0010
0001
0010
0001
0010
0001
0010
0100
1000
0100
1000
0100
1000
0100
1000
,
0001
0100
0001
0100
0001
0100
0001
0100
0010
0100
0010
0100
0010
0100
0010
0100
,
0010
1000
0010
1000
0010
1000
0010
1000
0001
1000
0001
1000
0001
1000
0001
1000
,
0001
0010
0001
0010
0001
0010
0001
0010
0100
0010
0100
0010
0100
0010
0100
0010
,
0100
1000
0100
1000
0100
1000
0100
1000
0001
1000
0001
1000
0001
1000
0001
1000
,
0001
0100
0001
0100
0001
0100
0001
0100
0010
1000
0010
1000
0010
1000
0010
1000
,
0001
0010
0001
0010
0100
0010
0100
0010
0100
1000
0100
1000
0001
0010
0100
1000
,
0001
0100
0010
0100
0001
0010
0100
1000
0100
0010
0100
1000
0010
0100
0001
0010
,
0001
0100
0010
1000
0100
0010
0100
0010
0001
0100
0010
1000
0100
1000
0100
0010
,
0001
0010
0100
0010
0001
0100
0010
1000
0010
0100
0001
0100
1000
0100
0001
0010
,
0100
1000
0100
1000
0010
0100
0001
0010
1000
0010
0001
0100
0010
1000
0100
0001
,
0100
0010
0001
0100
0010
0001
0010
1000
0100
0010
0001
1000
0001
0100
0010
1000
,
0100
0010
1000
0010
0100
1000
0010
0100
0001
0100
0010
1000
0001
0010
0100
0010
,
0001
0100
0001
0100
0001
0100
0001
0100
0010
1000
0010
1000
0010
1000
0010
1000
,
0001
0100
0001
0100
0010
1000
0010
1000
0001
1000
0001
1000
0001
0010
0100
1000
,
0001
0100
0010
1000
1001
1100
0110
0010
,
0011
0001
1000
0100
0010
0011
0110
1100
,
1001
0001
0101
0100
0110
0010
1010
1000
,
1001
0000
0001
0000
0010
0000
0100
0000
1000
0000
0001
0100
0000
0010
1000
0010
,
0200
0001
0301
0010
0110
1100
1001
0001
,
0101
0100
0010
1000
0101
0010
0100
0001
,
2000
3200
0302
2003
3002
0203
0320
0032
,
0203
0000
0320
0000
2030
0000
3200
0000
1300
0000
0001
0100
0000
0010
0100
0001
,
1000
0100
0010
0001
1000
0100
0010
0001
1000
0010
0100
0001
1000
0010
0100
0001
,
1000
0100
0010
0001
0010
0100
1000
0100
0010
0001
0010
0100
1000
0100
0010
0001
,
1000
0100
1000
0010
0100
0001
0010
0001
0010
0100
1000
0100
1000
0010
0100
0001
,
0010
0100
0010
0001
0100
0010
1000
0100
0010
0100
1000
0010
0100
0001
0010
0001
,
0100
0001
0100
0010
1000
0100
1000
0100
0010
0001
0010
0001
1000
0100
0010
0001
,
1000
0010
0100
0001
0100
0010
1000
0010
0100
0001
0010
0001
0100
0010
0100
0001
,
1000
0100
1000
0100
1000
0100
1000
0100
0010
0001
0010
0001
0010
0001
0010
0001
,
1000
0000
0000
0100
0000
0000
0010
0000
0000
0001
0000
0000
4000
0000
0004
0000
0000
0000
0000
0000
0000
0000
0000
0000
0000
0000
0000
0000
0000
0000
0000
0000
0000
0000
0000
0000
0000
0000
0000
0000
0000
0000
0000
0000
0000
0000
0000
0000
,
30M3
0000
0M00
0000
M001
0010
010M
1000
00M1
0100
M001
0100
001M
1000
0M01
0010
,
M002
0100
0103
0010
2000
3200
0320
0001
,
0032
1000
1003
0010
0100
0002
2003
0100
,
3200
0010
0320
0001
0032
0100
0203
0010
,
0320
1000
1030
0001
0100
0010
1000
0001
,
0020
0100
0130
1000
0020
0230
0302
1000
,
2003
0100
3100
0010
0002
0100
0103
0010
,
2000
3200
0302
2003
3002
0203
0320
0032
,
0203
0000
2300
0000
3002
0000
0023
0000
0230
0000
0301
1000
0001
1000
0001
1000
,
0002
0100
0103
0010
2000
3200
0302
0100
,
0203
1000
1300
0010
0000
0200
0302
0203
,
0320
1000
2030
0001
3002
0010
0023
0100
,
0230
0000
1000
0000
1300
0100
0010
0001
1000
0100
0010
0001
1000
0010
0100
0001
,
2000
0010
3010
0100
0002
0023
0032
0100
,
0203
0010
0310
1000
0002
0010
0013
0100
,
2000
3200
0302
0203
2300
3020
0032
0023
,
2030
0000
0000
3200
0000
0000
0320
0000
0000
0032
0000
0000
4003
0400
0000
0000
0000
0000
0000
0000
0000
3300
0000
0000
,
1000
0100
0010
0001
1000
0100
0010
0001
1000
0010
0100
0001
1000
0010
0100
0001
,
1000
0100
1000
0010
0100
0001
1000
0010
0100
0001
1000
0100
1000
0100
0010
0001
,
1000
0100
1000
0100
0010
0001
0010
0001
1000
0010
1000
0010
0100
0001
0100
0001
,
0100
0010
1000
0100
0010
0100
0010
0001
0010
0100
0010
0100
1000
0010
0100
0001
,
1000
0100
1000
0100
1000
0100
1000
0100
0010
0001
0100
0010
1000
0001
1000
0001
,
1000
0100
1000
0100
1000
0100
1000
0100
0010
0001
0010
0001
0010
0001
0010
0001
,
1000
0100
0010
0001
1000
0100
0010
0001
1000
0010
0100
0001
1000
0010
0100
0001
,
1000
0100
0010
0001
0010
0100
1000
0010
1000
0001
1000
0001
1000
0001
1000
0001
,
1000
0100
0010
0001
1000
0010
0100
0001
0100
0010
1000
0100
0010
0001
0010
0100
,
1000
0010
0100
0001
0100
0010
1000
0100
1000
0100
0010
0001
0100
0010
1000
0001
,
1000
0100
1000
0100
0010
0100
0010
0100
0010
0001
0010
0001
1000
0001
1000
0001
,
1000
0100
0010
0001
0010
0100
0010
0001
0100
0010
1000
0100
0001
0100
1000
0010
,
0100
0001
0010
1000
0010
0001
0100
0010
1000
0100
0010
0100
1000
0010
0001
0010
,
1000
0100
0010
0001
0010
0100
1000
0010
0100
0001
0010
1000
0010
0001
0100
0010
,
1000
0100
0001
0100
1000
0100
0001
0100
1000
0010
0001
0010
1000
0010
0001
0010
,
1000
0100
0010
0001
1000
0100
0010
0001
1000
0001
1000
0001
1000
0001
1000
0001
,
1000
0000
0000
0000
;

//---------------dance-single - ----------------
#NOTES:
     dance-single:
     :
     Hard:
     8:
     0.664,0.672,0.377,0.177,0.012:
0000
0000
0000
0000
,
0000
0000
0000
0000
,
0000
0000
0000
0000
,
0000
0000
0000
0000
,
0000
0000
0000
0000
,
0000
0000
0000
0000
,
0000
0000
0000
0000
,
0000
0000
0000
0000
,
1000
1001
0001
0101
,
0100
0110
0010
1010
,
1000
0100
1000
0100
0010
0001
0010
0001
,
1000
0010
1000
0010
0100
0001
0100
0001
,
1000
0100
0010
0100
1000
0010
0100
0001
,
0100
0010
1000
0100
0010
0001
0010
0100
,
1100
0000
0100
0010
0011
0000
0001
1000
,
1100
0000
0000
0000
1000
0001
1000
0001
1000
0001
1000
0001
1000
0000
0001
0000
,
1001
0000
1000
0000
0001
0100
0010
0000
,
1001
0000
1000
0000
0100
0010
0001
0010
,
0100
1100
1001
0101
,
0110
0000
0010
1000
0010
0100
0001
0010
,
0110
0000
0100
1000
0010
0010
0100
0000
,
0101
0000
0001
1000
1100
0000
1000
0100
,
1000
0010
1000
0001
1000
0100
1000
0010
,
1000
0010
1000
0001
1001
0000
0001
0100
,
0010
0000
1000
0100
0010
0010
0001
0000
,
1001
0000
1000
0010
0100
0001
0001
0010
,
0010
0110
1100
1001
,
0101
0100
0010
1000
0010
0100
0001
1000
,
1001
0000
0001
0100
0010
0010
1000
0000
,
1001
0000
0001
0100
0110
0000
0010
1000
,
0001
0100
0001
0100
0010
1000
0010
1000
,
0001
0010
0100
1000
0001
0000
1000
0001
,
1000
1100
0100
0110
,
0010
0011
0001
1001
,
1000
1010
0010
0110
,
0100
0101
0001
1001
,
1000
1100
0100
1100
,
1000
1010
0010
0110
,
0100
0101
0001
0101
,
0100
0110
0010
0110
,
0010
1000
0010
1000
0001
0100
0001
0100
,
0001
0010
0001
0010
0100
0010
0100
0010
,
0100
1000
0100
1000
0010
0100
0010
0100
,
0001
1000
0001
1000
0001
0010
0001
0010
,
0001
0100
0010
1000
0001
0100
0010
1000
,
0001
0010
0100
1000
0100
0010
0001
0100
,
0010
1000
0010
0100
0001
0010
0001
0100
,
0010
1000
0100
0010
0001
1000
0001
1000
,
0001
0000
0000
0000
,
1000
0100
1000
0100
0010
0001
0010
0001
,
1000
0010
1000
0010
0100
0001
0100
0001
,
1000
0100
0010
0001
1000
0100
0010
0001
,
1000
0010
0100
0001
1000
0010
0100
0001
,
1000
0100
1000
0100
0010
0001
0010
0001
,
1000
0010
1000
0010
0100
0001
0100
0001
,
1000
0100
1000
0100
0010
0001
0010
0001
,
1000
0010
0100
0001
1000
0010
0100
0001
,
1000
0100
1000
0100
0010
0001
0100
0010
,
1000
0010
0100
0001
0100
0010
1000
0100
,
0010
0001
0010
0100
1000
0010
0100
0001
,
0100
0010
1000
0010
0100
0010
0100
0010
,
1000
0100
0010
0001
0010
1000
0010
0001
,
0100
0010
1000
0100
0001
0100
1000
0010
,
0100
0010
0100
0001
0100
0001
0100
0010
,
1000
0001
0010
0100
1000
0100
0010
0001
,
1001
0000
0001
0100
0010
0010
1000
0000
,
1001
0000
0001
0010
0000
0100
1000
0100
,
0011
1100
1001
0101
,
1001
1000
0010
0100
0000
0001
0100
0010
,
1010
0000
1000
0100
0010
0010
0001
0000
,
0101
0000
0100
0010
1010
0000
1000
0100
,
1000
0010
1000
0001
1000
0100
1000
0010
,
1000
0010
1000
0001
1001
0000
0001
1000
,
1001
0000
0001
0100
0010
0010
1000
0000
,
1001
0000
0001
0100
0000
0010
1000
0010
,
0110
0101
1001
1100
,
1001
1000
0100
0010
0000
0001
0010
0100
,
1100
0000
1000
0010
0100
0100
0001
0000
,
1001
0000
1000
0100
0011
0000
0100
0010
,
1000
0100
1000
0100
0010
0001
0010
0001
,
1000
0010
0100
0001
2000
0000
0001
0001
,
3001
0000
0000
0000
,
2001
0000
0001
0000
3001
0100
0020
0000
,
2030
0000
0100
0100
3000
0100
0200
0000
,
0320
0032
0203
2300
,
3200
0001
1000
0001
,
0320
0000
0100
0000
1030
0100
2000
0000
,
3200
0010
0320
0001
,
0031
0100
0010
1000
0001
0100
0010
1000
,
0001
0010
0100
1000
0002
0000
1000
0000
,
2003
0000
0010
0000
3010
0100
0002
0000
,
0023
0000
0100
0100
0030
0100
0200
0000
,
2300
3020
0032
0023
,
2030
0001
0010
0001
,
3200
0000
0010
0000
0310
0001
0200
0000
,
0320
1000
2030
0001
,
3001
0010
0100
1000
0100
0010
0001
0100
,
0010
1000
0010
0100
0002
0000
1000
0000
,
1003
0100
1000
0100
0010
0001
0010
0001
,
1000
0010
1000
0010
0100
0001
0100
0001
,
1000
0100
0010
0001
1000
0100
0010
0001
,
1000
0100
0001
0100
1000
0010
0001
0010
,
1000
0100
1000
0100
0010
0001
0010
0001
,
1000
0010
0100
0001
1000
0010
0100
0001
,
1000
0100
1000
0100
0010
0001
0010
0001
,
1000
0100
0001
0100
2000
0001
0001
0001
,
3001
0100
0010
0100
0001
0010
0100
0010
,
0001
0100
0010
1000
0100
0001
0100
1000
,
0010
0100
0001
0010
0001
0010
0100
1000
,
0100
0010
0100
1000
0010
0100
0001
0010
,
0001
0100
0010
1000
0100
0100
0100
0010
,
0001
0100
0010
1000
0010
0100
0001
0100
,
0010
0100
0010
0100
0001
1000
0001
1000
,
0001
0100
1000
0100
0001
1000
0100
0010
,
1001
0000
0000
0000
;

//---------------dance-single - ----------------
#NOTES:
     dance-single:
     :
     Medium:
     6:
     0.460,0.470,0.136,0.136,0.000:
0000
0000
0000
0000
,
0000
0000
0000
0000
,
0000
0000
0000
0000
,
0000
0000
0000
0000
,
0000
0000
0000
0000
,
0000
0000
0000
0000
,
0000
0000
0000
0000
,
0000
0000
0000
0000
,
1000
1000
0001
0001
,
0100
0100
0010
0010
,
1000
0001
0001
0000
0100
0010
0010
0000
,
1000
0100
0100
0000
0010
0001
0001
0000
,
1000
0100
0000
0010
0000
0001
0000
0100
,
0000
0010
0000
1000
0000
0010
0000
0100
,
0001
0001
0000
0100
0010
1000
0000
0001
,
1000
0001
1000
0001
1000
0001
1000
1000
,
1000
0000
0001
0000
0100
0010
1000
0000
,
0001
0000
0100
0000
0010
0000
0100
0001
,
1000
0001
0010
0100
,
1100
1000
0010
0100
,
0101
0000
0001
0000
1000
0100
1000
0000
,
0110
0001
1100
0001
,
1000
0100
1000
0000
0001
0100
0001
0000
,
1000
0100
0010
0001
2000
0000
0000
0000
,
3001
0000
0100
0000
0010
1000
0010
0000
,
0101
0000
0001
0000
1000
0000
0001
0010
,
0100
1000
0010
0100
,
1001
0001
0010
0001
,
0110
0000
0010
0000
1000
0010
0100
0000
,
0101
0001
1100
0010
,
1000
0100
1000
0000
0001
0100
0001
0000
,
1000
0100
0010
0001
2000
0000
0000
0000
,
3001
0001
0100
0100
,
0010
0010
1000
1000
,
0100
0100
0010
0010
,
0001
0001
0100
0100
,
0010
0010
1000
1000
,
0010
0010
0100
0100
,
0001
0001
0010
0010
,
0100
0100
1000
1000
,
0001
0100
0000
0010
1000
0010
0000
0100
,
0001
0100
0000
0010
1000
0001
0000
0010
,
0100
1000
0000
0100
0010
0001
0000
0100
,
0010
1000
0000
0010
0100
0001
0000
1000
,
0100
1000
0000
0001
0100
0001
0000
1000
,
0010
1000
0000
0001
0010
0001
0000
1000
,
0100
0010
0000
0001
0010
0100
0000
1000
,
0001
0100
0001
0100
0010
1000
0010
1000
,
1001
0000
0000
0000
,
1000
0100
0010
0001
,
0100
0010
1000
0010
,
0100
0001
0010
0100
,
1000
0100
0010
0001
,
0100
0001
0000
0100
0000
0010
0000
1000
,
0000
0010
0000
0100
0000
0001
0000
0010
,
0000
0100
0000
1000
0000
0100
0000
0010
,
0001
1000
0001
1000
0002
0000
0000
0000
,
1003
0100
0010
0000
0001
0000
0100
0000
,
0010
1000
0001
0000
0010
0000
0001
0000
,
0100
0010
1000
0000
0010
0000
0100
0000
,
0001
0100
0001
0000
0100
0000
0010
0000
,
1000
0100
0010
0000
0001
0000
0010
0000
,
0100
1000
0100
0000
0010
0000
0001
0000
,
0100
0010
1000
0000
0001
0100
0001
0000
,
1000
0100
0010
0001
2000
0000
0000
0000
,
3001
0000
0100
0000
0010
1000
0010
0000
,
0101
0000
0010
0000
1000
0000
0100
0010
,
0001
1000
0010
0100
,
1001
0010
0100
0001
,
1100
0000
0010
0000
0100
0001
1000
0000
,
0101
0010
1100
0001
,
1000
0100
0010
0000
0001
0010
0100
0000
,
1000
0001
1000
0001
2000
0000
0000
0000
,
3001
0000
0100
0000
0010
1000
0010
0000
,
0101
0000
0010
0000
1000
0000
0001
0010
,
0100
1000
0010
0100
,
1001
0010
0100
0001
,
1100
0000
0010
0000
0100
0001
1000
0000
,
0011
0100
1010
0001
,
1000
0010
0100
0000
0001
0100
0010
0000
,
1000
0100
0010
0001
2000
0000
0000
0000
,
3001
0000
0000
0000
,
2000
0000
0000
0000
3010
0100
0001
0000
,
0020
0000
0000
0000
0000
0100
0130
0000
,
1000
0010
0100
0001
,
2002
0000
0000
3003
,
2000
0000
0000
0000
3010
0100
0010
0000
,
0200
0000
0302
0000
,
1003
0100
1000
0000
0001
0100
0001
0000
,
1000
0100
0010
0001
2000
0000
0000
0000
,
3002
0000
0000
0000
0103
0010
1000
0000
,
0002
0000
0000
0000
0000
0000
0013
0100
,
1000
0010
0100
0010
,
2002
0000
0000
3003
,
0020
0000
0000
0000
0130
0001
0100
0000
,
0020
0000
2030
0000
,
3001
0010
0100
0000
1000
0100
0010
0000
,
0001
0100
0010
1000
0002
0000
0000
0000
,
1003
0100
0010
0000
0001
0100
0010
0000
,
1000
0000
0010
0000
0100
0001
0100
0000
,
0010
1000
0010
0000
0001
0100
0001
0000
,
1000
0000
0001
0000
0100
0010
1000
0000
,
0001
0000
0010
0000
0100
1000
0010
0000
,
0100
0001
0100
0000
0010
1000
0010
0000
,
0001
0010
0100
0000
1000
0100
0010
0000
,
0001
0100
0010
1000
0002
0000
0000
0000
,
1003
0000
0100
0000
0010
0001
0100
0000
,
0010
0000
1000
0000
0010
0100
0001
0000
,
1000
0100
1000
0000
0001
0100
0001
0000
,
1000
0000
0100
0000
0010
0001
0010
0000
,
0100
0000
1000
0000
0010
0100
0001
0000
,
1000
0100
1000
0000
0001
0100
0001
0000
,
1000
0100
0001
0000
0001
0100
1000
0000
,
0001
0100
0010
1000
0001
0000
0000
0000
,
1001
0000
0000
0000
;

//---------------dance-single - ----------------
#NOTES:
     dance-single:
     :
     Easy:
     3:
     0.301,0.336,0.029,0.171,0.000:
0000
0000
0000
0000
,
0000
0000
0000
0000
,
0000
0000
0000
0000
,
0000
0000
0000
0000
,
0000
0000
0000
0000
,
0000
0000
0000
0000
,
0000
0000
0000
0000
,
0000
0000
0000
0000
,
0000
1000
0000
0010
,
0000
0100
0000
0001
,
0010
0010
0100
0100
,
1000
1000
0010
0010
,
1000
0100
1000
0100
,
0010
0001
0010
0001
,
1000
0010
0100
0001
,
1000
0001
1000
0001
,
1001
0000
1000
0010
,
0100
0000
0001
0010
,
0001
0001
1000
1000
,
0010
0000
0100
0000
,
1001
0000
0001
0010
,
0001
0000
1000
0000
,
0010
0010
0100
0100
,
0001
1000
0001
0000
,
1000
0000
0100
0010
,
0001
0000
0100
0010
,
1000
1000
0001
0001
,
1000
0000
0010
0000
,
0100
0000
0001
0010
,
0001
0000
1000
0000
,
0010
0010
0100
0100
,
0001
1000
0001
0000
,
1000
0000
1000
0000
,
0010
0000
0010
0000
,
0100
0000
0100
0000
,
0001
0000
0001
0000
,
1000
0000
0100
0000
,
1000
0000
0100
0000
,
0010
0000
0001
0000
,
0010
0000
0001
0000
,
1000
1000
0001
0001
,
0100
0100
0010
0010
,
1000
1000
0100
0100
,
0010
0010
0001
0001
,
1000
0100
1000
0100
,
0010
0001
0010
0001
,
1000
0010
0100
0001
,
1000
0100
0010
0001
,
1000
0000
0000
0000
,
0001
0100
0001
0100
,
0010
1000
0010
1000
,
0001
0010
0100
1000
,
0100
0010
0001
0100
,
0010
1000
0010
1000
,
0010
0100
0010
0100
,
0001
0010
0100
1000
,
0100
0010
0001
1000
,
0001
0100
0001
0100
,
0010
1000
0010
1000
,
0001
0010
0100
1000
,
0001
0100
0010
1000
,
0001
0001
0100
0100
,
0010
0010
1000
1000
,
0001
0010
0001
0010
,
0100
1000
0010
0100
,
0001
0000
1000
0100
,
1000
0000
0010
0100
,
0001
0001
0100
0100
,
0010
0000
0000
0000
,
0010
0000
0100
0001
,
1000
0000
0001
0000
,
1000
0100
1000
0100
,
0010
0001
1000
0000
,
0001
0000
0100
0010
,
1000
0000
0001
0010
,
0100
0100
1000
1000
,
0001
0000
0000
0000
,
0100
0000
0010
1000
,
0001
0000
1000
0000
,
0001
0010
0100
1000
,
0010
0100
1001
0000
,
1001
0000
0000
0000
,
2000
0000
3010
0100
,
0002
0000
0003
1000
,
0010
0010
0100
0100
,
0002
0000
0000
0003
,
2000
0000
3010
0100
,
0020
0030
0200
0300
,
0001
0001
1000
1000
,
0001
0010
0002
0003
,
2000
0000
3010
0100
,
0002
0000
0003
1000
,
0100
0100
0010
0010
,
0002
0000
0000
0003
,
0200
0000
0310
1000
,
0002
0003
2000
3000
,
0010
0010
0100
0100
,
0001
1000
0002
0003
,
2000
0000
3010
0100
,
0002
0000
0003
1000
,
0001
0001
0100
0100
,
0020
0000
0000
0030
,
2000
0000
3010
0100
,
0002
0003
2000
3000
,
0010
0100
0010
0100
,
0001
0010
0200
0300
,
2000
0000
3010
0100
,
0002
0000
0003
1000
,
0010
0010
0100
0100
,
0002
0000
0000
0003
,
2000
0000
3010
0001
,
0200
0300
0020
0030
,
1000
0100
0001
0010
,
1000
0001
2002
0000
,
3003
0000
0000
0000
;

//---------------dance-single - ----------------
#NOTES:
     dance-single:
     :
     Beginner:
     2:
     0.141,0.202,0.018,0.000,0.000:
0000
0000
0000
0000
,
0000
0000
0000
0000
,
0000
0000
0000
0000
,
0000
0000
0000
0000
,
0000
0000
0000
0000
,
0000
0000
0000
0000
,
0000
0000
0000
0000
,
0000
0000
0000
0000
,
1000
0000
0000
0000
,
1000
0000
0000
0000
,
0001
0000
0000
0000
,
0001
0000
0000
0000
,
1000
0000
1000
0000
,
0001
0000
0001
0000
,
1000
0000
0001
0000
,
1000
0000
0001
0000
,
1001
0000
0000
0000
,
1000
0000
0000
0000
,
0010
0000
0010
0000
,
0100
0000
0000
0000
,
0001
0000
0000
0000
,
0100
0000
0000
0000
,
0010
0000
0010
0000
,
1000
0000
1000
0000
,
0001
0000
0000
0000
,
1000
0000
0000
0000
,
0010
0000
0010
0000
,
0100
0000
0000
0000
,
0001
0000
0000
0000
,
1000
0000
0000
0000
,
0001
0000
0001
0000
,
0100
0000
0100
0000
,
0001
0000
0000
0000
,
0001
0000
0000
0000
,
0100
0000
0000
0000
,
0100
0000
0000
0000
,
0010
0000
0000
0000
,
0010
0000
0000
0000
,
1000
0000
0000
0000
,
1000
0000
0000
0000
,
0001
0000
0001
0000
,
0100
0000
0100
0000
,
0010
0000
0010
0000
,
1000
0000
1000
0000
,
0001
0000
0001
0000
,
1000
0000
1000
0000
,
0001
0000
0001
0000
,
1000
1000
1000
1000
,
1000
0000
0000
0000
,
1000
0000
0000
0000
,
1000
0000
0000
0000
,
0100
0000
0000
0000
,
0100
0000
0000
0000
,
0010
0000
0000
0000
,
0010
0000
0000
0000
,
0001
0000
0000
0000
,
0001
0001
0001
0000
,
0100
0000
0100
0000
,
0010
0000
0010
0000
,
1000
0000
1000
0000
,
0001
0000
0001
0000
,
1000
0000
0100
0000
,
1000
0000
0100
0000
,
0010
0000
0001
0000
,
1000
1000
1000
0000
,
0001
0000
0000
0000
,
0100
0000
0000
0000
,
0010
0000
0010
0000
,
1000
0000
0000
0000
,
0001
0000
0000
0000
,
0010
0000
0000
0000
,
0100
0000
0100
0000
,
1000
0000
1000
0000
,
0001
0000
0000
0000
,
0100
0000
0000
0000
,
0010
0000
0010
0000
,
1000
0000
0000
0000
,
0001
0000
0000
0000
,
1000
0000
0000
0000
,
0010
0000
0010
0000
,
0100
0000
0100
0000
,
1001
0000
0000
0000
,
1000
0000
0000
0000
,
1000
0000
0000
0000
,
0010
0000
0010
0000
,
0100
0000
0000
0000
,
0001
0000
0000
0000
,
0001
0000
0001
0000
,
0100
0000
0100
0000
,
0010
0010
0010
0000
,
1000
0000
0000
0000
,
1000
0000
0000
0000
,
0001
0000
0001
0000
,
0100
0000
0000
0000
,
0010
0000
0000
0000
,
0010
0000
0010
0000
,
0100
0000
0100
0000
,
0001
0001
0001
0000
,
1000
0000
0000
0000
,
0100
0000
0000
0000
,
0010
0000
0001
0000
,
1000
0000
0000
0000
,
0001
0000
0000
0000
,
0100
0000
0100
0000
,
0010
0000
1000
0000
,
0001
0001
0001
0000
,
0100
0000
0000
0000
,
0010
0000
0000
0000
,
1000
0000
0100
0000
,
0010
0000
0000
0000
,
0001
0000
0000
0000
,
0100
0000
0100
0000
,
0001
0000
1000
0000
,
0010
0010
0010
0000
,
1001
0000
0000
0000
;
