#TITLE:P4U;
#SUBTITLE:;
#ARTIST:=NeutraL=;
#TITLETRANSLIT:;
#SUBTITLETRANSLIT:;
#ARTISTTRANSLIT:;
#CREDIT:;
#BANNER:P4U - BN.png;
#BACKGROUND:P4U - BG.png;
#LYRICSPATH:;
#CDTITLE:./CDTITLES/DANCE DANCE REVOLUTION 4THMIX.PNG;
#MUSIC:03 - P4U (short ver.).ogg;
#OFFSET:-0.808;
#SAMPLESTART:25.570;
#SAMPLELENGTH:15.000;
#SELECTABLE:YES;
#DISPLAYBPM:155.000;
#BPMS:0.000=155.070;
#STOPS:;
#BGCHANGES:;

//---------------dance-single - ----------------
#NOTES:
     dance-single:
     :
     Easy:
     4:
     0.277,0.276,0.050,0.000,0.000:
0000
0000
0000
0000
,
0000
0000
0000
0000
,
0000
0000
0000
0000
,
0000
0000
0000
0000
,
0100
0000
0010
1000
,
0001
0001
0001
0001
,
0010
0000
0001
1000
,
0100
0100
0100
0100
,
1000
0100
0000
0001
,
0000
1000
0000
0001
,
0000
0010
0000
0100
,
1000
0010
0100
0001
,
0001
0000
1000
0100
,
0000
0001
0000
1000
,
0010
0100
0001
1000
,
0010
0010
0100
0100
,
1000
0000
1000
0010
,
0100
0100
0100
1001
,
0010
0000
0010
1000
,
0001
0001
0001
0010
,
0100
0000
0100
1000
,
0001
0001
0001
0110
,
1000
0000
1000
0010
,
0100
0001
1000
0010
,
0001
0000
0000
0000
,
0001
0000
0000
0000
,
0010
0000
0100
0000
,
0010
0100
0001
1000
,
0100
0010
0001
1000
,
0001
0100
0010
1000
,
0010
1000
0001
0100
,
0010
0010
0010
0010
,
1000
1000
0000
0001
,
0000
0010
0000
0100
,
1000
0000
0001
0000
,
0100
0001
1000
0010
,
0100
0100
0100
0100
,
0010
0010
0010
0010
,
1000
0000
0001
0000
,
0100
0010
1000
0001
,
1000
0000
1000
0010
,
0100
0100
0100
1001
,
0010
0000
0010
1000
,
0001
0001
0001
0010
,
0100
0000
0100
1000
,
0001
0001
0001
0110
,
1000
0000
1000
0010
,
0100
0001
1000
0010
,
1000
0000
0001
0000
,
1000
0000
0001
0000
,
1000
0001
1000
0001
,
1000
0000
0000
1001
,
1000
0000
1000
0010
,
0100
0001
1000
0010
,
0100
0000
0100
0001
,
1000
1000
1000
1000
,
0001
0000
1000
0010
,
0100
0100
0100
0010
,
1000
0000
1000
0001
,
0100
0010
1000
0001
,
0100
0100
0000
0100
0100
0100
0100
0000
,
0100
0000
0000
0000
;

//---------------dance-single - ----------------
#NOTES:
     dance-single:
     :
     Medium:
     5:
     0.336,0.368,0.010,0.000,0.000:
0000
0000
0000
0000
,
0000
0000
0000
0000
,
0000
0000
0000
0000
,
0000
0000
0000
0000
,
0100
0100
0001
1000
,
0010
0000
0010
0100
0001
1000
0100
0000
,
1000
1000
0010
0100
,
0001
0000
0001
1000
0010
0100
0001
0000
,
1000
0000
0001
0000
,
0100
0100
0100
1000
,
0001
0001
0000
1000
,
0010
0000
0000
0000
0010
0100
0100
0000
,
0001
0000
0000
0001
1000
0000
0000
1000
,
0010
0000
1000
0000
0001
0000
0001
1000
,
0100
0100
0100
0100
,
1000
0000
1000
0000
1000
0001
1000
0001
,
0100
0000
0100
0010
,
1000
0000
0001
0000
1000
0000
0001
0100
,
1000
0000
0100
0001
,
1000
0000
0010
0000
0100
0000
0001
0100
,
1000
0000
0010
1000
,
0001
0000
0100
0000
0010
0000
1000
0100
,
0001
0000
0100
1000
,
0010
0010
1000
0001
,
0100
0000
0000
0000
0000
0000
0000
0010
,
0100
0000
0000
0000
0000
0000
0000
0010
,
0100
0000
0010
0000
,
0010
1000
0001
0100
,
1000
0010
0100
0001
,
1000
0100
0010
0001
,
0100
0001
1000
0010
,
0100
0000
0100
0000
0010
1000
0001
0100
,
0010
0000
0010
1000
,
0001
0001
0100
1000
,
0100
0000
0100
0001
,
1000
0000
0000
0000
0001
0001
0001
0000
,
0100
0000
0000
0010
1000
0000
0000
0001
,
0010
0000
0010
0000
0001
0000
1000
0010
,
0100
0001
1000
0010
,
1000
0000
1000
0000
1000
0001
1000
0001
,
0100
0001
1000
0010
,
0100
0000
0100
0000
0100
0000
0010
1000
,
0001
0000
0100
0010
,
1000
0000
1000
0000
1000
0000
0010
0100
,
0001
0000
1000
0010
,
1000
0000
0010
0000
0100
0000
0001
0010
,
0100
1000
1000
1000
,
0010
0010
0100
0000
,
0001
0000
1000
0000
,
0010
0000
0100
0000
,
0001
0100
0010
1000
,
0001
0100
0010
1000
0001
0000
1001
0000
,
0010
0000
0100
0001
,
1000
0000
0010
0000
0100
0000
0010
0010
,
1000
1000
0001
0100
,
0001
0000
1000
1000
0010
0000
0100
0100
,
0001
0000
1000
0010
,
0100
0000
0001
0000
1000
0000
0001
0001
,
0100
0000
0100
0000
0010
0000
1000
0001
,
0100
0000
0100
0010
1000
1000
0000
0000
,
0001
1000
0000
0001
1000
0001
1000
0000
,
0010
0000
0000
0000
;

//---------------dance-single - ----------------
#NOTES:
     dance-single:
     :
     Hard:
     8:
     0.479,0.552,0.171,0.000,0.055:
0000
0000
0000
0000
,
0000
0000
0000
0000
,
0000
0000
0000
0000
,
0000
0000
0000
0000
,
0001
0100
0000
0010
1000
0001
1000
0010
,
0100
0010
0000
0100
0001
1000
0010
0100
,
0001
0100
0000
1000
0010
0010
0000
0001
,
1000
0001
0000
1000
0001
0100
0100
0010
,
1000
0000
0000
1000
0000
0000
1000
0000
0000
0000
0001
0000
0100
0000
0001
0000
,
0100
0000
0000
0100
0000
0000
0100
0000
0000
0000
0010
0000
1000
0000
0010
0000
,
1000
0000
0000
1000
0000
0000
1000
0000
0000
0000
0001
0000
0100
0000
0001
0000
,
1000
0000
1000
0000
0001
0010
0100
0000
,
1000
0000
1000
0001
0100
0000
0100
0010
,
1000
0000
0000
1000
0000
0000
1000
0000
0000
0000
0001
0000
0001
0000
0100
0000
,
0101
0100
1100
0100
,
0010
0000
0100
0000
0010
0100
0001
1000
,
0010
0000
0010
0000
1000
0100
0010
0001
,
0100
0000
0010
0000
1000
0010
0010
0000
,
1000
0000
0001
0000
0100
0010
1000
0001
,
0100
0000
0001
0000
1000
0100
1000
0100
,
0001
0000
0100
0000
1000
0010
0001
0100
,
1000
0000
0001
0000
0100
0100
0001
0000
,
1000
0000
0001
0000
0100
0010
1000
0100
,
0001
0000
0100
0000
1000
0100
1000
0100
,
0010
0000
0000
0000
0000
0000
0000
1000
,
0001
0000
0000
0000
0000
0000
0000
0100
,
0010
0000
1000
0001
,
0100
0000
0010
0000
1000
0001
0100
0010
,
1000
0000
0001
0000
0100
0010
0100
0001
,
1000
0000
0010
0000
0100
0001
1000
0000
,
0001
0000
0100
0000
0001
1000
0100
0010
,
0100
0000
1000
0000
1000
0001
0010
0001
,
1000
0000
0000
1000
0000
0000
1000
0000
0000
0000
0001
0000
0100
0000
0001
0000
,
0010
0000
0000
0010
0000
0000
0010
0000
0000
0000
0100
0000
1000
0000
0001
0000
,
0100
0000
0000
0100
0000
0000
0100
0000
0000
0000
0010
0000
1000
0000
0010
0000
,
0001
0000
1000
0000
0001
0001
1000
0000
,
0001
0000
0000
0001
0000
0000
0001
0000
1001
0000
0000
0000
1100
0000
0000
0000
,
1100
0000
0000
1000
0000
0000
1000
0000
0000
0000
0010
0000
0100
0000
0001
0000
,
0011
0010
1010
0010
,
1000
0000
0010
0000
0100
0001
1000
0010
,
0100
0000
0010
0000
1000
0100
0010
0001
,
1000
0000
0010
0000
0100
0001
0100
0000
,
1000
0000
0001
0000
0010
1000
0010
0100
,
1000
0000
0010
0000
0100
0001
0100
1000
,
0100
0000
0001
0000
0010
1000
0010
0001
,
1000
0000
0010
0000
0100
0001
1000
0000
,
0001
0000
0100
0000
0010
1000
0001
0010
,
1000
0000
0010
0000
0001
0100
0100
0000
,
1001
0001
0110
0100
,
1010
0010
1001
1000
,
0011
1100
0011
1100
,
0001
0000
0100
0000
0010
0000
1000
0000
0001
1000
0001
1000
0000
0000
0000
0000
,
1001
0000
0100
0000
0010
1000
0010
0100
,
0001
0000
0010
0000
0100
1000
1000
0000
,
0010
0000
0100
0000
0001
0100
1000
0100
,
0001
0000
1000
0000
0010
0100
0001
0001
,
1000
0000
0010
0000
0100
0001
0100
0010
,
1000
0000
0001
0000
0010
0010
0100
0000
,
1000
0000
0001
0000
0100
0100
0010
0010
,
0001
0000
0100
0000
0010
0100
0100
0010
,
0001
0001
0000
1000
0010
1000
0001
0000
,
1100
0000
0000
0000
;

//---------------dance-double - ----------------
#NOTES:
     dance-double:
     :
     Easy:
     4:
     0.285,0.307,0.070,0.000,0.000:
00000000
00000000
00000000
00000000
,
00000000
00000000
00000000
00000000
,
00000000
00000000
00000000
00000000
,
00000000
00000000
00000000
00000000
,
10000000
00000000
00010000
00000000
,
01000000
00001000
00010000
00001000
,
00010000
00000000
00000010
00000000
,
00001000
00000001
00000100
00000010
,
00010000
00000000
00000100
00000000
,
00010000
00001000
00000000
00011000
,
01000000
00000000
00100000
00000000
,
10000000
00010000
01000000
00001000
,
00010000
00000000
00000010
00000000
,
00001000
00000010
00000000
00001001
,
00000100
00000100
00000010
00000010
,
00010000
00010000
00001000
00010000
,
01000000
01000000
10000000
00010000
,
00100000
00001000
01000000
00001000
,
00010000
00000000
00010000
00001000
,
00000100
00000100
00000100
00000100
,
00000001
00000000
00000100
00000010
,
00010000
00010000
00001000
01000000
,
00100000
00000000
10000000
00010000
,
01000000
00100000
10000000
10010000
,
01000000
00000000
00000000
00000000
,
00000010
00000000
00000000
00000000
,
01000000
00000000
00100000
00000000
,
10000000
00010000
01000000
00001000
,
00000100
00000010
00010000
00000100
,
00100000
00001000
00010000
00000100
,
00001000
00000001
00000100
00000010
,
00010000
00001000
01000000
00100000
,
10000000
00000000
00010000
01000000
,
00001000
00010000
00001000
00011000
,
00000100
00000000
00000010
00001000
,
00000001
00001000
00000100
00010000
,
00001000
00000000
00100000
00000000
,
00010000
00100000
00000000
01100000
,
10000000
10000000
00010000
00010000
,
00001000
00010000
00001000
00001000
,
00000100
00000100
00000001
00001000
,
00000010
00010000
00000100
00010000
,
01000000
00000000
10000000
00010000
,
01000000
00010000
00001000
00000100
,
00000001
00000000
00000100
00000010
,
00010000
00010000
00001000
01000000
,
00100000
00000000
10000000
00010000
,
01000000
00100000
00001000
00011000
,
00000000
00000010
00000000
00000100
,
00000000
00000001
00000000
00001000
,
00000010
00010000
00001000
01000000
,
00010000
10000000
00100000
10010000
,
01000000
00000000
00001000
00010000
,
00000010
00000010
00000010
00001000
,
00000001
00000000
00000100
00000010
,
00010000
00010000
00001000
01000000
,
00100000
00000000
10000000
00010000
,
01000000
01000000
01000000
00001000
,
00010000
00000000
00000010
00001000
,
00000100
00010000
00001000
00100000
,
00010000
00000000
00000000
10000000
00010000
10000000
00010000
00000000
,
01000000
00000000
00000000
00000000
;

//---------------dance-double - ----------------
#NOTES:
     dance-double:
     :
     Medium:
     6:
     0.349,0.368,0.181,0.000,0.000:
00000000
00000000
00000000
00000000
,
00000000
00000000
00000000
00000000
,
00000000
00000000
00000000
00000000
,
00000000
00000000
00000000
00000000
,
10000000
00000000
00000000
00010000
01000000
00000000
00000000
00001000
,
00010000
00001000
00010000
00000010
,
00000100
00000000
00000000
00000001
00001000
00000000
00000000
00000010
,
00010000
00010000
00001000
01000000
,
00010000
00000000
00000000
01000000
00001000
00000000
00000000
00010000
,
00000010
00000000
00000010
00000000
00000010
00001000
00000001
00000000
,
00000100
00000000
00000000
00000010
00010000
00000000
00000000
00001000
,
01000000
00000000
00000000
11000000
,
00010000
00000000
00000000
01000000
00001000
00000000
00000000
00010000
,
00000010
00000100
00000001
00001000
,
00000100
00000100
00010000
00001000
,
00100000
10010000
01000000
10010000
,
00110000
00000000
00000000
00010100
,
00001000
00000000
00000010
00000000
00000100
00000000
00000001
00001000
,
00000100
00000000
00010000
01010000
,
10000000
00000000
10000000
00000000
10000000
00010000
10000000
00010000
,
01000000
01000000
11000000
00010000
,
00100000
00000000
00001000
00000000
00010000
00000000
00000100
00001000
,
00000001
00000000
00000100
00000100
,
00000001
00000000
00001000
00000010
00010000
00001000
00000000
00000000
,
10000000
00000000
00000000
00000000
00000000
00000000
00000000
00100000
,
00001000
00000000
00000000
00000000
00000000
00000000
00000000
00100000
,
10000000
00000000
00010000
00000000
,
01000000
00001000
00010000
00000010
,
00000000
00000001
00000000
00000100
00000000
00000010
00000000
00001000
,
00000000
00000100
00000000
00010000
00000000
00001000
00000000
00100000
,
00000000
00010000
00000000
10000000
00000000
00100000
00000000
01000000
,
00000000
00010000
00000000
10000000
00100000
01000000
01000000
00000000
,
00010000
01000000
00001000
00010000
,
00000010
00000000
00000100
00000000
00000010
00001000
00000001
00000100
,
00000010
00000000
00010000
00000000
,
01000000
00000000
11000000
11000000
,
00010000
00000000
00000000
01000000
00001000
00000000
00000000
00010000
,
00000010
00000000
00000100
00000000
00000001
00001000
00000001
00000000
,
00000100
00000100
00010000
00001000
,
00100000
10010000
01000000
10010000
,
01100000
00000000
10000000
00010000
,
00100000
00000000
00001000
00000000
00010000
00000000
00000010
00001000
,
00000100
00000000
00010000
00101000
,
10000000
00000000
10000000
00000000
01000000
00100000
01000000
00100000
,
10000000
00000000
11000000
01010000
,
01000000
00000000
00000000
00000000
00001000
00000000
00010000
00000100
,
00001000
00000000
00000001
00000001
,
00001000
00000000
00000010
00010000
00000100
00010000
00000000
00000000
,
01000000
00000000
00100000
00000000
,
10000000
00000000
00010000
00000000
,
01000000
00001000
00010000
00000010
,
00001000
00000001
00000100
00001001
,
00000010
00010000
00001000
00100000
,
00010000
00000000
10000000
00000000
00100000
00000000
01000000
00010000
,
10000000
00000000
00100000
00101000
,
00000100
00000000
00000100
00000000
00001000
00000001
00001000
00000001
,
00000100
00000100
00000001
00001000
,
00000010
00000000
00010000
00000000
00001000
00000000
01000000
00010000
,
10000000
00000000
00100000
00100000
,
10000000
00000000
00010000
00100000
00001000
00010000
00000000
00000000
,
00000010
00001000
00000000
00000001
00000100
00000001
00000100
00000000
,
00001001
00000000
00000000
00000000
;

//---------------dance-double - ----------------
#NOTES:
     dance-double:
     :
     Hard:
     7:
     0.453,0.460,0.141,0.000,0.060:
00000000
00000000
00000000
00000000
,
00000000
00000000
00000000
00000000
,
00000000
00000000
00000000
00000000
,
00000000
00000000
00000000
00000000
,
00100000
00101000
00010000
00010100
,
00000010
00001000
00000001
00000100
00001000
00010000
00001000
00010000
,
01000000
01001000
00010000
00010010
,
01000000
00001000
00010000
00000010
00001000
00000000
00000001
00001000
,
00000100
00000000
00000100
00010000
00001000
00000000
00001000
00100000
,
00010000
00000000
00010000
10000000
00100000
01000000
00010000
00000000
,
00100000
00000000
00000000
00001000
00010000
00000010
00000100
00000001
,
00001000
00000010
00010000
00010100
,
00001000
00000000
00000000
00100000
00010000
00000000
10100000
00000000
,
00100000
00000000
01000000
00001000
00010000
00000000
00011000
00000000
,
00000100
00000000
00000100
00001000
00000010
00000100
00000001
00001000
,
00000001
00000000
00000100
00000000
00000010
00000100
00000010
00000100
,
00000001
00000000
00000000
00000000
00000000
00000000
00000000
00000000
00000100
00000000
00000000
00000010
00010000
00000000
00001000
00000000
,
01000000
00000000
01000000
00000000
01000000
00100000
10000000
00010000
,
00000000
00000000
00000000
00000000
00000000
00000000
00000000
00000000
01000000
00000000
00000000
00001000
00100000
00000000
00001000
00000000
,
00010000
00000000
00001000
00010000
00000010
00000000
00000010
00000100
,
00000001
00000000
00000000
00000000
00000000
00000000
00000000
00000000
00001000
00000000
00000000
00000010
00010000
00000000
00001000
00000000
,
00010000
00000000
00011000
00000000
00001000
00000000
00100000
00010000
,
01000000
00000000
00010000
10000000
,
00100000
01000000
00001000
00010000
00000010
00000000
00001010
00000000
,
00010000
00000000
00000000
00000000
00010000
00000000
00000000
01000000
,
00001000
00000000
00000000
00000000
00001000
00000000
00000000
00010000
,
00000010
00000000
00000100
00000000
,
00000001
00000000
00000100
00000000
00000010
00010000
00001000
01000000
,
00100000
00010000
00000000
00001000
00100000
00000000
00001000
00010000
,
00000000
10000000
00000000
00000000
00100000
01000000
00010000
10000000
,
00000000
00010000
00000000
00000000
00010000
00000010
00000000
00010000
,
00000100
00001000
00000001
00000010
00000000
00000001
00001000
00000010
,
00010000
00000000
00000000
00001000
00010000
00000010
00001000
00000001
,
00000100
00000000
00000000
00000001
00000100
00000010
00001000
00000010
,
00010000
00000000
00001000
00010000
00001000
00000000
01000000
00000000
,
00010000
00000000
00100000
00001000
01000000
00000000
01001000
00000000
,
00010000
00000000
00000000
00000010
00001000
00000000
00000000
00001000
,
00000001
00000000
00000100
00000010
00001000
00000000
00011000
00000000
,
01000000
01000000
00100000
10000000
,
00010000
00000000
01000000
00000000
00100000
01000000
00100000
01000000
,
00010000
00000000
00000000
00000000
10000000
00000000
00000000
00000000
00100000
00000000
00000000
00100000
01000000
00000000
00001000
00000000
,
00010000
00000000
00001000
00000000
00010000
00000000
00000010
00001000
,
00000001
00000000
00000000
00000000
00000000
00000000
00000000
00000000
00000100
00000000
00000000
00000100
00000010
00000000
00010000
00000000
,
00001000
00000000
00100000
00000000
00010000
00000000
00010000
01000000
,
10000000
00000000
00000000
00000000
01000000
00000000
00000000
00000000
00010000
00000000
00000000
00010000
00100000
00000000
00001000
00000000
,
00010000
00000000
00001000
00000000
00010000
00000000
00000010
00001000
,
00000001
00000000
00000000
00000000
00000000
00000000
00000000
00000000
00001000
00000000
00000000
00000001
00000100
00000000
00000010
00000000
,
00001000
00000100
00010000
00001000
00100000
00000000
00010000
01000000
,
10000000
00000000
00010000
10010000
,
00100000
01100000
01000000
01100000
,
00001000
00010000
00001000
00010000
,
00000010
00000000
00010000
00000000
00000100
00000000
00001000
00000000
00000001
00000100
00000001
00000100
00000000
00000000
00000000
00000000
,
00000001
00000000
00001000
00000001
00000100
00000000
00010000
00001000
,
01000000
00000000
01000000
00000000
01000000
00100000
10000000
00010000
,
01000000
00000000
00000000
00000000
01000000
00000000
00100000
00000000
10000000
00000000
00000000
10000000
00010000
00000000
00100000
00000000
,
00001000
00000000
00001000
00000000
00010000
00000000
00000010
00001000
,
00000100
00000000
00000000
00000000
00000010
00000000
00000000
00000000
00001000
00000000
00000000
00000001
00001000
00000000
00000010
00000000
,
00000100
00000000
00000100
00000000
00001000
00000000
00100000
00010000
,
10000000
00000000
00000000
00000000
00100000
00000000
00000000
00000000
01000000
00000000
00000000
00010000
10000000
00000000
00100000
00000000
,
01000000
00010000
00100000
00001000
00010000
00000100
00000000
00000000
,
00001000
00000010
00000000
00010000
00000100
00010000
00000100
00000000
,
00001000
00000000
00000000
00000000
;

//---------------dance-single - ----------------
#NOTES:
     dance-single:
     :
     Beginner:
     1:
     0.165,0.276,0.111,0.000,0.000:
0000
0000
0000
0000
,
0000
0000
0000
0000
,
0000
0000
0000
0000
,
0000
0000
0000
0000
,
1000
0000
1000
0000
,
1000
0000
1000
0000
,
0001
0000
0001
0000
,
0001
0000
0001
0000
,
1000
0000
0000
0000
,
0001
0000
0000
0000
,
0010
0000
0100
0000
,
0010
0010
0010
0000
,
1000
0000
1000
0000
,
0001
0000
0001
0000
,
0010
0000
0010
0000
,
0100
0100
0100
0100
,
0100
0000
0000
0000
,
0001
0000
1000
0000
,
1001
0000
0000
0000
,
0010
0000
0100
0000
,
0110
0000
0000
0000
,
1001
1001
1001
0000
,
0100
0000
0000
0000
,
0010
0000
0000
0000
,
1000
0000
0000
0000
,
0001
0000
0000
0000
,
1000
0000
0000
0000
,
0100
0100
0100
0000
,
0001
0000
1000
0000
,
0001
0000
1000
0000
,
0010
0000
0100
0000
,
0010
0000
0100
0000
,
0001
0000
0001
0000
,
1000
0000
1000
0000
,
0001
0001
0000
0000
,
1000
1000
0000
0000
,
0010
0000
0100
0000
,
0010
0000
0100
0000
,
0001
0001
0001
0000
,
0100
0100
0100
0100
,
0100
0000
0000
0000
,
0001
0000
1000
0000
,
1001
0000
0000
0000
,
0010
0000
0100
0000
,
0110
0000
0000
0000
,
0001
0000
0001
0000
,
0001
0000
0000
0000
,
1000
0000
0001
0000
,
1000
0000
0000
0000
,
0010
0000
0000
0000
,
0001
0000
0000
0000
,
1000
1000
1000
1000
,
1000
0000
0000
0000
,
0001
0000
1000
0000
,
0110
0000
0000
0000
,
0010
0000
0100
0000
,
1001
0000
0000
0000
,
0010
0000
0010
0000
,
0110
0000
0000
0000
,
0001
0000
1000
0000
,
0010
0000
0100
0000
,
1001
0000
0000
0000
;

//---------------dance-single - ----------------
#NOTES:
     dance-single:
     :
     Challenge:
     12:
     0.830,0.890,0.453,0.050,0.825: // measure 1
0000
0000
0000
0000
,  // measure 2
0000
0000
0000
0000
,  // measure 3
0000
0000
0000
0000
,  // measure 4
0000
0000
0000
0000
,  // measure 5
1000
0100
1000
0001
0000
0000
1000
0100
1000
0010
0000
0100
0001
0100
0010
1000
,  // measure 6
0010
1000
0000
0001
1000
0100
0010
0000
0011
0000
1001
0000
1100
0000
1001
0000
,  // measure 7
0001
0100
0010
0100
0000
0000
0001
0010
0001
0100
0000
0010
1000
0100
1000
0010
,  // measure 8
0100
0001
0000
1000
0100
1000
0010
0000
1010
0000
0110
0000
0101
0000
1001
0000
,  // measure 9
1100
0000
0000
1000
0000
0000
1000
0000
0000
0000
0001
0100
0001
0100
0001
0100
,  // measure 10
0010
0000
0000
0010
0000
0000
0010
0000
0000
0000
1000
0100
1000
0100
1000
0100
,  // measure 11
0001
0000
0000
0001
0000
0000
0001
0000
0000
0000
0100
0010
0100
0010
0100
0010
,  // measure 12
0100
0000
0000
0100
0000
0000
0100
0010
0200
0000
0310
0000
0001
0000
1000
0000
,  // measure 13
1001
0000
0000
0001
0000
0000
0001
0000
1100
0000
0000
1100
0000
0000
1100
0000
,  // measure 14
1000
0000
0000
1000
0000
0000
1000
0000
0000
0000
0001
0100
0001
0100
0001
0100
,  // measure 15
0001
0000
0000
0101
1100
0000
0000
1001
,  // measure 16
0001
0100
0001
0100
0010
1000
0010
1000
0001
0000
0101
0000
0110
0000
1010
0000
,  // measure 17
1001
0000
1000
0000
0100
0000
0010
0000
0001
0000
1000
0100
1000
0010
0100
0000
,  // measure 18
0001
0000
0010
0000
0001
0000
0100
0000
0010
0000
1000
0100
0010
0000
0001
0000
,  // measure 19
0001
0000
0100
0000
0010
0000
0100
0000
0001
0000
1000
0100
0010
0100
0010
0001
,  // measure 20
1000
0000
0010
0000
0100
0000
0001
0000
1000
0100
0010
0001
1000
0100
0010
0001
,  // measure 21
1000
0000
0010
0000
0100
0000
0001
0000
0100
0000
0001
0010
0100
0010
0001
0000
,  // measure 22
1000
0000
0010
0000
0100
0000
0001
0000
0100
0000
0001
1000
0001
0000
0010
0000
,  // measure 23
0100
0000
1000
0000
0100
0000
1000
0000
0010
0000
0100
0001
0100
0010
0100
0001
,  // measure 24
1000
0100
1000
0100
0000
0000
0010
0001
0010
0001
0010
0100
1000
0001
0100
0010
,  // measure 25
2000
0000
0000
0000
0000
0000
0000
0001
,  // measure 26
3002
0000
0000
0000
0000
0000
0000
0100
,  // measure 27
0203
0000
0010
0000
,  // measure 28
0310
0000
0000
0000
1100
0000
0000
0000
0101
0000
0000
0000
0001
1000
0001
1000
,  // measure 29
0001
0000
0000
0100
0000
0000
0010
0000
1000
0000
0001
0010
0100
1000
0001
0000
,  // measure 30
1000
0000
0000
0010
0000
0000
0100
0000
0001
0000
0010
0100
1000
0000
0010
0000
,  // measure 31
0100
0000
0000
0001
0000
0000
1000
0000
0001
0000
0010
0001
0100
0010
1000
0001
,  // measure 32
1000
0000
0000
0001
0000
0000
0100
0000
0001
0010
0100
1000
0001
0010
0100
1000
,  // measure 33
0001
0000
0000
0001
0000
0000
0001
0000
0000
0000
1000
0010
1000
0010
1000
0010
,  // measure 34
0100
0000
0000
0100
0000
0000
0100
0000
0000
0000
0001
0010
0001
0010
0001
0010
,  // measure 35
1000
0000
0000
1000
0000
0000
1000
0000
0000
0000
0010
0100
0010
0100
0010
0100
,  // measure 36
1000
0000
0000
1000
0000
0000
1000
0100
0020
0000
0031
0000
0001
0000
1000
0000
,  // measure 37
1001
0000
0000
1000
0000
0000
1000
0000
0101
0000
0000
0101
0000
0000
0101
0000
,  // measure 38
0001
0000
0000
0001
0000
0000
0001
0000
0000
0000
1000
0100
1000
0100
1000
0100
,  // measure 39
1000
0000
0000
1100
0101
0000
0000
1001
,  // measure 40
1000
0100
1000
0100
0010
0001
0010
0001
1000
0000
1100
0000
0110
0000
0011
0000
,  // measure 41
1001
0000
0001
0000
0100
0000
0010
0000
1000
0000
0001
0010
0100
1000
0001
0000
,  // measure 42
0100
0000
0010
0000
1000
0000
0010
0000
0100
0000
0001
0100
0001
0000
0100
0000
,  // measure 43
0100
0000
0010
0000
1000
0000
0001
0000
0010
0000
0100
1000
0100
0010
0001
0010
,  // measure 44
0001
0000
1000
0000
0010
0000
0100
0000
0010
0000
1000
0100
1000
0100
0001
0000
,  // measure 45
0101
0000
0100
0000
1000
0000
0010
0000
0100
0000
0001
0100
0001
0100
0010
0000
,  // measure 46
1000
0000
0010
0000
0100
0000
0001
0000
1000
0000
0001
0010
0100
0000
1000
0000
,  // measure 47
1000
0000
0010
0000
0100
0000
0001
0000
1000
0000
0001
0100
0010
0100
0001
1000
,  // measure 48
0001
0100
0001
0100
0000
0000
0010
1000
0010
1000
0001
0010
0100
1000
0001
1000
,  // measure 49
0001
0000
0000
0100
0000
0000
0010
0000
1MM1
0000
1000
0100
0010
0001
1000
0000
,  // measure 50
0001
0000
0000
0100
0000
0000
0010
0000
M1M1
0000
0001
0010
0001
0100
0010
0000
,  // measure 51
1M00
0000
0000
1000
010M
0000
0000
0100
M010
0000
0000
0010
0M01
0000
0000
0001
,  // measure 52
10M0
0000
0000
0000
1M10
0000
0000
0000
011M
0000
0000
0000
M101
0000
0000
0000
00M1
0000
1M00
0000
00M1
0000
1M00
0000
0000
0000
0000
MMMM
0000
0000
0000
0000
,  // measure 53
1001
0000
0001
0000
0100
0000
0010
0000
1000
0000
0100
0010
0001
0010
0100
0000
,  // measure 54
1000
0000
0010
0000
0100
0000
0001
0000
0100
0000
0010
1000
0010
0000
0100
0000
,  // measure 55
0100
0000
0001
0000
0010
0000
1000
0000
0010
0000
0001
0010
0100
1000
0010
0100
,  // measure 56
0001
0000
1000
0000
0100
0000
1000
0000
0001
0010
0100
1000
0001
0010
0100
1000
,  // measure 57
0001
0000
0010
0000
1000
0000
0010
0000
0001
0000
0100
0010
1000
0010
0100
0000
,  // measure 58
0001
0000
0100
0000
1000
0000
0100
0000
0001
0000
1000
0100
0001
0000
0100
0000
,  // measure 59
0100
0000
1000
0000
0010
0000
0100
0000
0001
0000
1000
0100
1000
0010
0100
0001
,  // measure 60
1000
0100
0010
0001
0000
0000
1000
0010
0100
0001
1000
0100
1000
0100
0010
0001
,  // measure 61
1M00
10M0
0000
01M1
1M01
11M0
1M01
0000
,  // measure 62
1101
0000
0000
0000
;
