#TITLE:Oriental Dark Flight;
#SUBTITLE:;
#ARTIST:Demetori;
#TITLETRANSLIT:;
#SUBTITLETRANSLIT:;
#ARTISTTRANSLIT:;
#CREDIT:;
#BANNER:Oriental Dark Flight - BN.png;
#BACKGROUND:Oriental Dark Flight - BG.png;
#LYRICSPATH:;
#CDTITLE:cdtitlegpop.png;
#MUSIC:Oriental Dark Flight.ogg;
#OFFSET:-0.540;
#SAMPLESTART:103.180;
#SAMPLELENGTH:12.000;
#SELECTABLE:YES;
#BPMS:0.000=150.000,152.000=153.000,168.000=155.000,322.000=150.000;
#STOPS:256.000=0.714
;
#BGCHANGES:;

//---------------dance-single - ----------------
#NOTES:
     dance-single:
     :
     Challenge:
     12:
     1.000,1.000,0.582,0.000,1.000: // measure 1
0000
0000
0000
0000
,  // measure 2
0000
0000
0000
0000
,  // measure 3
0000
0000
0000
0000
,  // measure 4
0000
0000
0000
0000
,  // measure 5
0000
0000
0000
0000
,  // measure 6
0000
0000
0000
0000
,  // measure 7
0000
0000
0000
0000
,  // measure 8
1000
0100
1000
0100
0000
0010
0001
0010
0100
0000
1000
0010
0100
0001
0000
1000
,  // measure 9
0100
1000
0001
0000
1000
0100
1000
0000
0001
0100
0010
0000
1000
0100
0010
0001
,  // measure 10
0000
0100
0010
1000
0010
0000
0100
0001
1000
0001
0000
1000
0100
0010
0001
0000
,  // measure 11
1000
0100
0010
0000
0001
0010
0100
0000
1000
0100
1000
0001
0000
0100
0010
0100
,  // measure 12
0001
0000
1000
0100
0010
0100
0000
1000
0010
0100
0001
0000
1000
0010
0100
0000
,  // measure 13
0001
0100
0010
0000
1000
0100
0010
0100
0000
1000
0010
0100
0010
0000
0100
0001
,  // measure 14
0010
0100
0000
1000
0100
0010
0001
0000
1000
0001
1000
0000
0001
1000
0001
0000
,  // measure 15
1000
0100
0010
0100
0000
0010
0001
0100
0010
0000
0100
0001
0100
0010
0000
1000
,  // measure 16
0100
0010
0100
0000
1000
0010
0100
0000
0001
0100
0010
0000
1000
0100
0001
0100
,  // measure 17
0000
1000
0010
0001
0010
0000
0100
0001
0010
0100
0000
1000
0100
0010
0001
0000
,  // measure 18
1000
0100
0010
0000
0001
0000
0100
0010
1000
0100
0010
0100
0000
0001
0100
1000
,  // measure 19
0010
0000
0100
0001
0100
0010
0000
1000
0100
0010
0100
0000
1000
0100
0010
0000
,  // measure 20
0001
0010
0100
0000
1000
0100
1000
0010
0000
0100
0001
0100
0010
0000
1000
0100
,  // measure 21
0010
0001
0000
0010
0100
1000
0010
0000
0100
0001
0100
0000
0010
1000
0010
0000
,  // measure 22
0001
0010
1000
0010
0000
0100
1000
0010
0100
0000
0001
0100
0010
1000
0000
0001
,  // measure 23
0010
0100
1000
0000
0001
0100
0001
0000
1000
0100
1000
0000
0001
0010
0100
1000
,  // measure 24
0000
0100
0010
0001
1000
0000
0010
0100
0001
0100
0000
0010
1000
0001
1000
0000
,  // measure 25
0001
0100
1000
0000
1000
0100
0001
1000
0001
0100
0001
0100
0000
0010
1000
0010
,  // measure 26
0100
0000
0001
0010
0001
1000
0000
0010
0100
0001
0100
0000
0010
1000
0010
0000
,  // measure 27
0100
0001
0100
0000
0001
0010
0100
0010
0000
0100
1000
0100
0001
0000
0100
1000
,  // measure 28
0010
0100
0000
0001
0100
0010
1000
0000
1000
0100
1000
0100
1000
0100
1000
0100
,  // measure 29
0010
0001
0100
0010
1000
0010
0100
0001
1000
0000
1000
0100
0010
0001
0100
0010
,  // measure 30
1000
0100
1000
0000
0001
0100
0001
0000
1000
0100
1000
0000
0001
0010
0100
1000
,  // measure 31
0000
0100
0010
0001
1000
0000
0001
0100
0010
1000
0100
0010
0001
0100
0010
0000
,  // measure 32
1000
0100
1000
0000
0001
0100
0001
0000
1000
0100
0010
0001
0000
1000
0010
0100
,  // measure 33
0001
0000
1000
0100
1000
0010
0100
0001
1000
0100
1000
0000
0010
0100
0001
0000
,  // measure 34
1000
0010
0100
0000
0001
0010
0100
0010
0000
0100
1000
0010
0100
0000
0001
0010
,  // measure 35
0001
0100
0010
1000
0010
0100
0001
0000
1000
0100
0001
0000
0001
0100
1000
0000
,  // measure 36
0001
0100
0010
1000
0100
0010
0001
0010
0100
0000
1000
0010
0100
0001
0100
0010
,  // measure 37
1000
0100
0010
0000
0001
0010
0100
0000
1000
0100
0010
0000
0001
0100
0010
1000
,  // measure 38
0000
0001
0010
0001
0010
0000
0100
1000
0100
1000
0010
0100
0001
0100
0010
0000
,  // measure 39
1000
1100
0100
0110
0010
0011
0011
0001
,  // measure 40
1001
1001
1000
1010
1010
0010
0110
0110
,  // measure 41
0100
0101
0101
0001
1001
1001
1000
1010
,  // measure 42
1010
0010
0110
0110
0100
0101
0101
0001
,  // measure 43
1001
0000
0001
0100
0010
1000
0010
0100
0001
0000
1000
0100
0010
0001
0100
0000
,  // measure 44
0001
0100
0010
0000
1000
0100
0010
0001
1000
0000
0100
0010
0001
0000
0100
0010
,  // measure 45
1000
0000
0010
0100
0001
0100
0010
1000
0001
0000
1000
0100
0010
0001
0100
0000
,  // measure 46
0010
1000
0010
0000
0100
0001
0100
0010
1000
0000
0001
0010
0100
0000
1000
0100
,  // measure 47
1000
0100
0010
0000
0001
0100
0010
1000
0001
0000
0010
0100
1000
0010
0100
0000
,  // measure 48
0001
0100
0001
0000
1000
0100
0010
0001
0100
0000
0010
1000
0010
0000
0100
0001
,  // measure 49
1000
0000
1000
0000
0100
1000
0010
0100
0001
0000
1000
0100
0010
0001
0100
0000
,  // measure 50
0010
1000
0010
0000
0100
0001
0010
0100
1000
0000
0001
0010
0001
0000
0100
0010
,  // measure 51
1000
0000
0010
0100
0001
0100
0010
1000
0001
0000
0010
0100
0010
0001
0100
0000
,  // measure 52
0010
1000
0010
0000
0100
0001
0010
0100
1000
0000
0100
0010
0001
0000
1000
0000
,  // measure 53
0001
0010
0001
0100
1000
0100
0001
0010
0001
0000
0010
1000
0010
0001
0100
0000
,  // measure 54
0010
1000
0010
0000
0100
0001
0100
0010
1000
0000
0001
0010
0100
0000
1000
0100
,  // measure 55
1000
0100
1000
0000
0010
1000
0010
0100
0001
0000
0010
0100
0010
0001
0100
0000
,  // measure 56
0010
1000
0010
0000
0100
0001
0100
1000
0100
0000
0001
0010
0100
0000
1000
0100
,  // measure 57
1000
0100
0010
0000
0001
0010
0100
1000
0010
0000
0100
0001
0100
1000
0100
0000
,  // measure 58
0001
0010
1000
0000
0010
0001
0100
0010
1000
0000
0001
0010
0001
0000
1000
0001
,  // measure 59
1001
1100
0110
0011
1001
0101
0110
1010
,  // measure 60
1001
0000
1100
0000
1001
0000
0101
0000
0110
0000
1010
0000
1000
0100
0010
0000
,  // measure 61
0001
0100
0001
0000
1000
0100
1000
0000
0001
0010
0001
0000
1000
0010
1000
0000
,  // measure 62
0001
1000
0001
0000
1000
0001
1000
0000
0010
0100
0010
0000
0100
0010
0100
0000
,  // measure 63
0001
0010
1000
0000
1000
0010
0001
0000
1000
0100
0001
0000
0001
0100
1000
0000
,  // measure 64
0001
0010
0100
0000
1000
0100
0010
0000
0001
0100
0010
0000
1000
0010
0100
0000
,  // measure 65
1001
0000
0000
0000
1000
0100
0010
0001
1000
0000
0100
0000
0010
0000
0001
0000
,  // measure 66
0100
0000
0000
0010
0000
0000
1000
0000
0000
0010
0000
0000
0100
0000
0000
0001
1000
0001
1000
0000
0000
0010
0000
0000
,  // measure 67
0100
0001
0010
0001
0100
0010
1000
0010
,  // measure 68
0100
0000
0001
0000
0010
0000
0100
0000
1000
0100
1000
0100
0010
0001
0010
0000
,  // measure 69
0001
0000
0000
1000
0001
1000
0001
0000
0000
0000
0000
0000
1001
0000
0000
1000
0000
0000
0010
0000
0000
0100
0000
0000
,  // measure 70
0001
0000
0000
0100
0000
0000
0010
0000
0000
1000
0000
0000
0010
0000
0000
0100
0001
0100
0001
0000
0000
1000
0000
0000
,  // measure 71
0100
0010
0001
0010
0110
0100
1000
0010
,  // measure 72
0100
0000
0001
0000
1000
0000
0001
0000
1000
0100
1000
0100
0010
0000
0011
0000
,  // measure 73
0001
0000
0010
0000
0100
0000
1000
0000
0100
0000
0010
0000
0001
0000
0000
1000
0000
0000
0001
0000
0000
0000
0000
0000
1001
0000
0000
0000
0000
0000
0101
0000
0000
0000
0000
0000
0110
0000
0000
0000
0000
0000
1010
0000
0000
0000
0000
0000
,  // measure 74
1001
0000
0000
1100
0000
0000
0110
0000
0000
0011
0000
0000
1001
0000
0000
1000
0001
1000
0001
0000
0000
1001
0000
0000
,  // measure 75
0101
0110
1010
1001
0101
0110
1010
1001
,  // measure 76
1100
0000
1001
0000
0101
0000
0110
0000
0010
1000
0010
0100
0001
1000
0001
0000
,  // measure 77
1001
0000
0000
1000
0001
1000
0001
0000
0000
0000
0000
0000
1001
0000
0000
1100
0000
0000
0110
0000
0000
0011
0000
0000
,  // measure 78
0101
0000
0000
1100
0000
0000
1010
0000
0000
0011
0000
0000
1001
0000
0000
1000
0100
1000
0100
0000
0000
0110
0000
0000
,  // measure 79
0011
1001
0101
1100
0101
0011
1010
0011
,  // measure 80
1100
0000
1001
0000
0101
0000
1001
0000
1000
0100
0010
0001
0010
0100
1000
0001
,  // measure 81
1000
0000
0000
0000
0000
0000
0001
0000
1000
0000
0001
0000
1000
0000
0000
0000
0000
0000
0000
0000
0000
0000
0000
0000
1001
0000
0000
0000
0000
0000
0001
0000
0000
0100
0000
0000
0001
0000
0000
0100
0000
0000
0000
0000
0000
0010
0000
0000
,  // measure 82
0100
0010
0100
0000
0010
1000
0010
1000
0000
0001
1000
0001
1000
0000
0001
0100
,  // measure 83
0001
0100
0000
0010
0100
0010
0100
0000
0010
1000
0010
1000
0001
1000
0001
1000
,  // measure 84
0001
0100
0001
0000
0000
1000
0100
0010
0001
0000
0010
0100
1000
0001
0000
1000
,  // measure 85
0010
0100
0001
0000
0010
1000
0010
0001
0000
0010
0001
0100
0010
0000
1000
0100
,  // measure 86
0010
0100
0000
1000
0010
0100
0001
0000
0010
0100
1000
0001
0000
1000
0100
0001
,  // measure 87
0100
0000
1000
0010
0100
0001
0000
0010
0001
0100
0010
0000
1000
0010
0100
0001
,  // measure 88
0000
0010
1000
0010
0100
0000
1000
0010
0001
0010
0000
0100
0001
1000
0001
0000
;

//---------------dance-single - ----------------
#NOTES:
     dance-single:
     :
     Hard:
     9:
     0.617,0.782,0.417,0.000,0.325:
0000
0000
0000
0000
,
0000
0000
0000
0000
,
0000
0000
0000
0000
,
0000
0000
0000
0000
,
0000
0000
0000
0000
,
0000
0000
0000
0000
,
0000
0000
0000
0000
,
1000
0000
0000
1000
0000
0100
0000
0000
0100
0000
0010
0000
0000
0010
0000
0001
,
0000
0000
0001
0000
0100
0000
0100
0000
0010
0000
0010
0000
1000
0000
0000
0100
,
0000
0010
0000
0000
0001
0000
0100
0000
0000
0010
0000
1000
0000
0000
0100
0000
,
1000
0000
1000
0000
0001
0000
0001
0000
0100
0000
0000
0010
0000
1000
0000
0000
,
0010
0000
0100
0000
0000
0001
0000
0010
0000
0000
0100
0000
1000
0000
1000
0000
,
0010
0000
0010
0000
0100
0000
0000
0001
0000
0010
0000
0000
0100
0000
1000
0000
,
0000
0010
0000
0100
0000
0000
0001
0000
1000
0000
1000
0000
0010
0000
0010
0000
,
0100
0000
0000
0100
0000
0010
0000
0000
0010
0000
1000
0000
0000
1000
0000
0001
,
0000
0000
0001
0000
0100
0000
0100
0000
0010
0000
0010
0000
1000
0000
0000
0100
,
0000
0010
0000
0000
0001
0000
0100
0000
0000
0010
0000
1000
0000
0000
0001
0000
,
1000
0000
0100
0000
0010
0000
0001
0000
1000
0000
0000
1000
0000
0100
0000
0000
,
0100
0000
0010
0000
0000
0010
0000
0001
0000
0000
0001
0000
1000
0000
1000
0000
,
0010
0000
0010
0000
0100
0000
0000
0001
0000
0010
0000
0000
0100
0000
1000
0000
,
0000
0010
0000
0100
0000
0000
0001
0000
0100
0000
0100
0000
0010
0000
0010
0000
,
1000
0000
0000
0100
0000
0010
0000
0000
0001
0000
0100
0000
0000
0010
0000
1000
,
0000
0000
0001
0000
0010
0000
0010
0000
0100
0000
0100
0000
1000
0000
0000
0010
,
0000
0100
0000
0000
0001
0000
0010
0000
0000
0100
0000
1000
0000
0000
0010
0000
,
0100
0000
0001
0000
0100
0000
0010
0000
1000
0000
0000
0010
0000
0100
0000
0000
,
0001
0000
0000
0010
0000
0100
0000
0000
1000
0000
0010
0000
0100
0000
0001
0000
,
0100
0000
0010
0000
1000
0000
0000
0100
0000
0010
0000
0000
0001
0000
0100
0000
,
0000
0010
0000
1000
0000
0000
0001
0000
0100
0000
0010
0000
0100
0000
0001
0000
,
1000
0100
1000
0100
0010
0001
0100
0010
,
1000
0010
0100
0001
1000
0100
0001
0100
,
1000
0010
0100
0001
0010
1000
0010
0001
,
0100
0010
1000
0010
0100
0001
0010
0100
,
0010
0001
0100
0010
1000
0010
0100
0001
,
0010
0001
0010
0100
1000
0010
0100
0001
,
1000
0100
0001
0100
1000
0100
0001
0100
,
1000
0010
0100
0001
0100
0010
1000
0100
,
0010
0001
1000
0100
0010
0001
0100
0010
,
1000
0010
0100
0001
1000
0001
0010
0100
,
1000
1100
0000
1001
0000
0101
0101
0000
,
0110
0110
0000
1010
1010
0000
1001
1001
,
0000
0101
0101
0000
1001
1001
0000
1100
,
1100
0000
0110
0110
0000
0011
0011
0000
,
1001
0000
0000
0000
,
0000
0000
0000
0000
,
1000
0100
0010
0001
0100
0010
1000
0010
,
0001
0010
1000
0100
0010
0001
0010
0001
,
0100
0010
1000
0010
0100
0001
0010
0100
,
1000
0100
0010
0001
0100
0010
1000
0010
,
0100
0001
0010
0001
0010
1000
0010
0001
,
0100
0010
1000
0100
0010
1000
0010
0100
,
1000
0000
0100
0000
0011
0000
0100
0010
,
1000
0000
0001
0000
0101
0000
0100
0010
,
1000
0000
0001
0000
0110
0000
0100
1000
,
0010
0100
0001
1100
,
1000
0100
0011
0000
0001
0100
1010
0000
,
0100
0001
1100
0000
0001
0010
1100
0000
,
1100
1001
0101
0110
,
1010
1001
1100
1001
,
0001
0100
0001
0100
0010
1000
0010
1000
,
0001
0010
0001
0010
0100
1000
0100
1000
,
0001
0100
0001
0000
1000
0100
1000
0000
0001
0100
0001
0000
1000
0100
1000
0000
,
0001
0010
0001
0000
1000
0010
1000
0000
0001
0010
0001
0000
1000
0010
1000
0000
,
0001
1000
0001
0000
1000
0001
1000
0000
0001
1000
0001
0000
1000
0001
1000
0000
,
0001
0100
0001
0000
1000
0100
1000
0000
0001
0010
0001
0000
1000
0010
1000
0000
,
1001
0000
0000
0000
1000
0001
1000
0001
1000
0000
0100
0000
0010
0000
0001
0000
,
0100
0000
0010
0000
1000
0000
0001
0000
0100
0000
0010
1000
0010
0000
0100
0000
,
0001
0010
0100
1000
0010
0100
0001
0100
,
0010
0000
1000
0000
0100
0000
0010
0000
0001
1000
0001
1000
0001
0000
0100
0000
,
0010
0000
1000
0001
1000
0000
0000
0000
1001
0000
0001
0000
0100
0000
0010
0000
,
1000
0000
0010
0000
0100
0000
0010
0000
0100
0000
0001
0100
0001
0000
0010
0000
,
0100
1000
0010
0100
0001
0010
0001
0100
,
0010
0000
1000
0000
0010
0000
0100
0000
0001
0010
0001
0010
0001
0000
0100
0000
,
0010
0000
1000
0001
1000
0000
0000
0000
1000
0000
0100
0000
1000
0000
0100
0000
,
0010
0001
0010
0001
1000
0010
1000
0010
,
0100
0001
0100
0001
1000
0100
0001
0100
,
1000
0000
0100
0000
0001
0000
0100
0000
1000
0001
1000
0001
1000
0000
0010
0000
,
0100
0000
0001
1000
0001
0000
0000
0000
1000
0000
0010
0000
0001
0000
0010
0000
,
1000
0010
0001
0010
1000
0100
0010
0001
,
0010
0100
1000
0100
0010
0001
0100
0010
,
1000
0000
0010
0000
0100
0000
0001
0000
1000
0100
1000
0100
1000
0000
0010
0000
,
0100
0000
0001
1000
0001
0000
0000
0000
1100
0000
0000
0000
0000
1001
0000
0000
,
0000
0000
0101
0000
0000
0000
0000
0110
0000
0000
0000
0000
1010
0000
0000
0000
,
0000
1001
0000
0000
0000
0000
0101
0000
0000
0000
0000
1001
0000
0000
0000
0000
,
1100
0000
0000
0000
0000
0110
0000
0000
0000
0000
0011
0000
0000
0000
0000
1001
,
0000
0000
0000
0000
1100
0000
0000
0000
0000
1001
0000
0000
0000
0000
0101
0000
,
0000
0000
0000
0110
0000
0000
0000
0000
1010
0000
0000
0000
0000
1001
0000
0000
,
0000
0000
1100
0000
0000
0000
0000
1001
0000
0000
0000
0000
0101
0000
0000
0000
,
0000
1100
0000
0000
0000
0000
1000
0100
1000
0100
0000
0010
0001
0010
0001
0000
;

//---------------dance-single - ----------------
#NOTES:
     dance-single:
     :
     Medium:
     7:
     0.406,0.510,0.164,0.212,0.082:
0000
0000
0000
0000
,
0000
0000
0000
0000
,
0000
0000
0000
0000
,
0000
0000
0000
0000
,
0000
0000
0000
0000
,
0000
0000
0000
0000
,
0000
0000
0000
0000
,
1000
0000
0000
0000
0000
0010
0000
0000
0000
0000
0100
0000
0000
0000
0000
0001
,
0000
0010
0100
1000
,
0000
0001
0000
0000
0000
0000
0100
0000
0000
0000
0000
0010
0000
0000
0000
0000
,
1000
0000
0000
0000
0010
0000
0000
0000
0100
0000
0000
0000
0000
0001
0000
0000
,
0000
0000
0010
0000
0000
0000
0000
0100
0000
0000
0000
0000
1000
0000
0000
0000
,
0100
0000
0000
0000
0010
0000
0000
0000
0000
0001
0000
0000
0000
0000
0100
0000
,
0000
0000
0000
0010
0000
0000
0000
0000
1000
0000
0000
0000
0001
0000
0000
0000
,
0010
0000
0000
0000
0000
0100
0000
0000
0000
0000
1000
0000
0000
0000
0000
0010
,
0000
0100
0001
1000
,
0000
0001
0000
0000
0000
0000
0010
0000
0000
0000
0000
0100
0000
0000
0000
0000
,
1000
0100
1000
0100
2000
0000
0000
0000
,
0000
3020
0230
0000
,
0302
2003
0000
0000
,
3200
0320
0000
0032
,
0203
0000
0000
0320
,
2030
0000
3200
2300
,
0000
0000
3200
0302
,
0000
0203
0320
0000
,
0000
0032
0203
0000
,
0320
2030
0000
0000
,
3002
0203
0000
0320
,
1030
0100
1000
0000
0001
0010
0100
0000
,
1000
0010
0100
0000
0001
0010
0001
0000
,
1000
0100
1000
0000
0010
0100
0001
0000
,
0100
0010
1000
0000
0001
0100
0010
0000
,
1000
0100
1000
0000
0001
0100
0001
0000
,
0010
0100
1000
0000
0010
0100
0001
0000
,
1000
0100
0010
0000
0001
0010
0100
0000
,
2000
0010
0010
3020
,
0230
0001
0302
0023
,
0100
0100
0230
2300
,
3001
0100
0000
0110
0000
1000
1000
0000
,
0010
0010
0000
0100
0100
0000
0001
0001
,
0000
0010
0010
0000
0100
0100
0000
1000
,
1000
0000
0010
0010
0000
0100
0100
0000
,
1001
0000
0000
0000
,
0000
0000
0000
0000
,
1000
0100
0010
0000
0001
0010
0100
0000
,
1000
0100
1000
0000
0001
0100
0001
0000
,
1000
0010
0100
0000
0001
0010
0100
0000
,
1000
0100
0010
0000
0001
0010
0100
0000
,
1000
0010
0100
0000
0001
0100
0010
0000
,
1000
0100
0010
0001
0100
0010
1000
0000
,
0001
0100
1010
0100
,
0001
0010
1100
0010
,
0100
0001
1001
0100
,
0010
1000
0100
0011
,
0100
1010
0100
1001
,
0010
1100
0010
1001
,
1100
0110
0011
1001
,
0101
0110
1010
1001
,
1000
0100
1000
0100
1000
0100
1000
0100
,
0010
0001
0010
0001
0010
0001
1000
0000
,
0001
0100
0010
1000
,
0010
0100
0001
0010
,
0100
1000
0100
0010
,
0001
0100
0010
1000
,
1001
0000
0000
0000
1000
0100
1000
0000
,
0001
0100
0001
0000
1000
0100
0010
0001
,
1000
0000
0010
0000
0100
0001
0100
0000
,
0010
1000
0010
0000
0001
0010
0100
1000
,
0010
0000
1001
0000
1000
0100
1000
0000
,
0001
0010
0001
0000
1000
0100
0010
0001
,
1000
0000
0010
0000
0100
0001
1000
0000
,
0001
0010
0100
0000
1000
0100
0010
0001
,
1000
0000
1001
0000
0001
0010
0100
0000
,
1000
0100
0010
0000
0001
0100
0010
0100
,
0001
0000
1000
0000
0001
0010
0001
0000
,
1000
0100
1000
0000
0001
0100
0010
1000
,
0001
0000
1001
0000
1000
0100
1000
0000
,
0100
0010
0100
0000
0010
0001
0010
0100
,
1000
0010
0100
0000
0001
0100
0001
0000
,
1000
0100
1000
0000
0001
0010
0100
1000
,
0001
0000
0000
0000
1001
0000
0000
0000
1000
0000
0000
0000
0000
1000
0000
0000
,
0000
0000
1000
0000
0000
0000
0000
1000
0000
0000
0000
0000
0001
0000
0000
0000
,
0000
0001
0000
0000
0000
0000
0001
0000
0000
0000
0000
0001
0000
0000
0000
0000
,
0100
0000
0000
0000
0000
0100
0000
0000
0000
0000
0100
0000
0000
0000
0000
0100
,
0000
0000
0000
0000
0010
0000
0000
0000
0000
0010
0000
0000
0000
0000
0010
0000
,
0000
0000
0000
0010
0000
0000
0000
0000
1000
0000
0000
0000
0000
0100
0000
0000
,
0000
0000
0010
0000
0000
0000
0000
0001
0000
0000
0000
0000
1000
0000
0000
0000
,
0000
0010
0000
0000
0000
0000
0100
0000
0000
0000
0000
1001
0000
0000
0000
0000
;

//---------------dance-single - ----------------
#NOTES:
     dance-single:
     :
     Easy:
     4:
     0.273,0.510,0.096,0.109,0.000:
0000
0000
0000
0000
,
0000
0000
0000
0000
,
0000
0000
0000
0000
,
0000
0000
0000
0000
,
0000
0000
0000
0000
,
0000
0000
0000
0000
,
0000
0000
0000
0000
,
1000
0100
0010
0001
,
0100
0010
1000
0010
,
0100
0001
0010
0100
,
1000
0010
0100
0001
,
0100
0001
0100
0010
,
1000
0001
0010
0100
,
1000
0100
0010
0100
,
1000
0010
0100
0001
,
0010
0001
0010
0100
,
1000
0010
0100
0001
,
1000
0001
2000
0000
,
3000
0010
0200
0300
,
0001
0020
0000
0030
,
0100
2000
3000
0010
,
0200
0000
0300
0001
,
0020
0030
0001
0200
,
0000
0300
0010
2000
,
3000
0100
2000
0000
,
3000
0010
0200
0300
,
0001
0020
0000
0030
,
0001
0200
0300
0010
,
1000
0100
1000
0010
,
0100
0001
0010
0001
,
0100
0010
1000
0001
,
0010
0100
1000
0010
,
0100
0001
0010
0001
,
0100
0010
1000
0001
,
0010
0001
0100
0010
,
2000
0000
3000
0010
,
0200
0300
0001
0020
,
0000
0030
0001
0200
,
0300
0000
0001
0000
1000
0001
0000
0000
,
0100
0000
0000
0010
0000
0000
1000
0000
,
0000
0001
0000
0000
1000
0000
0000
0010
,
0000
0000
0100
0000
0000
0001
0000
0000
,
1001
0000
0000
0000
,
0000
0000
0000
0000
,
1000
0100
1000
0010
,
0100
0001
0010
0001
,
0100
0010
1000
0010
,
0100
0001
0010
0100
,
1000
0100
0010
0001
,
0100
0010
1000
0010
,
0100
0000
0011
0000
,
0100
0000
1010
0000
,
0001
0000
1100
0000
,
0010
0000
0101
0000
,
0001
0001
0100
0100
,
0010
0010
1000
1000
,
0101
0101
0101
0101
,
1100
1100
1100
1100
,
1000
0100
1000
0100
,
0010
0001
0010
0001
,
1000
1000
1000
1000
,
0001
0001
0001
0001
,
0100
0100
0100
0100
,
0010
0010
0010
0010
,
1001
0000
0001
0000
,
0100
0000
0010
1000
,
0001
0100
0010
0000
,
1000
0000
0100
1000
,
0010
0010
0100
0000
,
0001
0000
0010
0100
,
1000
0010
0100
0000
,
0001
0000
0010
0001
,
0100
0010
1000
1000
,
0100
0100
0010
0010
,
0001
0001
0100
0100
,
0010
0010
1000
0010
,
0100
0001
1000
1000
,
0100
0100
0010
0010
,
0001
0001
0010
0010
,
0100
0100
1000
0010
,
0100
0001
1000
0000
,
0000
0000
0000
0001
,
0000
0000
0000
0000
,
0100
0000
0000
0000
,
0000
0010
0000
0000
,
0000
0000
1000
0000
,
0000
0000
0000
0010
,
0000
0000
0000
1000
;

//---------------dance-single - ----------------
#NOTES:
     dance-single:
     :
     Beginner:
     2:
     0.123,0.270,0.014,0.000,0.000:
0000
0000
0000
0000
,
0000
0000
0000
0000
,
0000
0000
0000
0000
,
0000
0000
0000
0000
,
0000
0000
0000
0000
,
0000
0000
0000
0000
,
0000
0000
0000
0000
,
1000
0000
0000
0000
,
0001
0000
0000
0000
,
0100
0000
0000
0000
,
0010
0000
0000
0000
,
1000
0000
0000
0000
,
0010
0000
0000
0000
,
0100
0000
0000
0000
,
0001
0000
0000
0000
,
0010
0000
0000
0000
,
0100
0000
0000
0000
,
1000
0000
1000
0000
,
0000
0000
0001
0000
,
0000
0100
0000
0000
,
0000
0010
0000
0000
,
1000
0000
0000
0000
,
0010
0000
0000
0100
,
0000
0000
0000
0001
,
0000
0000
0010
0000
,
0000
0000
1000
0000
,
0000
0100
0000
0000
,
0000
0010
0000
0000
,
0001
0000
0001
0000
,
0100
0000
0100
0000
,
0010
0000
0010
0000
,
1000
0000
1000
0000
,
0001
0000
0001
0000
,
1000
0000
1000
0000
,
0100
0000
0100
0000
,
0010
0000
0000
0000
,
0001
0000
0000
0100
,
0000
0000
0000
0010
,
0000
0000
1001
0000
,
0000
0000
0000
0000
,
0000
0000
0000
0000
,
0000
0000
0000
0000
,
1001
0000
0000
0000
,
0000
0000
0000
0000
,
1000
0000
1000
0000
,
0100
0000
0100
0000
,
0010
0000
0010
0000
,
0001
0000
0001
0000
,
0100
0000
0100
0000
,
0010
0000
0010
0000
,
1000
0000
1000
0000
,
0000
0000
0001
0000
,
0000
0000
0010
0000
,
0000
0000
0000
0100
,
0000
0100
0000
0100
,
0000
0010
0000
0001
,
0001
0001
0001
0001
,
0001
0001
0001
0001
,
0001
0000
0001
0000
,
1000
0000
1000
0000
,
0001
0001
0001
0001
,
0001
0001
0001
0001
,
0001
0001
0001
0001
,
0001
0001
0001
0001
,
0001
0000
1000
0000
,
0000
0000
0100
0000
,
0000
0000
0010
0000
,
0000
0000
0001
0000
,
0000
0000
1000
0000
,
0000
0000
0010
0000
,
0000
0000
0100
0000
,
0000
0000
0001
0000
,
0000
0000
1000
0000
,
1000
0000
0100
0000
,
0100
0000
0010
0000
,
0010
0000
0001
0000
,
0001
0000
0100
0000
,
0100
0000
0010
0000
,
0010
0000
1000
0000
,
1000
0000
0001
0000
,
0001
0000
1000
0000
,
0000
0000
0000
0100
,
0000
0000
0000
0000
,
0001
0000
0000
0000
,
0000
0010
0000
0000
,
0000
0000
0100
0000
,
0000
0000
0000
1000
,
0000
0000
0000
0001
;
