#TITLE:Neko Miko Reimu;
#SUBTITLE:;
#ARTIST:IOSYS;
#TITLETRANSLIT:Neko Miko Reimu;
#SUBTITLETRANSLIT:;
#ARTISTTRANSLIT:IOSYS;
#CREDIT:Gpop & Itsugo15;
#BANNER:Neko Miko Reimu.png;
#BACKGROUND:Neko Miko Reimu - BG.png;
#LYRICSPATH:Neko Miko Reimu.lrc;
#CDTITLE:Collab.png;
#MUSIC:Neko Miko Reimu.ogg;
#OFFSET:1.380;
#SAMPLESTART:72.040;
#SAMPLELENGTH:30.000;
#SELECTABLE:YES;
#BPMS:0.000=160.000;
#STOPS:;
#BGCHANGES:3.750=Neko Miko Reimu.avi=1.000=1=0=1,
317.000=Neko Miko Reimu - BG.png=1.000=0=0=1,
99999=-nosongbg-=1.000=0=0=0 // don't automatically add -songbackground-
;

//---------------dance-single - Expert by Gpop----------------
#NOTES:
     dance-single:
     Expert by Gpop:
     Challenge:
     10:
     0.820,1.000,0.261,0.101,0.669: // measure 1
0000
0000
0000
0000
,  // measure 2
0000
0000
0000
0000
,  // measure 3
0000
0000
0000
0000
,  // measure 4
0000
0000
0000
0000
,  // measure 5
0000
0000
0000
0000
,  // measure 6
0000
0000
0000
0000
,  // measure 7
0000
0000
0000
0000
,  // measure 8
0000
0000
0000
0000
,  // measure 9
0000
0000
0000
0000
,  // measure 10
1001
0000
1000
0100
1000
0100
1000
0100
1000
0100
1000
0100
1000
0100
0010
0000
,  // measure 11
0000
0001
0100
0001
0100
0001
0100
0001
0100
0001
0100
0001
0100
0001
0100
0001
,  // measure 12
1000
0000
0001
1000
0001
1000
0001
1000
0001
1000
0001
1000
0001
1000
0010
0000
,  // measure 13
0000
0100
0010
0100
0010
0100
0010
0100
0010
0100
0010
0100
0010
0100
0010
0100
,  // measure 14
0001
0000
1000
0010
1000
0010
1000
0010
1000
0010
1000
0010
1000
0010
0100
0000
,  // measure 15
0000
0001
0010
0001
0010
0001
0010
0001
0010
0001
0010
0001
0010
0001
0010
0001
,  // measure 16
0010
0100
1000
0100
0010
0100
1000
0001
1000
0000
0000
0110
0000
0000
2002
0000
,  // measure 17
3003
0000
1000
0000
0001
0100
0010
0100
0010
0100
0001
0010
0100
1000
0100
0010
,  // measure 18
0001
0000
0100
0000
0010
0000
0100
0000
0100
0000
0001
0000
0010
0000
0100
1000
,  // measure 19
0100
0010
0001
0000
0100
0000
0010
0000
1000
0000
0010
0000
0100
0000
0001
0010
,  // measure 20
0100
0000
1000
0000
0010
0000
0100
0000
0001
0000
0100
0000
0001
0000
0010
0100
,  // measure 21
0010
0001
0100
0000
0010
0000
1000
0000
0010
0000
0001
0000
0010
0000
1000
0100
,  // measure 22
1000
0000
0010
0000
0100
0000
0001
0000
0010
0000
0100
0000
1000
0000
0100
1000
,  // measure 23
0100
0010
0001
0000
1000
0000
0010
0000
0100
0000
0001
0000
0010
0000
0100
1000
,  // measure 24
0001
0100
0010
1000
0001
0100
0010
1000
0001
0010
0100
1000
0001
0010
0100
1000
,  // measure 25
0001
0100
0001
0010
0001
0100
0010
1000
0100
1000
0010
0100
0001
0010
0100
1000
,  // measure 26
0001
0000
0001
0000
0100
0000
0010
0000
0010
0000
0010
0000
1000
0000
0001
0100
,  // measure 27
0010
0100
0001
0000
0010
0000
0100
0000
1000
0000
0001
0000
1000
0100
1000
0100
,  // measure 28
1000
0000
0010
0100
0000
0000
0101
0000
0000
0000
0001
0000
0100
0010
0100
0010
,  // measure 29
1000
2002
0000
0000
0000
3003
1000
0001
,  // measure 30
1000
0100
0010
0001
1000
0100
0010
0001
,  // measure 31
1000
0000
0010
0000
0100
0000
0001
0100
0001
0000
0010
0000
0100
0000
1000
0000
,  // measure 32
0001
0100
0010
1000
0010
0100
0001
0010
,  // measure 33
0110
0000
0100
0000
1000
0000
0010
0000
0100
0000
0001
0000
0100
0000
0010
1000
,  // measure 34
0010
0100
0001
0010
0010
0001
0100
0010
,  // measure 35
1000
0000
0100
0000
0010
0000
0001
0010
0001
0000
0010
0000
0100
0000
1000
0000
,  // measure 36
0001
0100
0010
1000
0001
0100
0001
0100
,  // measure 37
1001
0000
1000
0100
1000
0000
0001
0100
0000
0001
0100
0010
1000
0100
1000
0001
,  // measure 38
1000
0001
0100
0001
0001
0010
0100
1000
,  // measure 39
1001
0000
0001
0000
0100
0000
0010
1000
0010
0000
0100
0000
0001
0000
1000
0000
,  // measure 40
1100
0100
0010
0100
0100
1000
0010
0100
,  // measure 41
0101
0001
1000
0010
1000
0100
1000
0001
,  // measure 42
2000
0100
3100
0010
0002
0100
0103
0010
,  // measure 43
2000
0000
0001
0000
3001
0000
0100
0010
0100
0000
0001
0000
0010
0000
0100
0000
,  // measure 44
2000
0010
3010
0100
0002
1000
1003
0001
,  // measure 45
1000
0000
0001
0100
0010
0100
0001
0010
0100
1000
0100
1000
0001
1000
0100
1000
,  // measure 46
0100
1100
0100
0010
0011
0011
0001
1000
,  // measure 47
1010
0000
1010
0000
0010
0000
0200
0000
0000
0000
0301
0000
1000
0000
0010
0100
,  // measure 48
0010
0000
0110
0000
0100
0000
0001
0000
1001
0000
1000
0001
1000
0000
0100
0000
,  // measure 49
0010
0000
0010
0000
0010
0000
0010
0000
0010
0000
0001
1000
0001
0000
MMMM
0000
,  // measure 50
1000
0000
0100
0000
1000
0000
0100
0000
0010
0000
0000
0010
0000
0000
0010
0001
,  // measure 51
0010
0100
1000
0000
0010
0000
0000
0000
0100
0000
0000
0001
0000
0000
0100
0010
,  // measure 52
1000
0000
0001
0000
1000
0000
0001
0000
1000
0000
0000
0010
0000
0000
0100
0001
,  // measure 53
0100
0010
1000
0000
0001
0000
1000
0010
1000
0000
0000
0100
0000
0000
1000
0100
,  // measure 54
1000
0000
0100
0000
1000
0000
0100
0000
0010
0000
0000
0001
0000
0000
0010
0100
,  // measure 55
1000
0100
0010
0000
0001
0000
0001
0000
0100
0000
0000
0010
0000
0000
1000
0100
,  // measure 56
1000
0000
0010
0000
0100
0000
0001
0000
1001
0000
0000
0101
0000
0000
1001
0000
,  // measure 57
0000
0000
1000
0000
0001
0000
0000
0000
1000
0000
0000
0001
0000
0000
1000
0000
,  // measure 58
1000
0000
0001
0000
1000
0000
0001
0000
1000
0000
0000
1000
0000
0000
0001
0100
,  // measure 59
0001
0100
0010
0000
1000
0000
0100
0000
0010
0000
0000
0010
0000
0000
0010
0001
,  // measure 60
1000
0000
0010
0000
1000
0000
0010
0000
1000
0000
0000
1000
0000
0000
0001
1000
,  // measure 61
0001
1000
0010
0000
0100
0000
0001
1000
0010
0000
0000
0010
0000
0000
0010
0000
,  // measure 62
1010
0000
1000
0000
0010
0000
1000
0000
0010
0000
0000
0100
0000
0000
0001
1000
,  // measure 63
0001
1000
0001
0000
0100
0000
0010
0000
1000
0000
0000
0100
0000
0000
1000
0100
,  // measure 64
0010
0000
0001
0000
0010
0000
0001
0000
1000
0000
0000
1000
0000
0000
0001
0100
,  // measure 65
0001
0000
1000
0000
1000
0000
0000
0000
1000
0000
0000
1000
0000
0000
1000
0000
,  // measure 66
1001
0000
0001
0000
0100
0000
0010
0000
1000
0000
0010
0000
0100
0000
0001
0100
,  // measure 67
0010
0100
0001
0000
1000
0000
0100
0000
1000
0000
0010
0000
1000
0000
0001
0100
,  // measure 68
0010
0000
0100
0000
0001
0000
0100
0000
0010
0000
1000
0000
0001
0000
1000
0100
,  // measure 69
0010
0100
1000
0000
0010
0000
1000
0000
0010
0000
0001
0000
0010
0000
0100
0000
,  // measure 70
1001
0000
0001
0000
0100
0000
0010
0000
1000
0000
0010
0000
1000
0000
0100
0010
,  // measure 71
0001
0010
0100
0000
1000
0000
0010
0000
0100
0000
0001
0000
0100
0000
0001
1000
,  // measure 72
0010
0000
1000
0000
1000
0000
0001
0000
0100
0000
0010
0000
0010
0000
1000
0001
,  // measure 73
1000
0000
0100
0000
1000
0100
1000
0000
0001
0100
0001
0000
1000
0000
0010
0000
,  // measure 74
1000
0000
0010
0100
0001
0000
0010
0100
1000
0000
0001
0010
0100
0000
1000
0100
,  // measure 75
1000
1100
1001
0101
1MM1
0000
1MM1
0000
,  // measure 76
1MM1
0000
1MM1
2200
0000
0000
0000
0000
,  // measure 77
0000
0000
0000
0000
,  // measure 78
0000
0000
0000
0000
,  // measure 79
0000
0000
0000
0000
,  // measure 80
0000
0000
0000
0010
0001
0010
3301
0000
0000
0000
0000
0000
0000
0000
0000
0000
0000
0000
0000
0000
0000
0000
0000
0000
;

//---------------dance-single - Standard by Gpop----------------
#NOTES:
     dance-single:
     Standard by Gpop:
     Medium:
     5:
     0.344,0.400,0.034,0.034,0.000:
0000
0000
0000
0000
,
0000
0000
0000
0000
,
0000
0000
0000
0000
,
0000
0000
0000
0000
,
0000
0000
0000
0000
,
0000
0000
0000
0000
,
0000
0000
0000
0000
,
0000
0000
0000
0000
,
0000
0000
0000
0000
,
1000
0001
1000
0001
1000
0000
0000
1000
,
0000
0001
0100
0010
,
1000
0100
1000
0100
1000
0000
0000
1000
,
0000
0010
0100
0001
,
0100
0010
0100
0010
0100
0000
0000
0100
,
0000
0010
1000
0001
,
1000
0001
1000
0001
1000
0000
0000
1000
,
0000
0001
0100
0010
,
1001
1000
0010
0100
,
0001
0100
0100
0100
,
0100
0010
1000
0010
,
0100
0001
0001
0001
,
0001
0010
0100
1000
,
0001
0100
0010
0010
,
0010
1000
0001
1000
,
0001
0100
0010
1000
,
1000
0000
0001
0000
,
0100
0000
0010
0000
,
1000
0000
0001
0000
,
1000
0002
0000
0000
0000
0000
1000
0000
,
1003
0010
0100
0001
,
0100
0000
0010
0000
1000
0100
1000
0100
,
1000
0010
0100
0001
,
1000
0100
0010
0001
,
0010
0100
1000
0010
,
0100
0000
0001
0000
1000
0100
0010
0001
,
1000
0010
0100
0001
,
0100
0010
1000
0010
,
0001
0100
1000
0010
,
0100
0000
0001
0000
0010
0100
0010
0001
,
1000
0010
0100
0001
,
0100
0010
1000
0100
,
0001
0010
1000
0100
,
1000
0000
0010
0000
0100
0001
1000
0010
,
0100
0001
0010
0100
,
1000
0000
0001
0000
0100
0010
1000
0000
,
0001
0001
0000
0000
0100
0100
0000
0000
,
0010
0010
0000
0020
0000
0000
0130
0000
,
0001
0001
0000
0000
0100
0100
0000
0000
,
1000
0001
1000
0001
1000
0000
1001
0000
,
0001
0100
0010
0000
1000
0000
0000
1000
,
0000
0100
0001
1000
,
0001
0100
0001
0000
0010
0000
0000
0010
,
0000
0100
1000
0010
,
0100
0001
0100
0000
0010
0000
0000
0010
,
0000
1000
0100
1000
,
0010
0100
0010
0000
0100
0000
0000
0100
,
0000
0001
0010
0100
,
1000
0100
0010
0000
0001
0000
0000
0001
,
0000
0100
0010
1000
,
0010
0100
0010
0000
1000
0000
0000
1000
,
0000
0010
0100
0001
,
1000
0010
0100
0000
0010
0000
0000
0010
,
0000
0100
0001
0010
,
0100
1000
0010
0000
0100
0000
0000
0100
,
0000
0001
0100
0010
,
1001
1000
0010
0100
,
0001
0010
0010
0010
,
0010
0100
1000
0010
,
0100
0001
0001
0001
,
0001
0010
0100
0010
,
0001
0100
0010
0010
,
0010
1000
0001
0100
,
0010
0100
0000
0001
0000
0010
0000
0100
,
0000
1000
0000
0001
0000
0100
0000
0010
,
1000
0001
1000
0001
1000
0000
1000
0000
,
1000
0000
1000
2002
0000
0000
0000
0000
,
0000
0000
0000
0000
,
0000
0000
0000
0000
,
0000
0000
0000
0000
,
0000
3003
0000
0000
;

//---------------dance-single - Beginner by Gpop----------------
#NOTES:
     dance-single:
     Beginner by Gpop:
     Beginner:
     1:
     0.111,0.190,0.042,0.000,0.000:
0000
0000
0000
0000
,
0000
0000
0000
0000
,
0000
0000
0000
0000
,
0000
0000
0000
0000
,
0000
0000
0000
0000
,
0000
0000
0000
0000
,
0000
0000
0000
0000
,
0000
0000
0000
0000
,
0000
0000
0000
0000
,
1001
0000
0000
0000
,
0000
0000
0000
0000
,
1001
0000
0000
0000
,
0000
0000
0000
0000
,
1001
0000
0000
0000
,
0000
0000
0000
0000
,
1001
0000
0000
0000
,
0000
0000
0000
0000
,
1000
0000
0000
0000
,
1000
0000
0000
0000
,
0001
0000
0000
0000
,
0001
0000
0000
0000
,
0100
0000
0000
0000
,
0010
0000
0000
0000
,
0110
0000
0000
0000
,
0000
0000
0000
0000
,
1000
0000
0000
0000
,
0100
0000
0000
0000
,
0010
0000
0000
0000
,
0001
0000
0000
0000
,
1000
0000
1000
0000
,
0100
0000
0000
0000
,
0010
0000
0001
0000
,
0010
0000
0000
0000
,
0100
0000
1000
0000
,
0100
0000
0000
0000
,
1000
0000
0010
0000
,
0100
0000
0000
0000
,
0001
0000
0010
0000
,
0100
0000
0000
0000
,
1000
0000
0100
0000
,
1000
0000
0000
0000
,
0010
0000
0100
0000
,
0001
0000
0000
0000
,
0100
0000
0010
0000
,
1000
0000
0000
0000
,
0001
0000
0001
0000
,
0100
0000
0100
0000
,
0010
0000
0010
0000
,
1000
1000
1000
0000
,
1000
0000
1000
0000
,
0001
0000
0000
0000
,
0100
0000
0100
0000
,
0010
0000
0000
0000
,
1000
0000
0100
0000
,
0010
0000
0000
0000
,
0001
0000
0100
0000
,
0010
0000
0000
0000
,
1000
0000
0100
0000
,
1000
0000
0000
0000
,
0010
0000
0100
0000
,
0001
0000
0000
0000
,
0010
0000
0100
0000
,
1000
0000
0000
0000
,
0010
0000
0100
0000
,
0001
0000
0000
0000
,
1000
0000
0000
0000
,
1000
0000
0000
0000
,
0001
0000
0000
0000
,
0001
0000
0000
0000
,
0100
0000
0000
0000
,
0100
0000
0000
0000
,
0010
0000
0000
0000
,
0010
0000
0000
0000
,
1000
0000
1000
0000
,
0001
0000
0001
0001
,
0001
0001
0000
0000
;

//---------------dance-single - Heavy Itsugo15----------------
#NOTES:
     dance-single:
     Heavy Itsugo15:
     Hard:
     9:
     0.568,0.601,0.371,0.177,0.084:
0000
0000
0000
0000
,
0000
0000
0000
0000
,
0000
0000
0000
0000
,
0000
0000
0000
0000
,
0000
0000
0000
0000
,
0000
0000
0000
0000
,
0000
0000
0000
0000
,
0000
0000
0000
0000
,
0000
0000
0000
0000
,
1000
0000
0010
0000
0100
0000
0001
0000
1000
0000
0000
1000
0000
0000
1001
0000
,
0000
0001
0100
0010
0100
0001
1000
0010
,
1010
0000
1000
0000
0010
0000
0100
0000
0001
0000
0000
0001
0000
0000
0101
0000
,
0000
0100
0010
1000
0010
0100
0001
1000
,
1001
0000
0001
0000
1000
0000
0100
0000
0010
0000
0000
0010
0000
0000
0110
0000
,
0000
0010
0100
0010
0100
0000
0020
0000
,
0031
0000
1000
0000
0010
0000
0100
0000
0110
0000
0000
0110
0000
0000
1001
0000
,
0000
0000
1000
0000
0001
0000
1000
0000
0002
0000
0000
1000
0000
0000
1003
0000
,
1000
0010
0100
0001
0100
0010
0100
0001
,
1000
0010
0100
0100
0001
0001
1000
1000
,
0200
0010
0001
0010
,
1300
0100
0010
0100
1000
0001
0100
0010
,
0200
1000
0010
0001
,
0310
0000
0010
1010
,
1000
0100
0010
0001
0010
0100
1000
0100
,
1000
0010
0100
0001
0010
0100
1000
0100
,
1000
0001
1000
0001
0000
0010
0010
0000
,
0001
0010
0001
0010
0000
0100
0100
0000
,
0110
0100
0010
0001
0010
0001
1000
0010
,
1010
2020
0000
0000
3030
0000
1000
0000
,
0001
0010
0100
0000
1000
0001
0100
0000
,
0020
0000
0030
0010
1000
0001
0100
0010
,
1000
0001
0010
0000
0001
0010
0100
0000
,
1000
0100
0010
0100
1000
0001
0010
0100
,
0010
0001
1000
0000
0100
0010
0001
0000
,
2000
0000
0000
0000
3000
0000
0001
1000
0001
0000
0010
0000
0001
0000
1000
0000
,
0020
0000
0030
0100
0002
0000
0100
0000
,
0103
0000
0001
0100
0001
0000
0100
0000
0001
0000
0100
0000
0001
0000
0100
0000
,
1000
0100
0001
0000
0001
1000
0010
0000
,
0200
0000
0300
0100
0001
1000
0010
0100
,
0001
1000
0100
0000
1000
0100
0010
0000
,
0001
0010
0100
0010
0001
1000
0100
0010
,
0100
1000
0001
0000
0010
0100
1000
0000
,
0002
0000
0000
0000
0003
0000
1000
0001
1000
0000
0100
0000
1000
0000
0001
0000
,
0200
0000
0300
0010
2000
0000
0010
0000
,
3010
0000
1000
0010
1000
0000
0010
0000
1000
0000
0010
0000
1000
0000
0010
0000
,
1000
1000
0000
0000
0001
0001
0000
0000
,
0010
0010
0000
0100
0000
0100
0010
0001
,
1000
1000
0000
0000
0001
0001
0000
0000
,
1001
1000
1001
1000
1001
0000
1100
0000
,
0100
0000
1000
0000
0010
0000
0100
0000
0001
0000
0000
0001
0000
0000
0001
0000
,
0000
0100
0010
1000
0010
0100
0001
0100
,
0010
0000
1000
0000
0001
0000
0010
0000
0100
0000
0000
0100
0000
0000
0100
0000
,
0000
1000
0100
0010
0100
1000
0100
0010
,
0001
0000
1000
0000
0010
0000
0100
0000
0001
0000
0000
0001
0000
0000
0001
0000
,
0000
0100
0010
0100
0010
0000
0100
0000
,
0001
0000
1000
0000
0100
0000
0010
0000
0110
0000
0000
1001
0000
0000
0110
0000
,
0000
0000
0010
0000
0100
0000
0001
0000
0001
0000
0000
0010
0000
0000
0010
0000
,
0011
0000
0001
0000
1000
0000
0010
0000
1010
0000
0000
1001
0000
0000
0101
0000
,
0000
0001
0100
0001
0100
0000
0001
0000
,
1000
0000
0010
0000
0100
0000
0001
0000
0101
0000
0000
1001
0000
0000
1010
0000
,
0000
1000
0010
0100
0002
0000
0103
0010
,
1000
0000
0001
0000
0010
0000
0100
0000
0110
0000
0000
0011
0000
0000
0101
0000
,
0000
0001
1000
0100
1100
0000
1010
0000
,
0010
0000
1000
0000
0100
0000
0010
0000
0110
0000
0000
1001
0000
0000
0110
0000
,
0000
0000
0010
0000
0100
0000
0001
0000
0101
0000
0000
0110
0000
0000
1010
0000
,
0001
0100
0010
1000
0010
0100
0010
1000
,
0001
0100
0010
0010
1000
1000
0001
0001
,
0020
0100
1000
0100
,
0031
0010
0100
0010
0001
1000
0010
0100
,
0020
0001
0100
1000
,
0130
0110
0100
0101
,
2002
0000
0000
0000
,
0000
0000
3003
1000
,
0001
0010
0100
1000
,
0100
1000
0100
1000
0100
0000
1001
0000
,
0110
0000
1001
2002
0000
0000
0000
0000
,
0000
0000
0000
0000
,
0000
0000
0000
0000
,
0000
0000
0000
0000
,
3003
0000
0000
0001
1000
0000
0000
0000
0000
0000
0000
0000
0000
0000
0000
0000
;

//---------------dance-single - Light Itsugo 15----------------
#NOTES:
     dance-single:
     Light Itsugo 15:
     Easy:
     3:
     0.154,0.234,0.067,0.076,0.000:
0000
0000
0000
0000
,
0000
0000
0000
0000
,
0000
0000
0000
0000
,
0000
0000
0000
0000
,
0000
0000
0000
0000
,
0000
0000
0000
0000
,
0000
0000
0000
0000
,
0000
0000
0000
0000
,
0000
0000
0000
0000
,
1000
0000
0000
0000
0000
0000
0000
1010
,
0000
0000
0000
0000
,
0100
0000
0000
0000
0000
0000
0000
0101
,
0000
0000
0000
0000
,
0001
0000
0000
0000
0000
0000
0000
1100
,
0000
0000
0000
0000
,
1000
0000
0000
0000
0000
0000
0000
0011
,
0000
0000
0000
0000
,
2000
0000
0000
0000
,
3000
0000
0000
1000
,
0002
0000
0000
0000
,
0003
0000
0000
0001
,
0020
0000
0000
0000
,
0030
0000
0000
0010
,
0200
0000
0000
0000
,
0000
0000
0300
0000
,
0110
0000
0000
0000
,
0011
0000
0000
0000
,
1100
0000
0000
0000
,
1001
0000
0000
0000
,
1000
0000
0000
0000
,
1000
0000
0000
0000
,
0001
0000
0000
0000
,
0001
0000
0000
0000
,
0100
0000
0000
0000
,
0100
0000
0000
0000
,
0010
0000
0000
0000
,
0010
0000
0000
0000
,
1000
0000
0001
0000
,
0010
0000
0010
0000
,
0001
0000
1000
0000
,
0100
0000
0100
0000
,
0100
0000
1000
0000
,
0010
0000
0010
0000
,
0100
0000
0001
0000
,
0001
0000
0001
0000
,
1000
0000
0000
0000
,
0010
0000
0000
0000
,
0100
0000
0000
0000
,
0001
0001
0001
1000
,
0010
0000
1000
0000
,
0010
0000
0100
0001
,
1000
0000
0001
0000
,
1000
0000
0100
0010
,
0001
0000
0010
0000
,
0001
0000
0100
0010
,
1000
0000
0010
0010
,
1000
0000
1000
1000
,
0100
0000
0010
0000
,
0001
0000
0001
0001
,
1000
0000
0010
0000
,
0100
0000
0100
0100
,
0001
0000
1000
0000
,
0100
0000
0100
0100
,
0010
0000
0001
0000
,
1000
0000
1000
1000
,
0020
0000
0000
0000
,
0030
0100
0100
0100
,
0002
0000
0000
0000
,
0003
1000
1000
1000
,
0020
0000
0000
0000
,
0000
0030
0000
0000
0100
0000
0000
0000
,
0002
0000
0000
0000
,
0000
0000
0003
0000
,
1000
0000
0001
0000
,
1000
1000
1000
0001
,
1000
0000
0001
2000
0000
0000
0000
0000
,
0000
0000
0000
0000
,
0000
0000
0000
0000
,
0000
0000
0000
0000
,
0000
3000
0000
0000
;
