#TITLE:Native Faith;
#SUBTITLE:;
#ARTIST:Colour Sound ~xi-on~;
#TITLETRANSLIT:;
#SUBTITLETRANSLIT:;
#ARTISTTRANSLIT:;
#CREDIT:;
#BANNER:Native Faith (xi-on) - BN.png;
#BACKGROUND:Native Faith (xi-on) - BG.png;
#LYRICSPATH:;
#CDTITLE:cdtitlegpop.png;
#MUSIC:Native Faith.ogg;
#OFFSET:-0.180;
#SAMPLESTART:49.965;
#SAMPLELENGTH:12.000;
#SELECTABLE:YES;
#BPMS:0.000=164.001;
#STOPS:;
#BGCHANGES:;

//---------------dance-single - ----------------
#NOTES:
     dance-single:
     :
     Challenge:
     13:
     1.000,1.000,0.292,0.836,1.000: // measure 1
0000
0000
0000
0000
,  // measure 2
0000
0000
0000
0000
0000
0000
0000
0001
,  // measure 3
1001
1000
0100
0010
0001
0010
0100
1000
,  // measure 4
0001
0000
0100
0000
1000
0000
0100
0000
0001
0000
0010
0000
0100
1000
0100
0010
,  // measure 5
0001
0100
0001
0100
0001
0100
0001
0100
0010
0100
0010
0100
0010
0100
0010
0100
,  // measure 6
0010
1000
0010
1000
0010
1000
0010
1000
0001
1000
0001
1000
0001
1000
0001
1000
,  // measure 7
0001
0010
0100
1000
0001
0010
0100
1000
0001
0100
0010
1000
0001
0100
0010
1000
,  // measure 8
0001
0010
0001
0100
0010
1000
0100
0010
0100
1000
0010
0100
0001
0010
0100
0010
,  // measure 9
0100
1000
0100
0010
0001
0100
0010
0100
0001
0100
0010
1000
0100
1000
0100
0010
,  // measure 10
0001
0010
0001
1000
0010
0100
0001
0010
0100
1000
0100
1000
0010
0100
0001
1000
,  // measure 11
0002
0000
0103
0010
2010
0000
3001
0010
,  // measure 12
0210
0000
0000
2300
0000
0000
3010
0000
0210
0000
0000
0000
0301
0000
0010
0000
,  // measure 13
1002
0000
0000
0000
0103
0000
0010
0000
2100
0000
0000
3200
0000
0000
0310
0000
,  // measure 14
0012
0000
1000
1000
1000
0000
1003
0010
,  // measure 15
0210
0000
0000
0000
0301
0000
0010
0100
2000
0000
0000
3200
0000
0000
0302
0000
,  // measure 16
0023
0000
0000
2030
0000
0000
3002
0000
0023
0000
0000
2030
0000
0000
3200
0000
,  // measure 17
0302
0000
0000
0000
2003
0000
0000
0000
3010
0000
0000
0100
0000
0000
0001
0000
,  // measure 18
0010
0010
0100
0100
2000
0000
3010
0100
,  // measure 19
0102
0000
0103
0010
2010
0000
3001
0100
,  // measure 20
0120
0000
0000
2030
0000
0000
3001
0000
0021
0000
0000
0000
0031
0000
0100
0000
,  // measure 21
0120
0000
0000
0000
1030
0000
0001
0000
0021
0000
0000
0230
0000
0000
1300
0000
,  // measure 22
0120
0000
0000
0000
1030
0000
0001
0010
0100
1000
0100
0010
0001
0100
0010
1000
,  // measure 23
0002
0000
0000
0000
0103
0000
0010
0100
0002
0000
0000
0023
0000
0000
2030
0000
,  // measure 24
3200
0000
0000
0302
0000
0000
2003
0000
3002
0000
0000
0203
0000
0000
1300
0000
,  // measure 25
0001
0100
0010
1000
0001
0010
0100
1000
0100
0010
0001
0100
0010
1000
0001
1000
,  // measure 26
0001
0100
0001
1000
0100
1000
0001
0100
0001
1000
0100
1000
0002
0000
0000
0000
,  // measure 27
1003
0100
1000
0100
1000
0100
1000
0100
0010
0100
0010
0100
0010
0100
0010
0100
,  // measure 28
0010
0001
0010
0001
0010
0001
0010
0001
1000
0001
1000
0001
1000
0001
1000
0001
,  // measure 29
1000
0010
1000
0010
1000
0010
1000
0010
0100
0010
0100
0010
0100
0010
0100
0010
,  // measure 30
0100
0001
0100
0001
0100
0001
0100
0001
1000
0001
1000
0001
1000
0001
1000
0001
,  // measure 31
1000
0100
0010
0001
1000
0100
0010
0001
1000
0010
0100
0001
1000
0010
0100
0001
,  // measure 32
1000
0100
0010
0100
1000
0010
0100
0010
0100
0001
0010
0001
0010
0100
1000
0100
,  // measure 33
1000
0010
0100
0001
0010
0001
0100
0010
1000
0100
1000
0001
0100
0001
1000
0100
,  // measure 34
1000
0010
0100
0001
0010
0001
0010
0100
1000
0010
0100
0001
0010
0100
0010
0001
,  // measure 35
2000
0000
3010
0100
0102
0000
0103
0010
,  // measure 36
2010
0000
0000
3020
0000
0000
0230
0000
0302
0000
0000
0000
1003
0000
0100
0000
,  // measure 37
0120
0000
0000
0000
0031
0000
0100
0000
1020
0000
0000
2030
0000
0000
3001
0000
,  // measure 38
0012
0000
1000
0000
0100
0000
1003
0010
,  // measure 39
0102
0000
0000
0000
0103
0000
0010
1000
0200
0000
0000
0320
0000
0000
0032
0000
,  // measure 40
0203
0000
0000
0320
0000
0000
2030
0000
3200
0000
0000
0320
0000
0000
0032
0000
,  // measure 41
0203
0000
0000
0000
0320
0000
0000
0000
1030
0000
0000
0100
0000
0000
0010
0000
,  // measure 42
0001
0001
0100
0100
1002
0000
0103
0010
,  // measure 43
2010
0000
3010
0100
0102
0000
1003
0010
,  // measure 44
0102
0000
0000
0203
0000
0000
0310
0000
2010
0000
0000
0000
3010
0000
0100
0000
,  // measure 45
0102
0000
0000
0000
1003
0000
0010
0000
0210
0000
0000
0302
0000
0000
2003
0000
,  // measure 46
3200
0000
0000
0000
0310
0000
0001
0010
0100
1000
0100
0010
0001
0100
0010
1000
,  // measure 47
0002
0000
0000
0000
0103
0000
0010
1000
0002
0000
0000
0023
0000
0000
2030
0000
,  // measure 48
3200
0000
0000
0302
0000
0000
0203
0000
2300
0000
0000
3002
0000
0000
2003
0000
,  // measure 49
3100
0001
0010
0100
1000
0000
0001
0010
0100
1000
0010
0100
0001
0100
0010
1000
,  // measure 50
0002
0000
0000
1000
0000
1000
0000
1003
,  // measure 51
2200
0000
0000
0001
0000
0000
0001
0000
0001
0000
0000
0000
3300
0000
0000
0000
,  // measure 52
0102
0000
0000
0100
0000
0000
1000
0000
1000
0000
0000
0010
0000
0000
0103
0000
,  // measure 53
0120
0000
0000
1000
0000
0000
0001
0000
0001
0000
0000
0100
0000
0000
1030
0000
,  // measure 54
2002
0000
0000
0000
3003
0000
1000
0000
0000
0001
0010
0100
1000
0010
0100
0001
,  // measure 55
1000
0100
0010
0001
1000
0100
0010
0001
2000
0000
0000
0000
3002
0000
0000
0000
,  // measure 56
2003
0000
0000
0010
0000
0000
3001
0000
1000
0100
0010
0001
1000
0100
1000
0000
,  // measure 57
0001
0100
0001
0100
0001
0100
0001
0100
0010
1000
0010
1000
0010
1000
0010
1000
,  // measure 58
0001
1000
0001
1000
0001
1000
0001
1000
0001
0010
0100
1000
0001
0010
0100
1000
,  // measure 59
0002
0000
0000
0200
0000
0000
1000
0000
1000
0000
0000
0000
0303
0000
0000
0000
,  // measure 60
2001
0000
0000
0010
0000
0000
3100
0000
0210
0000
0000
0001
0000
0000
1300
0000
,  // measure 61
2100
0000
0000
0010
0000
0000
3001
0000
0102
0000
0000
0010
0000
0000
1003
0000
,  // measure 62
2002
0000
0000
0000
3003
0000
1000
0000
0000
0001
0010
0100
1000
0010
0100
0001
,  // measure 63
1000
0100
0010
0001
1000
0100
0010
0001
2000
0000
0000
0000
3020
0000
0000
0000
,  // measure 64
0230
0000
0000
1000
0000
0000
0001
0000
0301
0010
0100
1000
0010
0100
0001
0000
,  // measure 65
1000
0100
1000
0100
1000
0100
1000
0100
0010
0001
0010
0001
0010
0001
0010
0001
,  // measure 66
1000
0010
0100
0001
0010
0100
1000
0100
0010
0001
0100
0010
1000
0001
0010
0100
,  // measure 67
1000
0100
0010
0001
0100
0010
1000
0010
0100
0001
0010
0100
1000
0001
0010
0100
,  // measure 68
1000
0010
0100
0001
0010
0001
0010
0100
1000
0100
1000
0010
0100
0001
0010
0001
,  // measure 69
0010
0100
1000
0010
0100
0001
0100
0010
1000
0001
0010
0001
0100
0010
1000
0100
,  // measure 70
1000
0100
0010
0001
0010
0001
1000
0100
0010
0001
0100
0010
1000
0100
0001
0100
,  // measure 71
1000
0010
0100
0001
0010
0100
1000
0010
0100
0001
0010
1000
0010
0001
0100
0010
,  // measure 72
1000
0100
0010
0001
0100
1000
0100
0001
0010
0100
1000
0100
1000
0010
0100
0001
,  // measure 73
1000
0100
1000
0100
1000
0100
1000
0100
0010
0001
0010
0001
0010
0001
0010
0001
,  // measure 74
1000
0010
0100
0001
1000
0010
0100
0001
1000
0100
0010
0001
0010
0100
1000
0001
,  // measure 75
10M0
0100
M001
0100
10M0
0100
M001
0100
100M
0010
0M01
0010
100M
0010
0M01
0010
,  // measure 76
100M
0100
M010
0100
100M
0100
M010
0100
100M
0100
M010
0001
10M0
0100
M010
0001
,  // measure 77
10M0
0100
1000
0010
0100
0001
0010
0100
1000
0100
0010
0001
0010
0100
0010
0001
,  // measure 78
0100
0010
1000
0100
1000
0100
0010
0001
0010
0001
1000
0010
0100
0001
0100
0010
,  // measure 79
0100
0010
1000
0010
0100
0001
0010
0100
1000
0001
0010
0100
1000
0100
0010
0001
,  // measure 80
0100
0010
1000
0100
1000
0100
0010
0001
0010
0001
1000
0100
0010
0001
1000
0100
,  // measure 81
0010
0001
1000
0010
0100
0001
1000
0010
0100
0001
1000
0100
0010
0100
1000
0001
,  // measure 82
10M0
0100
1000
00M1
0100
0001
1M00
0010
1000
0M01
0010
0001
10M0
0100
0010
0001
,  // measure 83
10M0
0100
0010
M001
0010
0100
100M
0010
0100
00M1
0100
0010
100M
0100
0010
0001
,  // measure 84
10M0
0100
0001
01M0
1000
0010
0M01
0010
1000
01M0
0001
0100
100M
0100
0010
0001
,  // measure 85
10M0
0100
1000
00M1
0100
0001
2M00
0000
0000
0000
0000
0000
3000
0000
0000
0000
;

//---------------dance-single - ----------------
#NOTES:
     dance-single:
     :
     Hard:
     9:
     0.622,0.735,0.300,0.371,0.410:
0000
0000
0000
0000
,
0000
0000
0000
0000
0000
0000
0000
1000
,
1000
0100
0010
0001
1000
0100
0010
0001
,
1000
0010
0100
0001
1000
0000
0001
0100
,
0001
0000
0000
0001
0000
0000
0001
0000
0010
0000
0000
0010
0000
0000
0010
0000
,
0100
0000
0000
0100
0000
0000
0100
0000
1000
0000
0000
1000
0000
0000
1000
0000
,
0001
0000
0000
0100
0000
0000
0010
0000
1000
0000
0000
0100
0000
0000
0010
0000
,
0001
0000
0000
0010
0000
0000
0100
0000
1000
0000
0000
0010
0000
0000
0100
0000
,
0001
0000
0000
0100
0000
0000
0010
0000
1000
0000
0000
0100
0000
0000
1000
0000
,
0010
0000
0000
0100
0000
0000
0001
0000
1000
0000
0000
0100
0000
0000
1000
0000
,
0002
0000
0000
0103
0020
0000
0000
1030
,
0001
0000
0000
0010
0000
0000
0100
0000
1000
0000
0000
0000
0010
0000
0100
0000
,
0002
0000
0000
0000
0000
0000
1003
0000
0100
0000
0000
0100
0000
0000
0010
0000
,
0002
0000
1000
0000
1000
0000
1003
0100
,
2000
0000
0000
0000
0000
0000
3001
0100
0001
0000
0000
0010
0000
0000
0100
0000
,
1000
0000
0000
0010
0000
0000
0100
0000
0001
0000
0000
0100
0000
0000
0010
0000
,
1000
0000
0000
0000
1001
0000
0000
0000
0001
0000
0000
0100
0000
0000
0010
0000
,
1000
0100
1000
0100
0001
0000
1000
0100
,
2000
0000
0000
3010
0200
0000
0000
0301
,
0010
0000
0000
0100
0000
0000
1000
0000
0001
0000
0000
0000
0100
0000
0010
0000
,
2000
0000
0000
0000
0000
0000
3001
0000
0010
0000
0000
0100
0000
0000
0010
0000
,
0002
0000
0000
1003
0100
0010
0001
0100
,
0020
0000
0000
0000
0000
0000
1030
0100
1000
0000
0000
0010
0000
0000
0100
0000
,
0001
0000
0000
0010
0000
0000
0100
0000
1000
0000
0000
0100
0000
0000
0010
0000
,
0001
0100
0010
1000
0010
0100
0001
0010
,
0100
0000
0000
0100
0000
0000
0100
0000
0000
0100
0000
0000
0100
0000
0000
0000
,
1000
0000
0000
1000
0000
0000
1000
0000
0001
0000
0000
0001
0000
0000
0001
0000
,
0100
0000
0000
0100
0000
0000
0100
0000
0010
0000
0000
0010
0000
0000
0010
0000
,
1000
0000
0000
1000
0000
0000
1000
0000
0001
0000
0000
0001
0000
0000
0001
0000
,
0100
0000
0000
0100
0000
0000
0100
0000
0010
0000
0000
0010
0000
0000
0010
0000
,
1000
0000
0000
0100
0000
0000
0010
0000
0001
0000
0000
0100
0000
0000
1000
0000
,
0100
0000
0000
0001
0000
0000
0010
0000
0100
0000
0000
1000
0000
0000
0010
0000
,
0100
0000
0000
0001
0000
0000
0010
0000
1000
0000
0000
0010
0000
0000
0001
0000
,
0100
0000
0000
0010
0000
0000
1000
0000
0001
0000
0000
1000
0000
0000
0010
0000
,
0200
0000
0000
0301
2000
0000
0000
3001
,
0100
0000
0000
0100
0000
0000
0010
0000
1000
0000
0000
0000
0001
0000
0010
0000
,
0002
0000
0000
0000
0000
0000
0103
0000
0010
0000
0000
0100
0000
0000
0001
0000
,
2000
0000
0001
0000
0001
0000
3001
0100
,
0020
0000
0000
0000
0000
0000
1030
0100
1000
0000
0000
0010
0000
0000
0100
0000
,
0001
0000
0000
0010
0000
0000
0100
0000
1000
0000
0000
0010
0000
0000
0100
0000
,
0001
0000
0000
0000
1001
0000
0000
0000
1000
0000
0000
0100
0000
0000
0010
0000
,
0001
0100
0001
0100
1000
0000
0010
0100
,
0002
0000
0000
1003
0020
0000
0000
0130
,
0001
0000
0000
1000
0000
0000
0100
0000
0010
0000
0000
0000
0001
0000
0010
0000
,
0200
0000
0000
0000
0000
0000
1300
0000
0010
0000
0000
0100
0000
0000
0001
0000
,
2000
0000
0000
3001
0010
0100
1000
0010
,
2000
0000
0000
0000
0000
0000
3001
0010
0001
0000
0000
0100
0000
0000
0010
0000
,
1000
0000
0000
0100
0000
0000
0010
0000
0001
0000
0000
0010
0000
0000
0100
0000
,
1000
0100
0010
0000
0001
0100
0010
1000
,
2002
0000
0000
3003
,
2001
0000
0000
0001
0000
0000
0001
0000
0002
0000
0000
0000
3003
0000
0000
0000
,
0102
0000
0000
0100
0000
0000
0100
0000
0203
0000
0000
0010
0000
0000
0010
0000
,
0320
0000
0000
1000
0000
0000
1000
0000
2030
0000
0000
0001
0000
0000
0001
0000
,
0002
0000
3003
1000
0000
0001
0100
0010
,
1000
0100
0010
0001
1000
0000
0010
0000
,
2000
0000
0000
0100
0000
0000
0100
0000
3100
0000
0010
0000
0001
0000
0100
0000
,
0001
0000
0000
0001
0000
0000
0001
0000
0100
0000
0000
0100
0000
0000
0100
0000
,
0010
0000
0000
0010
0000
0000
0010
0000
1000
0000
0100
0000
0010
0000
0001
0000
,
2000
0000
0000
0001
0000
0000
0001
0000
0002
0000
0000
0000
3003
0000
0000
0000
,
0102
0000
0000
0100
0000
0000
0100
0000
0203
0000
0000
0010
0000
0000
0010
0000
,
0320
0000
0000
1000
0000
0000
1000
0000
2030
0000
0000
0100
0000
0000
0100
0000
,
0200
0000
3300
0010
0000
0001
0100
0010
,
1000
0010
0100
0001
1000
0000
0001
0000
,
0010
0000
0000
0010
0000
0000
0010
0000
0100
0000
1000
0000
0010
0000
0100
0000
,
0001
0000
0000
0001
0000
0000
0001
0000
1000
0000
0000
1000
0000
0000
1000
0000
,
0100
0000
0000
0100
0000
0000
0100
0000
0000
0100
0000
0000
0100
0000
0000
0000
,
1001
0000
0000
1000
0000
0000
0010
0000
0100
0000
0000
0001
0000
0000
0010
0000
,
0100
0000
0000
1000
0000
0000
0010
0000
0100
0000
0000
0001
0000
0000
0010
0000
,
0100
0000
0000
0010
0000
0000
0001
0000
0100
0000
0000
1000
0000
0000
0100
0000
,
0001
0000
0000
0010
0000
0000
0100
0000
1000
0000
0000
0010
0000
0000
0100
0000
,
0101
0000
0000
0001
0000
0000
0100
0000
0010
0000
0000
1000
0000
0000
0100
0000
,
0001
0000
0000
0100
0000
0000
1000
0000
0010
0000
0000
0100
0000
0000
0001
0000
,
1001
0000
0000
1000
0000
0000
0100
0000
0110
0000
0000
0010
0000
0000
0001
0000
,
0011
1001
1100
1001
,
0202
0303
2200
3300
,
2020
3030
0022
0033
,
1001
0000
0000
1000
0000
0000
0010
0000
0100
0000
0000
0001
0000
0000
0010
0000
,
0100
0000
0000
1000
0000
0000
0100
0000
0010
0000
0000
0001
0000
0000
0100
0000
,
0110
0000
0000
0010
0000
0000
1000
0000
0010
0000
0000
0100
0000
0000
0001
0000
,
0010
0000
0000
0100
0000
0000
1000
0000
0100
0000
0000
0010
0000
0000
0001
0000
,
1000
0100
0010
0001
0100
0010
1000
0001
,
1001
0000
0000
0101
0000
0000
0110
0000
0000
1010
0000
0000
1001
0000
0000
0000
,
0101
0000
0000
1001
0000
0000
1100
0000
0000
0110
0000
0000
0011
0000
0000
0000
,
1100
0000
0000
0110
0000
0000
0011
0000
0000
1001
0000
0000
1100
0000
0000
0000
,
0101
0000
0000
1100
0000
0000
2002
0000
0000
0000
0000
0000
3003
0000
0000
0000
;

//---------------dance-single - ----------------
#NOTES:
     dance-single:
     :
     Medium:
     6:
     0.507,0.601,0.347,0.442,0.028:
0000
0000
0000
0000
,
0000
0000
0000
0000
0000
0000
0000
1000
,
0001
0100
0010
1000
,
0010
0000
0100
0000
0001
0000
1000
0100
,
1000
1000
0100
0100
,
0010
0010
0001
0001
,
1000
0000
0100
0000
0010
0001
0100
0000
,
0010
0000
1000
0000
0001
0010
0100
0000
,
1000
0000
0010
0000
0100
0001
1000
0000
,
0001
0000
0010
0000
0100
1000
0010
0000
,
0100
0000
0000
0001
0001
0000
0000
1000
,
1000
0000
0010
0000
0100
0000
0001
0100
,
0001
0000
0000
0010
0010
0000
0100
0000
,
2000
0000
0001
0000
0001
0000
3001
0100
,
0001
0000
0000
0100
0010
0000
1000
0000
,
0010
0100
0001
0010
,
0100
1001
1000
0010
,
0100
0001
0100
0001
1000
0000
0001
1000
,
0001
0000
0000
0010
0100
0000
0000
1000
,
0001
0000
0100
0000
0010
0000
1000
0100
,
0010
0000
0000
0001
0010
0000
0100
0000
,
1000
0000
0000
0010
0100
0001
0100
0001
,
1000
0000
0000
0001
0010
0000
0100
0000
,
1000
0010
0100
0001
,
1000
0001
0010
0100
,
1000
0100
0010
0001
1000
0001
1000
0000
,
0001
0001
0100
0100
,
0010
0010
1000
1000
,
0001
0001
0010
0010
,
0100
0100
1000
1000
,
0001
0000
0100
0000
0010
1000
0001
0000
,
0010
0000
0100
0000
1000
0100
0010
0000
,
0001
0000
0100
0000
0010
1000
0001
0000
,
1000
0100
0010
0000
0001
0000
0100
0000
,
0001
0000
0000
0100
0010
0000
0000
1000
,
0100
0000
0010
0000
0001
0000
0100
0010
,
1000
0000
0000
0001
0010
0000
0100
0000
,
2000
0000
0010
0000
0010
0000
3010
0100
,
0001
0000
0000
0010
0100
0000
1000
0000
,
0010
0100
0001
0100
,
0010
1001
1000
0100
,
0010
0001
0010
0001
0100
0000
0010
0100
,
0001
0000
0000
1000
0100
0000
0000
0001
,
0100
0000
0010
0000
1000
0000
0001
0010
,
0100
0000
0000
1000
0100
0000
0010
0000
,
0001
0000
0000
1000
0100
0010
0001
1000
,
0001
0000
0000
0100
0010
0000
1000
0000
,
0010
0100
0001
0010
,
0100
1000
0100
0000
0010
0001
0100
0001
,
2002
0000
0000
3003
,
2002
3003
2200
3300
,
0220
0330
0022
0033
,
2002
3003
0202
0303
,
0110
0000
0000
0110
0000
0000
1010
0000
,
2002
3003
0202
0303
,
2200
3300
2020
3030
,
0022
0033
0220
0330
,
2002
0000
3003
0000
1000
0001
0100
0000
,
0202
0303
0022
0033
,
2020
3030
0220
0330
,
0202
0303
2200
3300
,
1001
0000
0000
1001
0000
0000
1001
0000
,
2200
3300
0220
0330
,
0022
0033
2020
3030
,
2200
3300
0202
0303
,
1001
0001
0101
0100
,
0110
0000
1000
0000
0001
0010
0100
0000
,
1000
0000
0010
0000
0100
0001
1000
0000
,
0001
0000
0010
0000
0100
1000
0010
0000
,
0100
0000
0001
0000
1000
0100
1000
0000
,
0010
0000
0100
0000
0001
0010
0001
0000
,
0010
0000
0100
0000
1000
0100
0010
0000
,
0001
0000
0100
0000
0010
1000
0001
0000
,
1000
0100
0010
0001
1000
0001
1000
0000
,
1001
0000
1100
0000
,
0110
0000
0011
0000
,
1001
0000
1000
0000
0010
0100
0001
0000
,
0010
0000
0100
0000
1000
0010
0100
0000
,
0101
0000
0001
0000
0010
0010
0100
0000
,
1000
0000
0010
0000
0100
0100
0001
0000
,
1000
0100
0010
0001
1000
0001
1000
0000
,
0001
0000
0000
0001
0000
0000
0001
0000
0000
0001
0000
0000
0001
0000
0000
0000
,
1000
0000
0000
1000
0000
0000
1000
0000
0000
1000
0000
0000
1000
0000
0000
0000
,
0100
0000
0000
0100
0000
0000
0100
0000
0000
0100
0000
0000
0100
0000
0000
0000
,
0010
0000
0000
0010
0000
0000
0220
0000
0000
0000
0000
0000
0330
0000
0000
0000
;

//---------------dance-single - ----------------
#NOTES:
     dance-single:
     :
     Easy:
     3:
     0.275,0.368,0.166,0.110,0.000:
0000
0000
0000
0000
,
0000
0000
0000
0000
,
1000
0100
0010
0001
,
0100
0010
1000
0001
,
1000
0000
0100
0000
,
0010
0000
0001
0000
,
1000
0000
0010
0000
,
0100
0000
0001
0000
,
1000
0000
0100
0000
,
1000
0000
0010
0000
,
1001
0000
0001
0000
,
1000
0100
1000
0010
,
0010
0000
0100
0001
,
2000
0000
3000
0001
,
0100
0000
0010
0000
,
1000
0000
0001
0000
,
0010
0010
0100
0100
,
1000
0001
1000
0001
,
0101
0000
0100
0000
,
0010
1000
0001
1000
,
1000
0000
0010
0100
,
0002
0000
1003
0100
,
1000
0000
0010
0000
,
0100
0000
0001
0000
,
1000
0100
0010
0001
,
1000
1000
1000
1000
,
1001
0000
0001
0000
,
0100
0000
0010
0000
,
1000
0000
0100
0000
,
0010
0000
0001
0000
,
0100
0000
0100
0000
,
0010
0000
0010
0000
,
1000
0000
1000
0000
,
0001
0000
0001
0000
,
1001
0000
1000
0000
,
0010
0100
0001
1000
,
1000
0000
0100
0010
,
0002
0000
0003
1000
,
0010
0000
0100
0000
,
0001
0000
0010
0000
,
0100
0100
1000
1000
,
0010
0100
0001
1000
,
1001
0000
0010
0000
,
0100
0001
1000
0001
,
0001
0000
0010
0100
,
2000
0000
3010
0100
,
0001
0000
0100
0000
,
0010
0000
1000
0000
,
0001
0100
0010
1000
,
2002
0000
0000
3003
,
1000
0000
1000
0000
,
0001
0000
0001
0000
,
0100
0000
0100
0000
,
0010
0000
1000
0000
,
0001
0000
0010
0000
,
0100
0000
1000
0000
,
0010
0000
0100
0000
,
0001
0000
1000
0100
,
1100
0000
0100
0000
,
0010
0000
0001
0000
,
0100
0000
0010
0000
,
1000
0000
0001
0000
,
0010
0000
0100
0000
,
1000
0000
0010
0000
,
0100
0000
0001
0000
,
1000
0100
0010
0001
,
1001
0000
1000
0000
,
0010
0000
0100
0000
,
0001
0000
0010
0000
,
0100
0000
1000
0000
,
0010
0000
0100
0000
,
0001
0000
0010
0000
,
1100
0000
1001
0000
,
0001
0100
0010
1000
,
1001
0000
0101
0000
,
0110
0000
1010
0000
,
1001
0001
0010
0100
,
1000
0010
0100
0001
,
1001
1000
0010
0100
,
0001
0100
0010
1000
,
0100
0010
0001
1000
,
2002
0000
3003
0000
,
2200
0000
3300
0000
,
0202
0000
0303
0000
,
1001
0000
0000
2002
0000
0000
3003
0000
;

//---------------dance-single - ----------------
#NOTES:
     dance-single:
     :
     Beginner:
     1:
     0.132,0.331,0.095,0.000,0.000:
0000
0000
0000
0000
,
0000
0000
0000
0000
,
1000
0000
0000
0000
,
0001
0000
0000
0000
,
1000
0000
1000
0000
,
0001
0000
0001
0000
,
0100
0000
0100
0000
,
0010
0000
0010
0000
,
1000
0000
1000
0000
,
0001
0000
0001
0000
,
1000
0000
0000
0000
,
0100
0000
0000
0000
,
0010
0000
0000
0000
,
0001
0000
0000
0000
,
0100
0000
0000
0000
,
0010
0000
0000
0000
,
1000
0000
0000
0000
,
0001
0000
0000
0000
,
0010
0000
0000
0000
,
0100
0000
0000
0000
,
1000
0000
0000
0000
,
0010
0000
0000
0000
,
0100
0000
0000
0000
,
0001
0000
0000
0000
,
1000
0000
0000
0000
,
0001
0000
0000
0000
,
1000
0000
1000
0000
,
0100
0000
0100
0000
,
0010
0000
0010
0000
,
0001
0000
0001
0000
,
0100
0000
0010
0000
,
1000
0000
0001
0000
,
0010
0000
0100
0000
,
1000
0000
0001
0000
,
1000
0000
0000
0000
,
0100
0000
0000
0000
,
0010
0000
0000
0000
,
0001
0000
0000
0000
,
1000
0000
0000
0000
,
0001
0000
0000
0000
,
0100
0000
0000
0000
,
0010
0000
0000
0000
,
1000
0000
0000
0000
,
0100
0000
0000
0000
,
1000
0000
0000
0000
,
0001
0000
0000
0000
,
0100
0000
0000
0000
,
0010
0000
0000
0000
,
1000
0000
0000
0000
,
1001
0000
0000
0000
,
1001
0000
0000
0000
,
0000
0000
0000
0000
,
1000
0000
0000
0000
,
0000
0000
0000
0000
,
0001
0000
0000
0000
,
0000
0000
0000
0000
,
0010
0000
0000
0000
,
0000
0000
0000
0000
,
0100
0000
0000
0000
,
0000
0000
0000
0000
,
1000
0000
0000
0000
,
0000
0000
0000
0000
,
0010
0000
0000
0000
,
0000
0000
0000
0000
,
0100
0000
0000
0000
,
0001
0000
0000
0000
,
1001
0000
1000
0000
,
0010
0000
0010
0000
,
0100
0000
0100
0000
,
0001
0000
0001
0000
,
1000
0000
1000
0000
,
0100
0000
0100
0000
,
0010
0000
0010
0000
,
0001
0000
0001
0000
,
1001
0000
1001
0000
,
1001
0000
1001
0000
,
1001
0000
1000
0000
,
0010
0000
0100
0000
,
0001
0000
0010
0000
,
0100
0000
1000
0000
,
0001
0000
0100
0000
,
1001
0000
0000
0000
,
1001
0000
0000
0000
,
1001
0000
0000
0000
,
1001
0000
0000
0000
;
