#TITLE:My Life;
#SUBTITLE:(Is Fucked Up);
#ARTIST:MiNDFuCKeD LOLi;
#TITLETRANSLIT:;
#SUBTITLETRANSLIT:;
#ARTISTTRANSLIT:;
#CREDIT:;
#BANNER:My Life (Is Fucked Up) - BN.png;
#BACKGROUND:My Life (Is Fucked Up) - BG.PNG;
#LYRICSPATH:;
#CDTITLE:;
#MUSIC:My Life (Is Fucked Up).ogg;
#OFFSET:-8.540;
#SAMPLESTART:49.240;
#SAMPLELENGTH:12.000;
#SELECTABLE:YES;
#BPMS:0.000=258.001,12.000=516.001,14.000=258.001,29.000=516.001,31.000=258.001,35.000=129.000,37.000=516.001,39.000=258.001,54.000=516.002,56.000=258.001,72.000=516.002,74.000=258.001,87.000=516.002,89.000=258.001,92.000=516.002,94.000=258.001,103.000=516.002,107.000=258.001,123.000=516.002,125.000=258.001,142.000=516.002,144.000=258.001,147.000=516.002,149.000=258.001,167.000=129.001,171.000=64.500,172.000=515.997,176.000=258.001,191.000=516.002,193.000=258.001,212.000=516.002,214.000=258.001,218.000=516.002,220.000=258.001,231.000=516.002,233.000=258.001,242.000=516.002,246.000=258.001,249.000=516.002,251.000=258.001,274.000=516.002,276.000=258.001,300.000=516.002,302.000=258.001,308.000=516.002,310.000=258.001,317.000=516.002,319.000=258.001,330.000=516.002,332.000=129.001,334.000=258.001,346.000=516.002,348.000=258.001,355.000=516.002,357.000=258.001,361.000=516.002,363.000=258.001,370.000=516.002,391.000=258.001,398.000=516.002,400.000=258.001,407.000=516.002,409.000=258.001,416.000=516.002,418.000=258.001,425.000=516.002,427.000=258.001,439.000=516.002,441.000=258.001,452.000=516.002,454.000=258.001,458.000=516.002,460.000=258.001,467.000=516.002,473.000=258.001,480.000=516.002,482.000=258.001;
#STOPS:107.000=0.930
,246.000=0.698
,247.000=0.233
,248.000=0.233
,372.000=1.279
,377.000=0.116
,380.000=0.581
;
#BGCHANGES:;

//---------------dance-single - ----------------
#NOTES:
     dance-single:
     :
     Challenge:
     12:
     0.874,1.000,0.513,0.389,0.165:
1000
0100
0010
0001
,
0100
0010
1000
0010
,
0100
0001
1000
0001
,
2M00
0000
3001
0100
,
0010
1000
0010
0100
,
0001
0010
0100
1000
,
0010
0100
0001
0100
,
0010
200M
0000
3100
,
0010
0001
0000
0100
0010
0000
1M01
1001
,
1001
1001
10M2
0000
0000
0000
1003
0000
,
0010
0100
0001
0010
,
0100
1000
0010
0100
,
0001
0100
0010
1000
,
0010
0001
0M20
0000
,
1030
0100
0010
0001
,
1000
0100
0010
1000
,
0010
0000
1000
0010
000M
0100
1000
0000
,
0010
0100
0001
1000
,
02M0
0000
0310
0001
,
0100
0010
1000
0010
,
0100
0001
0100
1000
,
0100
0000
0001
0000
0010
0000
M001
0100
,
00M1
0100
M001
0000
0100
0000
0010
0000
,
2M00
0000
0000
3001
0000
1000
0100
0000
,
0010
0001
0100
0010
,
1000
0100
0010
0002
,
0000
1MM0
0000
0003
,
1000
0100
0010
0000
0001
0100
0010
0010
,
1000
0100
1000
0000
0001
0100
0001
0001
,
1000
0100
0010
0000
0001
0010
0100
0100
,
1000
0010
0100
0000
0001
0100
M020
0000
,
0000
0000
0130
0001
1000
0000
0001
0010
,
0100
0100
1000
0010
0100
0000
0001
0100
,
0001
0001
0010
0100
0010
0001
0M00
1000
,
0010
0010
1000
0010
0100
0000
0001
0100
,
0001
0001
0010
0100
1000
0001
1000
0001
,
1000
0100
0010
0010
0001
0100
M020
0000
,
0000
1030
0000
0001
0100
0000
0010
1000
,
0010
0000
0000
0000
0000
0000
1000
0000
0000
0010
0000
0000
0100
0000
0000
0100
0000
0000
0001
0000
0000
0000
0010
0000
,
0100
0000
0000
0000
0000
0000
0000
0000
0000
1000
0000
0000
0000
0000
0000
0100
0000
0000
0000
0000
0000
0000
0010
0000
0000
0000
0000
0000
0001
0000
0000
0000
1000
0000
0000
0000
0100
0000
0000
0000
0000
0000
0010
0000
0000
0000
0000
0000
,
0001
0000
1000
0010
0100
0100
0001
0100
,
0010
0000
1000
0000
0000
0000
0001
0000
0100
0000
0000
0000
0001
0010
0100
1000
,
0001
0000
0010
0000
0100
0000
1000
0000
0001
0000
0100
0000
0010
0000
1000
0000
0001
0000
0100
0000
0001
1000
0001
1000
0001
0000
1001
0000
1001
0000
1001
0000
,
2002
0000
0000
3003
,
1000
0100
0010
0001
1000
0010
0100
0001
,
1000
0100
1000
0010
0100
0001
0010
0001
,
0100
0010
1000
0100
0010
0001
0010
0001
,
0100
0010
1000
0100
1000
0100
0020
0000
,
0001
0000
0031
0100
0010
1000
0010
0100
,
0001
0010
1000
0010
0001
0100
0010
1000
,
0100
1000
0100
0010
0100
1000
0010
0001
,
0010
1000
0100
0010
0001
0100
0010
1000
,
0001
0100
0001
0100
1000
0100
0001
0010
,
0200
0000
1000
0000
1300
0010
0100
0100
,
0001
0010
0010
0100
2000
0000
0100
0000
,
3100
0010
0001
0100
1000
0100
0001
0010
,
0100
1000
0100
1000
0010
0100
0001
1000
,
0100
0010
0001
1000
0001
1000
0002
0000
,
1000
0000
1003
0010
0001
0010
1000
0100
,
0010
0001
0010
0001
0100
0010
1000
0010
,
0100
0000
0001
0000
1000
0100
1000
0100
2000
0000
0000
0000
0000
0000
0000
0000
,
0000
0000
3000
0000
1001
M00M
1001
0000
,
1001
2000
0000
3001
,
0100
0010
1000
0010
,
0100
0001
1000
0100
,
0010
0001
0100
1000
,
0100
0001
0010
0100
,
1000
0010
0100
0001
,
0100
1000
02M0
0000
,
0301
0010
0100
1000
,
0010
0100
0001
0100
,
0001
0100
0010
1000
,
0001
0010
0001
0100
,
0010
1000
0100
0010
,
0001
1000
0100
1000
,
10M2
0000
0000
0000
1003
0100
1000
0100
,
0010
0001
0010
0001
1000
0010
1000
0010
,
0200
0000
0000
0000
0301
1000
0001
1000
,
0010
0100
0010
0100
0001
0010
0001
0010
,
0100
1000
0200
0000
0000
0000
1300
0010
,
1000
1000
0010
0100
0100
0001
1000
0001
,
1000
0001
0100
0010
0100
0010
1000
0100
,
0010
0001
1000
0100
2000
0000
3000
0000
,
10M1
0000
0000
0000
0000
0000
1001
0000
0000
0000
0000
0000
0M01
0000
0000
1000
0000
0000
0001
0000
0000
0000
0000
0000
10M0
0000
0000
0000
0000
0000
0000
0000
0100
0000
0000
0000
0010
0000
0000
0000
0000
0000
0000
0000
0000
0001
0000
0000
,
0000
0000
0000
0000
0000
0000
0100
0000
0000
0000
0000
0000
0000
0000
0000
0000
0000
0000
0000
0000
0000
0000
0000
0000
0000
0000
0000
0000
0000
0000
0000
0000
0000
0000
0000
0000
0000
0000
0000
0000
0010
0000
0000
0000
0000
0000
0000
0000
0000
0000
0000
0000
0000
0000
0000
0000
0000
0000
0000
0000
1000
0000
0000
0000
0000
0000
0000
0000
0000
0000
0000
0000
0000
0000
0000
0000
0000
0000
0000
0000
0002
0000
0000
0000
0000
0000
0000
0000
0000
0000
0000
0000
0000
0000
0000
0000
0000
0000
0000
0000
0000
0000
0000
0000
0000
0000
0000
0000
0000
0000
0000
0000
0000
0000
0000
0000
0000
0000
0000
0000
0000
0000
0000
0000
0000
0000
0000
0000
0000
0000
0000
0000
0000
0000
0000
0000
0000
0000
0000
0000
0000
0000
0000
0000
1003
0000
0000
0000
0000
0000
0000
0000
0000
0000
0000
0000
0000
0000
0000
0000
0000
0000
0000
0000
0000
0000
0000
0000
0100
0000
0000
0000
0000
0000
0000
0000
0000
0000
0000
0000
0000
0000
0000
0000
0000
0000
0000
0000
0000
0000
0000
0000
,
1000
0100
0010
0001
0010
0001
1000
0010
,
1000
0010
0100
0001
0200
0000
0000
0000
,
0310
1000
0010
1000
0001
1000
0001
1000
,
0001
0100
0001
0100
0010
0100
0020
0000
,
0000
0000
1030
0100
1000
0100
0010
0001
,
0010
0001
2000
0000
0000
0000
3010
0100
,
0010
0100
0001
1000
0001
1000
0001
0100
,
0010
1000
0001
0010
0002
0000
0000
0000
,
0003
M00M
2002
0000
0000
0000
0000
0000
,
0000
0000
3003
M00M
2002
0000
0000
0000
,
3003
M00M
2002
0000
0000
0000
0000
0000
,
0000
0000
0000
0000
,
0000
0000
3003
1001
,
1000
0101
0101
0001
,
1001
1000
2100
0000
,
3100
0110
0011
1001
,
1100
0100
0110
0012
,
0000
0013
0110
0100
,
1100
1000
1010
1010
,
0120
0000
0130
0001
,
1001
1001
1000
1010
,
0010
0000
0000
0120
0000
0000
0000
0000
0000
0130
0000
0001
,
0000
0000
0000
0000
0000
0000
1000
0000
0000
0000
0000
0000
0000
0000
0000
0000
0000
0000
0000
0000
0000
0000
0000
0000
0000
0000
0000
0000
0000
0000
0000
0000
0010
0000
0000
0000
0000
0000
0000
0000
0000
0000
0000
0000
0000
0000
0000
0000
0000
0000
0000
0000
0000
0000
0000
0000
0100
0000
0000
0000
0000
0000
0000
0000
0000
0000
0000
0000
0000
0000
0000
0000
0000
0000
0000
0000
0000
0000
0000
0000
0000
0000
0000
0000
0000
0000
0000
0000
0001
0000
0000
0000
0000
0000
0000
0000
0000
0000
0000
0000
0000
0000
0000
0000
0000
0000
0000
0000
1000
0000
0000
0000
0000
0000
0000
0000
0000
0000
0000
0000
0000
0000
0000
0000
0000
0000
0000
0000
0002
0000
0000
0000
0000
0000
0000
0000
0000
0000
0000
0000
0000
0000
0000
0000
0000
0000
0000
0000
0000
0000
0000
0000
0000
0000
0000
0000
0000
0000
0000
0000
0000
0000
0000
0000
0000
0000
0000
0000
0000
0000
0000
0000
0000
0000
0000
0000
0000
0000
0000
0000
0000
0000
0000
0000
0000
0000
0000
0000
0000
0000
0000
0000
,
1003
1100
0110
0010
,
0011
0001
1001
2000
,
0000
0000
3010
0000
0100
0001
0000
1000
,
0100
0010
0011
1001
,
1000
1100
0100
0110
,
0020
0000
0000
0000
0031
0000
1000
0100
,
0000
0010
0001
0000
2000
0000
0000
0000
,
3001
0101
0100
0110
,
0010
1010
1000
0002
,
0000
2003
0000
3002
,
0000
1003
0100
0110
,
0011
0000
0000
0001
0000
0000
0001
1000
0001
1000
0000
0000
,
1002
0000
1003
1100
,
0110
0000
0000
0011
0000
0000
1001
0000
0000
0001
1000
0001
,
1000
1010
1001
1100
,
0110
0000
0000
0011
0000
0000
0000
2002
0000
0000
0000
0000
0000
0000
0000
0000
,
0000
0000
3003
0000
;

//---------------dance-single - ----------------
#NOTES:
     dance-single:
     :
     Hard:
     9:
     0.699,0.978,0.149,0.380,0.087:
1000
0100
1000
0100
,
0010
0001
0010
0001
,
1000
0010
0100
0001
,
2000
0000
3001
0100
,
0001
1000
0010
0100
,
0001
0100
0010
0010
,
1000
0010
0100
0100
,
0001
2000
0000
3001
,
1000
0001
0000
1000
0001
0000
1000
1000
,
1000
1000
2000
0000
0000
0000
3001
0000
,
0100
0010
1000
0010
,
0100
0001
0010
0100
,
1000
0100
0010
0001
,
0100
0010
2000
0000
,
3010
0100
0001
0100
,
0010
1000
0010
0001
,
0010
0000
1000
0100
0000
1000
0100
0000
,
1000
0100
0010
0001
,
0002
0000
0103
0010
,
1000
0010
0100
0001
,
0010
0100
1000
0100
,
1000
0010
0100
0002
,
0000
0013
0001
0100
,
0020
0000
0000
1030
0000
0001
0100
0000
,
0010
1000
0100
1000
,
0010
0100
0001
2000
,
0000
0001
0000
3001
,
1000
0100
1000
0000
0001
0100
0001
0000
,
1000
0010
1000
0000
0001
0010
0001
0000
,
1000
0001
1000
0000
0001
1000
0001
0000
,
0010
0100
0010
0000
0001
1000
0002
0000
,
0000
0000
1003
0100
0010
0000
0001
0010
,
0100
0000
1000
0010
0100
0000
0001
0100
,
0010
0000
1000
0100
1000
0100
0000
0010
,
0001
0000
1000
0010
1000
0000
0001
0010
,
0001
0000
1000
0100
2000
0000
0000
0000
,
3010
0100
0001
0000
0100
0010
2000
0000
,
0000
0000
3100
0010
0001
0000
0010
0100
,
1000
0000
0010
0100
0001
0000
1000
0100
,
1000
0000
0001
0100
0001
0000
0100
0010
,
1000
0000
0001
0010
0100
0000
0010
0001
,
1000
0000
0000
0000
0010
0000
0100
0000
0001
0000
0000
0000
1000
0100
1000
0100
,
1000
0100
1000
0100
0010
0001
0010
0001
0010
0001
0010
0001
1000
1000
1000
1000
,
2000
0000
0000
0000
,
3001
0000
0100
0010
1000
0010
0100
0000
,
0001
0000
1000
0100
0010
0001
1000
0000
,
0010
0100
0001
1000
0010
0000
0100
0001
,
0100
0010
1000
0000
0001
0000
2000
0000
,
0000
0000
3100
0010
0001
1000
0001
0000
,
0010
0000
0100
1000
0100
0010
0001
0000
,
1000
0000
0100
0010
0001
0100
0010
0000
,
1000
0000
0010
0100
0001
0100
0010
1000
,
0001
0000
1000
0100
0010
0001
0100
0000
,
0020
0000
0000
0000
1030
0100
1000
0010
,
0100
0001
2000
0000
,
3001
0100
0010
1000
0010
0000
0100
0000
,
0001
0010
0100
0010
0001
0000
1000
0000
,
0010
0100
0001
0100
0010
0000
2000
0000
,
0000
0000
3001
0010
0001
0100
0010
0000
,
1000
0000
0010
0100
0001
0010
0100
0000
,
1000
0100
0010
0001
2000
0000
0000
0000
,
0000
0000
3001
1001
,
1001
0002
0000
1003
,
0100
0010
0001
0100
,
0010
1000
0010
0100
,
0001
0010
0100
1000
,
0100
1000
0010
0100
,
0001
1000
0010
0001
,
0010
1000
0002
0000
,
0103
0010
1000
0010
,
0001
0010
1000
0100
,
0001
0100
1000
0010
,
0100
0001
0010
0100
,
1000
0010
0100
0010
,
0100
0001
0010
0100
,
2001
0000
3001
0100
,
0010
0100
0010
0100
,
0002
0000
0013
1000
,
0010
0001
0100
0010
,
1000
0020
0000
0130
,
0001
0100
0000
0001
0100
0000
0010
0000
,
0100
0010
0001
0100
,
0010
1000
0020
0000
,
1030
0000
0000
0000
0000
0000
1000
0000
0000
0000
0000
0000
1000
0000
0000
0001
0000
0000
1000
0000
0000
0000
0000
0000
1000
0000
0000
0000
0000
0000
0000
0000
0100
0000
0000
0000
0000
0000
0000
0000
1000
0000
0000
0000
0000
0000
0000
0000
,
0100
0000
1000
0000
0100
0000
0020
0000
0000
0031
0000
0000
,
0100
0010
1000
0010
,
0100
0001
0020
0000
,
0130
1000
0100
0010
,
0001
0100
0010
2000
,
0000
3010
0100
0001
,
0100
0020
0000
0130
,
0001
0010
0100
1000
,
0010
0100
0002
0000
,
1003
2002
0000
0000
,
0000
3003
2002
0000
,
3003
2002
0000
0000
,
0000
0000
0000
0000
,
0000
0000
3003
1000
,
0010
0100
0100
0001
,
0100
0010
0200
0000
,
0301
0010
0100
0010
,
0001
0100
0010
2000
,
0000
3010
0100
0001
,
0010
0100
1000
0100
,
2000
0000
3010
0100
,
0001
0010
0001
0100
,
0010
0000
0000
2000
0000
0000
0000
0000
0000
3001
0000
0100
,
0000
0001
0000
0100
0000
0001
0000
0100
0000
0020
0000
0000
,
1030
0100
1000
0010
,
0100
0001
0010
0002
,
0000
0000
0103
0000
0010
1000
0000
0010
,
1000
0010
0100
0001
,
0010
0100
1000
0001
,
2000
0000
0000
0000
3001
0000
0100
0010
,
0000
0100
0010
0000
0200
0000
0000
0000
,
0310
0001
0010
0100
,
1000
0010
0100
0002
,
0000
1000
0000
1000
,
0000
1003
0010
0100
,
0001
0100
0010
1000
,
0002
0000
1003
1001
,
1001
1001
1100
1100
,
1100
1100
0101
0101
,
0101
0000
0000
0101
0000
0000
0000
2002
0000
0000
0000
0000
0000
0000
0000
0000
,
0000
0000
3003
0000
;

//---------------dance-single - ----------------
#NOTES:
     dance-single:
     :
     Medium:
     7:
     0.569,0.566,0.025,0.355,0.008:
1000
1000
0010
0010
,
0100
0100
0001
0001
,
0010
0010
0100
0100
,
2000
0000
3010
0010
,
0100
0100
0001
0001
,
0100
0100
0010
0010
,
1000
1000
0100
0100
,
0010
0020
0000
0031
,
0001
0100
0100
0002
,
0000
2003
0000
3010
,
0100
0001
0100
0010
,
1000
0010
0100
0001
,
0010
0100
1000
0100
,
0010
0001
0200
0000
,
0310
1000
0010
0100
,
0001
0010
0001
0010
,
0100
1000
0010
0100
,
0001
0100
0010
1000
,
0002
0000
1003
0100
,
1000
0100
0010
0001
,
0010
0001
0100
0010
,
1000
0010
0100
0002
,
0000
1003
0100
0010
,
0002
0000
0103
0010
,
1000
0010
0100
0001
,
0010
0001
0010
0200
,
0000
0000
0000
1300
,
0001
0001
0100
0100
,
0010
0010
1000
1000
,
0010
0010
0100
0100
,
0001
0001
0010
0200
,
0000
1300
1000
0010
,
0010
0100
0100
0001
,
0001
0100
0100
0010
,
0010
1000
1000
0001
,
0001
0010
0200
0000
,
1300
1000
0010
0200
,
0000
0301
0001
0010
,
0010
0001
0001
0100
,
0100
0010
0010
1000
,
1000
0010
0010
0100
,
0100
0000
0001
0000
0001
0000
1000
0001
,
1000
0001
1000
0001
1000
0001
2000
0000
,
3002
0000
0000
0000
,
1003
0100
0010
0001
,
1000
0100
0010
0001
,
1000
0100
0010
0001
,
1000
0010
0100
0002
,
0000
1003
0010
0100
,
0001
1000
0010
0100
,
0001
1000
0010
0100
,
0001
1000
0100
0010
,
0001
1000
0010
0100
,
0020
0000
1030
0100
,
1000
0100
0020
0000
,
0031
0100
0010
1000
,
0010
0100
0001
0010
,
0001
0100
0010
2000
,
0000
3010
0100
0001
,
0100
0010
1000
0100
,
0010
0001
0020
0000
,
0000
0000
0130
0110
,
0110
0020
0000
0031
,
0100
0010
1000
0010
,
0100
0001
0100
0010
,
1000
0010
0100
0001
,
0010
0100
1000
0100
,
0010
0001
0100
0010
,
1000
0001
0200
0000
,
0310
1000
0010
0100
,
0001
0010
0100
1000
,
0100
1000
0010
0100
,
0001
0100
0001
0100
,
0010
1000
0010
0100
,
0001
0010
0100
1000
,
0020
0000
0130
0001
,
0100
0010
1000
0010
,
0200
0000
0301
0010
,
0001
0010
0100
1000
,
0010
0200
0000
0301
,
0100
0010
1000
0010
,
1000
0010
0100
0001
,
0010
0100
2000
0000
,
3002
0000
1003
0100
,
1000
0100
0010
0002
,
0103
0010
1000
0010
,
0100
0001
2000
0000
,
3010
0100
0010
0100
,
0001
1000
0001
2000
,
0000
3010
0100
0001
,
0010
0200
0000
1300
,
0100
1000
0100
0010
,
0001
0100
0020
0000
,
0130
0002
0000
0000
,
0000
1000
0000
0000
,
1000
0000
0000
0000
,
0000
0000
0000
0000
,
0000
0000
0000
1003
,
0100
0010
0001
0100
,
0010
1000
0020
0000
,
0130
0001
0100
0010
,
1000
0100
0010
0002
,
0000
0013
0100
1000
,
0010
0100
0001
0100
,
0020
0000
1030
0010
,
0100
0001
0010
0001
,
0100
0020
0000
1030
,
0010
0100
0001
0010
,
0100
1000
0010
0100
,
0001
0010
0100
2000
,
0000
3010
0100
0001
,
0010
0001
0010
0100
,
1000
0100
1000
0010
,
0200
0000
0301
0100
,
0010
1000
0020
0000
,
0130
0001
0010
0100
,
1000
0001
1000
0002
,
0000
0000
0000
0000
,
0000
1003
0100
1000
,
0100
0010
0001
0010
,
0002
0000
0103
0010
,
1000
0010
0100
0001
,
0010
0100
1000
0100
,
1000
0000
0000
1000
0000
0000
0000
2002
0000
0000
0000
0000
0000
0000
0000
0000
,
0000
0000
3003
0000
;

//---------------dance-single - ----------------
#NOTES:
     dance-single:
     :
     Easy:
     5:
     0.377,0.463,0.017,0.347,0.000:
1000
0000
0100
0000
,
0010
0000
0001
0000
,
0100
0000
0010
0000
,
2000
0000
3000
0000
,
0100
0000
0010
0000
,
1000
0000
0010
0000
,
0100
0000
0001
0010
,
0100
0200
0000
1300
,
0000
0010
0000
1000
,
0000
0002
0000
1003
,
0000
0100
0000
0010
,
0000
0001
0000
1000
,
0000
0010
0000
0100
,
0000
0001
0002
0000
,
0003
0000
0100
0000
,
0010
0000
1000
0000
,
0010
0000
0100
0000
,
0001
0000
0010
0000
,
0200
0000
0300
0000
,
1000
0000
0010
0000
,
0100
0000
0001
0000
,
0100
0000
0010
0020
,
0000
0030
0000
1000
,
2000
0000
3000
0000
,
0001
0000
0010
0000
,
0100
0000
1000
2000
,
0000
0000
0000
3000
,
0001
0001
0100
0100
,
0010
0010
1000
1000
,
0010
0010
0100
0100
,
0001
0001
0010
0020
,
0000
0130
0100
1000
,
1000
0010
0010
0100
,
0100
0001
0001
0100
,
0100
0010
0010
1000
,
0001
0010
0020
0000
,
0130
1000
0010
0200
,
0000
0301
0100
0001
,
0001
0010
0010
0100
,
0100
1000
1000
0010
,
0010
0100
0001
0100
,
0010
1000
0001
0020
,
0000
0000
0000
0130
,
2002
0000
0000
3003
,
1000
0100
0010
0000
,
0001
0100
0010
0000
,
1000
0100
1000
0000
,
0001
0100
0010
0020
,
0000
0030
1000
0001
,
0000
0010
0100
1000
,
0000
0010
0100
0001
,
0000
1000
0100
0010
,
0001
0100
0010
1000
,
2000
0000
3000
0001
,
0010
0000
0200
0000
,
0300
1000
0000
0010
,
0100
0001
1000
0001
,
0100
0010
0000
2000
,
0000
3000
0001
0000
,
0100
0010
1000
0010
,
0100
0001
2000
0000
,
0000
0000
0000
0001
,
0001
3002
0000
1003
,
0000
0100
0000
0010
,
0000
0001
0000
0100
,
0000
0010
0000
1000
,
0000
0010
0000
0100
,
0000
0001
0000
0010
,
0000
0100
0200
0000
,
0300
0000
1000
0000
,
0010
0000
0100
0000
,
0001
0000
0100
0000
,
0010
0000
1000
0000
,
0010
0000
0100
0000
,
0001
0000
0010
0000
,
0200
0000
0300
0000
,
1000
0000
0010
0000
,
0200
0000
0300
0000
,
0001
0000
0010
0000
,
0100
0200
0000
0300
,
0000
1000
0000
0010
,
0000
0100
0000
0001
,
0000
0100
0200
0000
,
0302
0000
1003
0100
,
1000
0100
0020
0030
,
0000
0001
0000
0100
,
0000
0010
0020
0000
,
0030
0000
1000
0000
,
0100
0000
1000
2000
,
0000
3000
0000
0010
,
0000
0200
0000
0300
,
0000
0001
0000
0010
,
0000
0100
0200
0000
,
0000
0000
0000
0000
,
0000
0000
0000
0000
,
0000
0000
0000
0000
,
0000
0000
0000
0000
,
0000
0000
0000
0310
,
0000
0001
0000
0100
,
0000
0010
0020
0000
,
0030
0000
0100
0000
,
0001
0000
1000
2000
,
0000
3000
0000
0010
,
0000
0100
0000
0001
,
0002
0000
0003
0000
,
0010
0000
0100
0000
,
1000
2000
0000
3000
,
0000
0010
0000
0100
,
0000
0001
0000
0100
,
0000
0010
0000
2000
,
0000
3000
0000
0001
,
0000
0100
0000
0010
,
0000
1000
0000
0010
,
0020
0000
0030
0000
,
0100
0000
0002
0000
,
0003
0000
0010
0000
,
0100
0000
1000
2000
,
0000
0000
0000
0000
,
0000
3001
0100
0001
,
0100
0010
1000
0010
,
2000
0000
3001
0010
,
0001
0010
0100
1000
,
0100
1000
0010
0100
,
0001
0000
2002
0000
,
0000
0000
3003
0000
;

//---------------dance-single - ----------------
#NOTES:
     dance-single:
     :
     Beginner:
     2:
     0.143,0.204,0.025,0.000,0.000: // measure 1
1000
0000
0000
0000
,  // measure 2
0100
0000
0000
0000
,  // measure 3
0010
0000
0000
0000
,  // measure 4
0001
0000
0000
0000
,  // measure 5
0001
0000
0000
0000
,  // measure 6
0100
0000
0000
0000
,  // measure 7
0010
0000
0000
0000
,  // measure 8
1000
0000
0000
0000
,  // measure 9
1000
0000
0000
0001
,  // measure 10
0000
0001
0000
0000
,  // measure 11
0000
0000
0000
0100
,  // measure 12
0000
0000
0000
0010
,  // measure 13
0000
0000
0000
1000
,  // measure 14
0000
0000
0000
0000
,  // measure 15
0001
0000
0000
0000
,  // measure 16
0010
0000
0000
0000
,  // measure 17
0100
0000
0000
0000
,  // measure 18
1000
0000
0000
0000
,  // measure 19
0001
0000
0000
0000
,  // measure 20
0100
0000
0000
0000
,  // measure 21
0010
0000
0000
0000
,  // measure 22
1000
0000
0000
0000
,  // measure 23
0000
0001
0000
0000
,  // measure 24
0100
0000
0000
0000
,  // measure 25
0100
0000
0000
0000
,  // measure 26
0010
0000
0000
0010
,  // measure 27
0000
0000
0000
0000
,  // measure 28
0010
0000
0000
0000
,  // measure 29
0010
0000
0000
0000
,  // measure 30
0100
0000
0000
0000
,  // measure 31
0100
0000
0000
0000
,  // measure 32
0000
0001
0000
0000
,  // measure 33
0000
0001
0000
0000
,  // measure 34
0000
0010
0000
0000
,  // measure 35
0000
0010
0000
0000
,  // measure 36
0000
0100
0000
0000
,  // measure 37
0100
0000
0000
0000
,  // measure 38
0000
1000
0000
1000
,  // measure 39
0000
0000
0000
0001
,  // measure 40
0000
0000
0000
0100
,  // measure 41
0000
0000
0000
0010
,  // measure 42
0000
0000
0000
1000
,  // measure 43
0000
1000
0000
0000
,  // measure 44
1001
0000
0000
0000
,  // measure 45
0001
0000
0000
0000
,  // measure 46
0001
0000
0000
0000
,  // measure 47
0100
0000
0000
0000
,  // measure 48
0010
0000
0000
0000
,  // measure 49
0000
0010
0000
0000
,  // measure 50
0000
0100
0000
0000
,  // measure 51
0000
0001
0000
0000
,  // measure 52
0000
1000
0000
0000
,  // measure 53
0000
0100
0000
0000
,  // measure 54
0000
0000
0001
0000
,  // measure 55
0000
0000
0010
0000
,  // measure 56
0000
0000
0000
0100
,  // measure 57
0000
0000
0000
1000
,  // measure 58
0000
0000
0000
0001
,  // measure 59
0000
0000
0000
0000
,  // measure 60
0010
0000
0000
0000
,  // measure 61
0100
0000
0100
0000
,  // measure 62
0000
0000
1001
0000
,  // measure 63
0000
0000
0000
1000
,  // measure 64
0000
0000
0000
0100
,  // measure 65
0000
0000
0000
0010
,  // measure 66
0000
0000
0000
0001
,  // measure 67
0000
0000
0000
0100
,  // measure 68
0000
0000
0000
0010
,  // measure 69
0000
0000
0000
0000
,  // measure 70
1000
0000
0000
0000
,  // measure 71
0100
0000
0000
0000
,  // measure 72
1000
0000
0000
0000
,  // measure 73
0010
0000
0000
0000
,  // measure 74
0100
0000
0000
0000
,  // measure 75
0001
0000
0000
0000
,  // measure 76
1000
0000
0000
0000
,  // measure 77
0000
0001
0000
0000
,  // measure 78
0000
0000
0010
0000
,  // measure 79
0000
0000
0100
0000
,  // measure 80
0000
0000
0000
1000
,  // measure 81
0000
0000
0000
0010
,  // measure 82
0000
0000
0000
0100
,  // measure 83
0000
0000
0000
0000
,  // measure 84
0001
0000
0001
0000
,  // measure 85
0000
0000
0100
0100
,  // measure 86
0000
0000
0000
0010
,  // measure 87
0000
0000
0000
0000
,  // measure 88
0001
0000
0000
0000
,  // measure 89
0100
0000
0000
0000
,  // measure 90
0000
0010
0000
0000
,  // measure 91
0000
1000
0000
0000
,  // measure 92
0000
0000
1000
0000
,  // measure 93
0000
0000
0001
0000
,  // measure 94
0000
0000
0000
0000
,  // measure 95
0000
0000
0000
0000
,  // measure 96
0000
0000
0000
0000
,  // measure 97
0000
0000
0000
0000
,  // measure 98
0000
0000
0000
1000
,  // measure 99
0000
0000
0000
0100
,  // measure 100
0000
0000
0000
0000
,  // measure 101
0010
0000
0000
0000
,  // measure 102
0001
0000
0000
0000
,  // measure 103
0000
0010
0000
0000
,  // measure 104
0000
0100
0000
0000
,  // measure 105
0000
0000
1000
0000
,  // measure 106
0000
0000
0100
0000
,  // measure 107
0000
0000
0000
0010
,  // measure 108
0000
0000
0000
0001
,  // measure 109
0000
0000
0000
0100
,  // measure 110
0000
0000
0000
0010
,  // measure 111
0000
0000
0000
0000
,  // measure 112
0100
0000
0000
0000
,  // measure 113
1000
0000
0000
0000
,  // measure 114
0010
0000
0000
0000
,  // measure 115
0000
0010
0000
0000
,  // measure 116
0000
0000
0100
0000
,  // measure 117
0000
0000
1000
1000
,  // measure 118
0000
0000
0000
0000
,  // measure 119
0000
1000
0000
0000
,  // measure 120
0000
0100
0000
0000
,  // measure 121
0000
0000
0010
0000
,  // measure 122
0000
0000
0001
0000
,  // measure 123
0000
0000
0100
0000
,  // measure 124
0000
0000
1001
0000
;
