#TITLE:My Life (Is Fucked Up);
#ARTIST:MiNDFuCKeD LOLi;
#FILE:My Life (Is Fucked Up).ogg;
#BPM:258.001;
#GAP:8540;
#SAMPLESTART:49.240;
#SAMPLELENGTH:12.000;
#FREEZE:428.000=930.000,984.000=698.000,988.000=233.000,992.000=233.000,1488.000=1279.000,1508.000=116.000,1520.000=581.000;
#CHANGEBPM:48.000=516.001,56.000=258.001,116.000=516.001,124.000=258.001,140.000=129.000,148.000=516.001,156.000=258.001,216.000=516.002,224.000=258.001,288.000=516.002,296.000=258.001,348.000=516.002,356.000=258.001,368.000=516.002,376.000=258.001,412.000=516.002,428.000=258.001,492.000=516.002,500.000=258.001,568.000=516.002,576.000=258.001,588.000=516.002,596.000=258.001,668.000=129.001,684.000=64.500,688.000=515.997,704.000=258.001,764.000=516.002,772.000=258.001,848.000=516.002,856.000=258.001,872.000=516.002,880.000=258.001,924.000=516.002,932.000=258.001,968.000=516.002,984.000=258.001,996.000=516.002,1004.000=258.001,1096.000=516.002,1104.000=258.001,1200.000=516.002,1208.000=258.001,1232.000=516.002,1240.000=258.001,1268.000=516.002,1276.000=258.001,1320.000=516.002,1328.000=129.001,1336.000=258.001,1384.000=516.002,1392.000=258.001,1420.000=516.002,1428.000=258.001,1444.000=516.002,1452.000=258.001,1480.000=516.002,1564.000=258.001,1592.000=516.002,1600.000=258.001,1628.000=516.002,1636.000=258.001,1664.000=516.002,1672.000=258.001,1700.000=516.002,1708.000=258.001,1756.000=516.002,1764.000=258.001,1808.000=516.002,1816.000=258.001,1832.000=516.002,1840.000=258.001,1868.000=516.002,1892.000=258.001,1920.000=516.002,1928.000=258.001;
#SINGLE:SMANIAC:12:
40208060
20804080
20604060
4!4000B020
80408020
60802040
80206020
804!400010
860280BB
BBB!6000B0
80206080
20408020
60208040
80608!8000
70208060
40208040
80480240
80206040
2!2000A060
20804080
20602040
20608062
62602080
4!400B0420
80602080
4020806!60
00400060
42806288
42406266
42806822
4820628!80
00A64068
22482062
66828604
88482062
66824646
4288628!80
07062084
[800000400800200200600080]
`200000000000000000000000000000000000400000000000000000000000200000000000000000000000000080000000000000000000000060000000000000004000000000000000200000000000000000000000800000000000000000000000'
60482262
(8040006020006824)
{6000800020004000600020008000400060002000604060406000B000B000B000}
B!B00000B0
42864826
42482686
28428686
2842428!80
60928482
68486284
24282486
84286284
62624268
2!20401822
68824!4020
18624268
24248264
2864646!60
40B86842
86862848
(206042424!40000000)
0040B0B0
B04!4000B0
20804080
20604020
80602040
20608020
40802060
20402!2000
30802040
80206020
60208040
60806020
80402080
60402040
B!6000B242
86864848
2!20003464
82826868
242!200018
44822646
46282842
86424!4040
`B00000000000000000000000B00000000000000000000000600000000000400000000000600000000000000000000000400000000000000000000000000000002000000000000000800000000000000000000000000000000000600000000000'
`000000200000000000000000000000000000000080000000000000000000400000000000000000006!6000000000000000000000000000000000000000000000000000000000000000B00000000000000000000000200000000000000000000000'
42868648
48262!2000
A4846464
6262828!80
00724286
864!400072
82646462
84686!6000
60B!B00000
00B0B!B000
B0B!B00000
00000000
0000B0B0
40303060
B0401!4000
10A090B0
1020A09!60
0090A020
10407070
A!8000A060
B0B04070
[800000A!800000000000A00060]
`000000400000000000000000000000008000000000000000000000002000000000000000000000000000000060000000000000000000400000000000000000006!6000000000000000000000000000000000000000000000000000000000000000'
B010A080
9060B04!40
00702604
208090B0
401020A0
8!80009042
08604!4000
B03020A0
8070406!60
00B!4000B!60
00B020A0
[900000600000604060400000]
B!6000B010
[A00000900000B00000604060]
4070B010
(A009000B!B00000000)
0000B000
;
#SINGLE:MANIAC:9:
40204020
80608060
40802060
4!4000B020
60408020
60208080
40802020
604!4000B0
46046044
444!4000B0
20804080
20608020
40208060
20804!4000
70206020
80408060
80420420
40208060
6!60003080
40802060
80204020
4080206!60
00906020
8!80070620
80402040
8020604!40
006000B0
42406260
48406860
46406460
8280646!60
00B28068
20482062
80424208
60484068
60424!4000
7260284!40
00186082
40826042
40626028
40682086
(4000802060004242)
(4242868686864444)
4!40000000
B0284820
60428640
82648026
2840604!40
00186460
80242860
40286280
40826284
60428620
8!80007248
20604!4000
B2848020
68286040
8262804!40
00B86280
40826820
42864!4000
0000B0B0
B06!6000B0
20806020
80408020
60802040
20408020
60408060
80406!6000
30804080
60804020
60204080
20608020
40802080
20608020
B!4000B020
80208020
6!60009040
80602080
408!8000A0
62062080
20806020
80408!8000
`700000000000000000000000400000000000000000000000400000000000600000000000400000000000000000000000400000000000000000000000000000002000000000000000000000000000000040000000000000000000000000000000'
[2000400020008!800000900000]
20804080
20608!8000
A0402080
6020804!40
00702060
208!8000A0
60802040
80206!6000
B0B!B00000
00B0B!B000
B0B!B00000
00000000
0000B040
80202060
20802!2000
30802080
6020804!40
00702060
80204020
4!40007020
60806020
[8000004!400000000000B00020]
[0060002000600020008!800000]
70204080
2060806!60
00308408
40802060
80204060
4!4000B028
02802!2000
A0608020
4080206!60
00400040
00B08020
60208040
6!6000B0B0
B0B01010
10103030
(3003000B!B00000000)
0000B000
;
#SINGLE:ANOTHER:7:
40408080
20206060
80802020
4!40007080
20206060
20208080
40402020
808!800090
6020206!60
00B!400070
20602080
40802060
80204020
80602!2000
A0408020
60806080
20408020
60208040
6!6000B020
40208060
80602080
4080206!60
00B02080
6!60003080
40802060
8060802!20
00000010
60602020
80804040
80802020
6060802!20
00104080
80202060
60202080
80404060
60802!2000
1040802!20
00306080
80606020
20808040
40808020
20606046
4646464!40
B!60000000
B0208060
40208060
40208060
4080206!60
00B08020
60408020
60408020
60402080
60408020
8!80007020
40208!8000
90208040
80206080
6020804!40
00702060
20804020
80608!8000
0000A0A0
A08!800090
20804080
20602080
40802060
80204020
80602080
40602!2000
A0408020
60802040
20408020
60206020
80408020
60802040
8!8000A060
20804080
2!20003080
60802040
802!200030
20804080
40802060
80204!4000
B!6000B020
4020806!60
30804080
20604!4000
70208020
6040604!40
00702060
802!200010
20402080
60208!8000
A06!600000
00400000
40000000
00000000
000000B0
20806020
80408!8000
A0602080
4020806!60
00902040
80206020
8!80007080
20608060
208!800070
80206080
20408020
6080204!40
00702060
80608020
40204080
2!20003020
80408!8000
A0608020
4060406!60
00000000
00B02040
20806080
6!60003080
40802060
80204020
(4004000B!B00000000)
0000B000
;
#SINGLE:BASIC:5:
40002000
80006000
20008000
4!40004000
20008000
40008000
20006080
202!200010
00800040
006!6000B0
00200080
00600040
00800020
00606!6000
60002000
80004000
80002000
60008000
2!20002000
40008000
20006000
2000808!80
00800040
4!40004000
60008000
2000404!40
00000040
60602020
80804040
80802020
6060808!80
00A02040
40808020
20606020
20808040
60808!8000
A040802!20
00302060
60808020
20404080
80206020
8040608!80
000000A0
B!B00000B0
40208000
60208000
40204000
6020808!80
00804060
00802040
00802060
00402080
60208040
4!40004060
80002!2000
20400080
20604060
2080004!40
00406000
20804080
20604!4000
00000060
60B!6000B0
00200080
00600020
00800040
00800020
00600080
00202!2000
20004000
80002000
60002000
80004000
80002000
60008000
2!20002000
40008000
2!20002000
60008000
202!200020
00400080
00200060
00202!2000
3!6000B020
40208!8080
00600020
00808!8000
80004000
2000404!40
00400080
002!200020
00600080
00202!2000
00000000
00000000
00000000
00000000
000000A0
00600020
00808!8000
80002000
6000404!40
00400080
00200060
6!60006000
80002000
404!400040
00800020
00600020
0080004!40
00400060
00200080
00400080
8!80008000
20006!6000
60008000
2000404!40
00000000
00B02060
20804080
4!4000B080
60802040
20408020
6000B!B000
0000B000
;
#SINGLE:BEGINNER:2:
40000000
20000000
80000000
60000000
60000000
20000000
80000000
40000000
40000060
00600000
00000020
00000080
00000040
00000000
60000000
80000000
20000000
40000000
60000000
20000000
80000000
40000000
00600000
20000000
20000000
80000080
00000000
80000000
80000000
20000000
20000000
00600000
00600000
00800000
00800000
00200000
20000000
00400040
00000060
00000020
00000080
00000040
00400000
B0000000
60000000
60000000
20000000
80000000
00800000
00200000
00600000
00400000
00200000
00006000
00008000
00000020
00000040
00000060
00000000
80000000
20002000
0000B000
00000040
00000020
00000080
00000060
00000020
00000080
00000000
40000000
20000000
40000000
80000000
20000000
60000000
40000000
00600000
00008000
00002000
00000040
00000080
00000020
00000000
60006000
00002020
00000080
00000000
60000000
20000000
00800000
00400000
00004000
00006000
00000000
00000000
00000000
00000000
00000040
00000020
00000000
80000000
60000000
00800000
00200000
00004000
00002000
00000080
00000060
00000020
00000080
00000000
20000000
40000000
80000000
00800000
00002000
00004040
00000000
00400000
00200000
00008000
00006000
00002000
0000B000
;
