#TITLE:Miracle Hinacle;
#SUBTITLE:;
#ARTIST:IOSYS;
#TITLETRANSLIT:;
#SUBTITLETRANSLIT:;
#ARTISTTRANSLIT:;
#CREDIT:;
#BANNER:Miracle Hinacle - BN.png;
#BACKGROUND:Miracle Hinacle - BG.png;
#LYRICSPATH:;
#CDTITLE:cdtitlegpop.png;
#MUSIC:Miracle Hinacle.ogg;
#OFFSET:1.360;
#SAMPLESTART:37.640;
#SAMPLELENGTH:12.000;
#SELECTABLE:YES;
#BPMS:0.000=160.000;
#STOPS:;
#BGCHANGES:2.500=Miracle Hinacle.avi=1.000=1=0=1,
99999=-nosongbg-=1.000=0=0=0 // don't automatically add -songbackground-
;

//---------------dance-single - ----------------
#NOTES:
     dance-single:
     :
     Hard:
     7:
     0.544,0.601,0.203,0.189,0.058:
0000
0000
0000
0000
,
0000
0000
0000
0000
,
0000
0000
0000
0000
,
0000
0000
0000
0000
,
0000
0000
0000
0000
,
0000
0000
0000
0000
,
0000
0000
0000
0000
,
0000
0000
0000
0000
,
0000
0000
0000
0000
,
0000
0000
0000
0000
,
1000
0100
1000
0010
0100
0100
0000
0001
,
0000
0000
1000
0000
0100
0000
0000
0000
0010
0000
0000
0010
0000
0000
0010
0000
,
0001
0100
0000
0010
1000
0010
0000
0100
,
0000
0001
0010
0100
1000
0000
0001
0001
,
1000
0100
0010
0100
1000
0010
0000
0100
,
0000
0000
0001
0000
1000
0000
0000
0000
0001
0000
0000
0001
0000
0000
0001
0000
,
0100
0010
0000
1000
0100
1000
0000
1010
,
0000
0010
0100
0101
0000
0000
1002
0000
,
2003
0000
0001
0000
3001
0100
0010
1000
,
0000
0001
0100
0001
0100
0010
1000
0000
,
0200
0000
0010
0000
0310
0001
0010
0100
,
0000
1000
1000
0010
0100
0001
0100
0000
,
0002
0000
1000
0000
0100
0000
1000
1003
,
0000
0001
0100
0010
0100
0001
1000
0000
,
1001
1001
1001
0110
,
2002
0000
3003
0000
1000
0001
1000
0001
,
1001
0000
0000
0000
0001
0000
0100
0000
0010
0000
0000
0010
0000
0000
0010
0000
,
1000
0000
0001
0100
0001
0100
0010
1000
,
0001
0000
0000
0000
1000
0000
0100
0000
1000
0000
0000
1000
0000
0000
1000
0000
,
0010
0000
0100
0001
0100
0001
1000
1000
,
2000
0000
0100
0000
0010
0000
3001
0100
,
0001
0100
0010
1000
0001
0000
1000
0100
,
2000
0000
0100
0000
0001
3001
0100
0020
,
0000
0000
1000
0000
1030
0100
0010
0001
,
1001
0000
0000
0000
0010
0000
0100
0000
0001
0000
0000
0001
0000
0000
0001
0000
,
0100
0000
0010
1000
0010
0100
0001
0010
,
0100
0000
0000
0000
1000
0000
0010
0000
1000
0000
0000
1000
0000
0000
1000
0000
,
0001
0000
0100
0010
1000
0010
0100
0100
,
0002
0000
1000
0000
0100
0000
1003
0100
,
1000
0010
0100
0001
1000
0000
0001
0100
,
0020
0000
1000
0000
0130
0100
0001
2000
,
0000
0000
0001
0000
3001
0100
0001
0100
,
0110
0000
0000
0000
0010
0000
0100
0000
0001
0000
0000
0001
0000
0000
1000
0000
,
0000
0001
0100
0001
1000
0000
0100
0000
,
1000
0000
0010
0000
0100
0001
0000
1000
,
0000
0001
0010
0100
1000
0000
0001
0000
,
1001
0000
0000
0000
1000
0000
0010
0000
0100
0000
0000
0100
0000
0000
0100
0000
,
0000
0001
0100
0001
0100
0000
0010
0000
,
1000
0001
0001
0000
0100
0010
1000
0010
,
0000
1000
0100
1000
0100
0010
0001
0000
,
1001
1000
0001
0100
0010
1000
0000
0001
,
0000
0000
0010
0000
0100
0000
0000
0000
1000
0000
0000
1000
0000
0000
1000
0000
,
0001
0100
0000
0010
1000
0010
0000
0100
,
0000
0001
0010
0001
1000
0000
0001
0001
,
1001
1000
0000
0010
0100
0001
0000
0100
,
0000
0000
0010
0000
1000
0000
0000
0000
0001
0000
0000
0001
0000
0000
0001
0000
,
1000
0100
0000
0010
0001
0010
0000
0110
,
0000
1000
0010
0110
0000
0000
2001
0000
,
3002
0000
0100
0000
0103
0010
1000
0001
,
0000
1000
0100
1000
0010
0100
0001
0000
,
2000
0000
0010
0000
3010
0100
0001
0100
,
0000
0010
0100
0010
0100
0010
1000
0001
,
2000
0000
0010
0000
0100
0000
0001
3001
,
0000
1000
0100
1000
0100
1000
0010
0000
,
0110
0110
0110
1001
,
0220
0000
0330
0000
0010
0100
0010
0100
,
1001
0000
0000
0000
1000
0000
0001
0000
0100
0000
0000
0100
0000
0000
0100
0000
,
0010
0000
1000
0010
1000
0010
0100
0001
,
1000
0000
0000
0000
0001
0000
0100
0000
0010
0000
0000
0010
0000
0000
0010
0000
,
1000
0000
0001
0100
0001
0100
0010
0010
,
0210
0000
1000
0000
0001
0000
1300
0001
,
1000
0010
0100
0010
0100
0000
0001
1000
,
0002
0000
0100
0000
0103
0010
1000
0020
,
0000
0000
0100
0000
0130
0001
0100
0001
,
1001
0000
0000
0000
1000
0000
0100
0000
0010
0000
0000
0010
0000
0000
0010
0000
,
0001
0000
1000
0100
1000
0010
0100
0001
,
1000
0000
0000
0000
0001
0000
0100
0000
0010
0000
0000
0010
0000
0000
0010
0000
,
0100
0000
0001
0010
0001
0010
0100
1000
,
0002
0000
0100
0000
0100
0000
0103
0010
,
1000
0010
0100
0001
1000
0000
0001
0100
,
0002
0000
1000
0000
1003
0010
0100
0002
,
0000
0000
1000
0000
1003
0100
1000
0100
,
1100
0000
0000
0000
1000
0000
0010
0000
0100
0000
0000
0100
0000
0000
0100
0000
,
0000
0001
0100
0001
0010
0100
1000
0001
,
1000
0000
0001
0000
0100
0010
0000
1000
,
0000
0010
0100
0001
0100
0000
0001
0000
,
1001
0000
0000
0000
0001
0000
0010
0000
0001
0000
0000
0001
0000
0000
0001
0000
,
0000
1000
0010
1000
0010
0100
0001
1000
,
0000
0001
0001
0000
0100
0010
1000
0001
,
0000
1000
0100
0010
0001
1000
0001
0001
,
2002
0000
0000
0000
,
0000
0000
0000
0000
,
3003
0000
0000
0000
;

//---------------dance-single - ----------------
#NOTES:
     dance-single:
     :
     Medium:
     5:
     0.394,0.534,0.189,0.254,0.000:
0000
0000
0000
0000
,
0000
0000
0000
0000
,
0000
0000
0000
0000
,
0000
0000
0000
0000
,
0000
0000
0000
0000
,
0000
0000
0000
0000
,
0000
0000
0000
0000
,
0000
0000
0000
0000
,
0000
0000
0000
0000
,
0000
0000
0000
0000
,
1000
0010
0100
0000
0001
0001
0000
0000
,
1000
0100
0010
0001
,
0100
0010
0000
1000
0010
0000
0000
0000
,
1000
0010
0100
0000
,
1001
0001
0100
0000
0010
0010
0000
0000
,
1000
0001
0100
0010
,
1000
1000
0000
0001
0001
0000
0000
0101
,
0000
0000
0000
1100
0000
0000
2000
0000
,
3002
0000
0000
0000
1003
0000
0001
0200
,
0000
0000
0300
0010
,
0020
0000
0000
0000
1030
0100
0000
0200
,
0000
0000
0300
0010
,
0002
0000
0000
0000
0000
0003
0000
2000
,
0000
0000
3000
0001
,
0101
0101
0101
0110
,
1001
0000
0000
0000
1000
0001
1000
0001
,
1001
0000
0000
0001
0001
0000
0100
0000
,
0020
1000
1000
1030
,
1010
0000
0000
1000
1000
0000
0001
0000
,
0200
0000
0001
0000
0301
0000
0001
1000
,
0002
0000
0010
0000
0013
0000
0100
1000
,
0100
0000
0010
0001
0010
0000
0001
0001
,
0200
0000
0010
0000
0310
0000
1000
0020
,
0000
1000
1000
1030
,
1001
0000
0000
0001
0100
0000
0010
0000
,
2000
0100
0100
3100
,
0010
0000
0000
0001
0001
0000
0100
0000
,
0020
0000
1000
0000
1030
0000
1000
0001
,
2000
0000
0010
0000
3010
0000
0100
0001
,
0100
0000
0010
1000
0010
0000
1000
0001
,
2000
0001
3001
0100
,
0020
1000
1030
0001
,
1001
0000
0001
0100
0010
0000
0000
0010
,
0000
1000
0100
0000
1000
0000
1000
0000
,
0001
0000
0100
0000
0010
0000
0000
0010
,
0000
0100
0001
1000
,
1001
0000
0001
0010
0100
0000
0000
0100
,
0000
1000
1000
0010
,
0100
0000
0001
0000
1000
0000
0000
1000
,
0000
0001
1000
0000
0001
0000
1000
0000
,
0101
0001
0100
0000
0010
0010
0000
0000
,
0100
0010
1000
0001
,
1000
1000
0000
0001
0001
0000
0000
0000
,
0100
0010
1000
0000
,
0001
1000
0001
0000
0010
0010
0000
0000
,
0100
1000
0010
0100
,
0001
0100
0000
0001
0100
0000
0000
0101
,
0000
0000
0000
1100
0000
0000
0000
0000
,
1002
0000
0000
0000
1003
0000
0010
0200
,
0000
0000
0300
0001
,
0020
0000
0000
0000
0130
0000
1000
0200
,
0000
0000
0300
0010
,
0002
0000
0000
0000
0000
0000
0003
2000
,
0000
0000
3000
0001
,
1100
1100
1100
0110
,
1001
0000
0000
0000
0001
1000
0001
1000
,
1001
0000
0000
0001
0100
0000
0010
0000
,
2000
0100
0100
0100
,
3100
0000
0000
0010
0001
0000
0100
0000
,
0020
0000
1000
0000
1000
0000
1030
0001
,
2000
0000
0010
0000
3010
0000
0100
0001
,
0100
0000
0010
1000
0010
0000
1000
0001
,
2000
0000
0100
0000
3100
0000
0010
0002
,
0000
1000
1003
0001
,
1001
0000
0000
1000
0010
0000
0100
0000
,
0002
0100
0100
0103
,
0010
0000
0000
1000
0100
0000
1000
0000
,
0002
0000
0010
0000
0010
0000
0013
0100
,
2000
0000
0001
0000
3001
0000
0100
0010
,
0100
0000
0001
0100
0001
0000
1000
0001
,
2000
0000
0100
0000
3100
0000
0010
0200
,
0000
1000
1300
0001
,
1001
0000
0001
0100
0010
0000
0000
0010
,
0000
0000
1000
0001
0100
0000
0010
0000
,
1000
0000
0010
0000
0100
0000
0000
0100
,
0000
0001
0010
0100
,
1000
0000
1000
0100
1000
0000
0000
1000
,
0000
0000
0001
0100
0010
0000
1000
0000
,
0010
0000
0100
0000
0001
0000
0000
0001
,
0000
1000
0001
1000
0001
1000
0001
0000
,
2002
0000
0000
0000
,
0000
0000
0000
0000
,
3003
0000
0000
0000
;

//---------------dance-single - ----------------
#NOTES:
     dance-single:
     :
     Easy:
     3:
     0.211,0.300,0.044,0.203,0.000:
0000
0000
0000
0000
,
0000
0000
0000
0000
,
0000
0000
0000
0000
,
0000
0000
0000
0000
,
0000
0000
0000
0000
,
0000
0000
0000
0000
,
0000
0000
0000
0000
,
0000
0000
0000
0000
,
0000
0000
0000
0000
,
0000
0000
0000
0000
,
1000
0100
0010
0000
,
0001
0100
0001
0000
,
0100
0000
0010
0000
,
0001
0001
0010
0000
,
0100
1000
0100
0000
,
0010
0001
0100
0000
,
0010
0000
1000
0000
,
0001
0000
0001
0000
,
2001
0000
3000
0000
,
0002
0000
0003
0000
,
0200
0000
0300
0000
,
0020
0000
0030
0000
,
2000
0000
3000
0000
,
0200
0000
0300
0000
,
0010
0010
0010
0001
,
1000
0000
1002
0000
,
1003
0000
0010
0100
,
0001
0000
0000
0000
,
1000
0000
0100
1000
,
0010
0000
0000
0100
,
0200
0000
0300
0001
,
0001
0010
0100
1000
,
2000
0000
3000
0010
,
0020
0000
0000
0030
,
1001
0000
1000
0100
,
1000
0000
0000
0000
,
0001
0000
0010
0100
,
0010
0000
0000
0001
,
0002
0000
0003
0100
,
0100
0010
1000
0001
,
0002
0000
0003
0100
,
0200
0000
0000
0300
,
0010
0000
1000
0000
,
0001
0000
0010
0000
,
0001
0000
0100
0000
,
0010
0000
1000
0000
,
0010
0000
0100
0000
,
0001
0000
0010
0000
,
0100
0000
1000
0000
,
0001
0000
0000
0000
,
1000
0100
1000
0000
,
0010
0100
0001
0000
,
1000
0000
0001
0000
,
0100
0010
1000
0000
,
0001
0010
0001
0000
,
0100
1000
0100
0000
,
0010
0000
0100
0000
,
0001
0100
0010
0000
,
2000
0000
3000
0000
,
0020
0000
0030
0000
,
0200
0000
0300
0000
,
0002
0000
0003
0000
,
2000
0000
3000
0000
,
0200
0000
0300
0000
,
0010
0010
0010
0001
,
1000
0000
1002
0000
,
1003
0000
0010
0100
,
0001
0000
0000
0000
,
0010
0000
0100
1000
,
0100
0000
0000
0010
,
0020
0000
0000
0031
,
0001
0100
0010
1000
,
2000
0000
3000
0001
,
0200
0000
0000
0300
,
0010
0000
0100
0001
,
1000
0000
0000
0000
,
0001
0000
0010
0001
,
0010
0000
0000
0100
,
2000
0000
3000
0010
,
0100
0100
0001
1000
,
2000
0000
3000
0001
,
0200
0000
0000
0300
,
1001
0000
0001
0000
,
0010
0000
0100
0000
,
1000
0000
0010
0000
,
0100
0000
0001
0000
,
1000
0000
0100
0000
,
1000
0000
0010
0000
,
0100
0000
0001
0000
,
1000
0000
0000
0000
,
2002
0000
0000
0000
,
0000
0000
0000
0000
,
3003
0000
0000
0000
;

//---------------dance-single - ----------------
#NOTES:
     dance-single:
     :
     Beginner:
     1:
     0.094,0.229,0.044,0.000,0.000:
0000
0000
0000
0000
,
0000
0000
0000
0000
,
0000
0000
0000
0000
,
0000
0000
0000
0000
,
0000
0000
0000
0000
,
0000
0000
0000
0000
,
0000
0000
0000
0000
,
0000
0000
0000
0000
,
0000
0000
0000
0000
,
0000
0000
0000
0000
,
1000
0000
0000
0000
,
1000
0000
0000
0000
,
0001
0000
0000
0000
,
0001
0000
0000
0000
,
0100
0000
0000
0000
,
0100
0000
0000
0000
,
0010
0000
0000
0000
,
0010
0000
0000
0000
,
1000
0000
0000
0000
,
0000
0000
0000
0000
,
0001
0000
0000
0000
,
0000
0000
0000
0000
,
0010
0000
0000
0000
,
0000
0000
0000
0000
,
0100
0100
0100
0100
,
0100
0000
0000
0000
,
1001
0000
1000
0000
,
1000
0000
0000
0000
,
0001
0000
0001
0000
,
0001
0000
0000
0000
,
0100
0000
0000
0000
,
0100
0000
0000
0000
,
0010
0000
0000
0000
,
0010
0000
0000
0000
,
1000
0000
1000
0000
,
0100
0000
0000
0000
,
0001
0000
0001
0000
,
0100
0000
0000
0000
,
0010
0000
0000
0000
,
0100
0000
0000
0000
,
0001
0000
0000
0000
,
1000
0000
0000
0000
,
1001
0000
0000
0000
,
0001
0000
0000
0000
,
0100
0000
0000
0000
,
0000
0000
0000
0000
,
0010
0000
0000
0000
,
0010
0000
0000
0000
,
1000
0000
0000
0000
,
0000
0000
0000
0000
,
1001
0000
0000
0000
,
0001
0000
0000
0000
,
0100
0000
0000
0000
,
0010
0000
0000
0000
,
1000
0000
0000
0000
,
0001
0000
0000
0000
,
0100
0000
0000
0000
,
0010
0000
0000
0000
,
1000
0000
0000
0000
,
0000
0000
0000
0000
,
0001
0000
0000
0000
,
0000
0000
0000
0000
,
0100
0000
0000
0000
,
0000
0000
0000
0000
,
0010
0010
0010
0010
,
0010
0000
0000
0000
,
1001
0000
1000
0000
,
0001
0000
0000
0000
,
0001
0000
0001
0000
,
0100
0000
0000
0000
,
0010
0000
0000
0000
,
0100
0000
0000
0000
,
1000
0000
0000
0000
,
0001
0000
0000
0000
,
1000
0000
1000
0000
,
0010
0000
0000
0000
,
0100
0000
0100
0000
,
0001
0000
0000
0000
,
1000
0000
0000
0000
,
0001
0000
0000
0000
,
0100
0000
0000
0000
,
0010
0000
0000
0000
,
1001
0000
0000
0000
,
1000
0000
0000
0000
,
0001
0000
0000
0000
,
0000
0000
0000
0000
,
0001
0000
0000
0000
,
0100
0000
0000
0000
,
0010
0000
0000
0000
,
0000
0000
0000
0000
,
1001
0000
0000
0000
;
