#TITLE:Lunatic Heaven;
#SUBTITLE:;
#ARTIST:AU;
#TITLETRANSLIT:;
#SUBTITLETRANSLIT:;
#ARTISTTRANSLIT:;
#CREDIT:;
#BANNER:bom-bn.PNG;
#BACKGROUND:bom-bg.PNG;
#LYRICSPATH:;
#CDTITLE:!rebirth.png;
#MUSIC:Lunatic Heaven.ogg;
#OFFSET:-0.960;
#SAMPLESTART:100.853;
#SAMPLELENGTH:14.700;
#SELECTABLE:YES;
#BPMS:0.000=149.000,36.000=74.500,69.000=149.000;
#STOPS:36.000=2.416
,69.000=1.208
,198.000=1.208
;
#BGCHANGES:;

//---------------dance-single - ----------------
#NOTES:
     dance-single:
     :
     Challenge:
     10:
     0.702,0.878,0.407,0.282,0.394:
0000
0000
0000
0000
,
0000
0000
0000
0000
,
0000
0000
0000
0000
,
0000
0000
0000
0000
,
0000
0000
0000
0000
,
1100
0100
1000
0100
0010
0001
0010
0001
,
1001
1000
0001
1000
0001
0100
0001
0100
,
0110
0010
1000
0010
1010
1000
0001
1000
,
0001
0010
0100
1000
0001
0010
0100
1000
0001
0100
0010
1000
0001
0100
0010
1000
,
0002
0000
0003
0000
1001
0000
0010
0000
0101
0000
1000
0000
0110
0000
0100
0010
,
0100
0000
0101
0000
1001
0000
0010
0000
0101
0000
1000
0000
0101
0000
0001
0100
,
0010
0000
0000
0000
1010
0000
0100
0000
0110
0000
0100
0100
0101
0000
0010
0100
,
1000
0000
0001
0001
0101
0000
0010
0000
1001
0000
0100
0100
0101
0000
0001
1000
,
0001
0000
1000
0001
2001
0000
3100
0000
0102
0000
0013
0000
0210
0000
1300
0010
,
0120
0000
0130
0000
0201
0000
0310
0000
2010
0000
3100
0000
0120
0000
0031
0100
,
0220
0000
0330
0000
1MM2
0000
0103
0000
0120
0000
1030
0000
2MM1
0000
3100
0010
,
0120
0000
0031
0000
2MM1
0000
3100
0000
1MM2
0000
0103
0000
M11M
0000
1M1M
1000
,
1MM1
0000
M1M1
0000
1001
0000
M00M
0000
1000
0000
0001
0100
0001
0000
0100
0010
,
0100
0000
0010
1000
0010
0000
0100
0000
0001
0000
0010
0100
0000
1000
0100
0010
,
0001
0000
1000
0000
0100
0000
0010
0000
0001
0000
1000
0100
0010
0000
0001
0010
,
0100
0000
1000
0010
0100
0000
0001
0000
1000
0000
0100
0000
0010
0000
0001
0000
,
2000
0000
0000
0000
0001
0000
0001
0000
3001
0000
1000
0100
1000
0000
0001
0100
,
0001
0000
0100
0010
0100
0000
0010
0000
1000
0000
0001
0010
0000
0001
0010
0100
,
1000
0000
0010
0000
0100
0000
0001
0000
1000
0000
0001
0100
0001
0000
0100
0010
,
0100
0000
0010
1000
0010
0000
1000
0000
0001
0000
0010
0000
0100
0000
1000
0000
,
0002
0000
1000
1000
1003
0100
0010
0010
,
0001
0100
0010
0010
1000
0001
0100
0100
,
0100
0010
1000
0001
0100
0010
1000
1000
,
0001
0000
0010
0100
0010
0000
0010
0000
0001
0000
0100
0000
0010
0000
0010
0000
,
0020
1000
1030
0000
1002
1000
2003
0100
,
3200
0010
0320
0100
0230
1000
1300
0001
,
0002
0100
0203
0010
0320
0100
0230
0001
,
0301
0000
1000
0100
1000
0000
0010
0000
0020
0000
0100
0000
0130
0000
0001
0000
,
2000
0001
3001
0000
1001
0001
1000
0100
,
0010
0001
0010
0100
0010
0001
0100
0010
,
1000
0001
0100
0010
1010
1000
0100
1000
,
0010
0100
0001
0010
0100
0010
0001
0010
,
0100
1000
0100
1000
1001
0001
0100
0001
,
0100
0010
0100
0010
1010
1000
0010
1000
,
0001
1000
0001
1000
1100
0100
0010
0100
,
0110
0000
0010
0000
0001
0000
0010
0000
0001
0100
0001
0100
0010
1000
0010
1000
,
0001
0010
0100
1000
0001
0010
0100
1000
0001
0000
1000
0100
1000
0000
0100
0010
,
0100
0000
0010
0001
0010
0000
0001
0000
1000
0000
0100
0010
0000
0001
0010
0100
,
1000
0000
0001
0000
0100
0000
0010
0000
1000
0000
0001
0100
0001
0000
1000
0100
,
1000
0000
0001
1000
0001
0000
1000
0000
0001
0000
0010
0000
0100
0000
1000
0000
,
0002
0000
0000
0000
1000
0000
1000
0000
1003
0000
0001
0100
0001
0000
1000
0100
,
1000
0000
0001
1000
0001
0000
0100
0000
0010
0000
1000
0010
1000
0000
0001
0010
,
0001
0000
0010
0100
0010
0000
0100
0000
1000
0000
0001
0010
0100
0000
1000
0100
,
0010
0000
0001
0100
0010
0000
1000
0010
0100
0000
0001
0000
1000
0000
0001
0000
,
1000
0100
0010
0001
0010
0100
1000
0100
2000
3000
000M
0000
0001
0100
0001
0100
,
0010
1000
0010
1000
0001
1000
0001
1000
0001
0000
0000
0000
1001
0000
0001
0010
,
0100
0000
1000
0100
0010
0000
0001
1000
0001
0000
0100
0000
0010
0000
1000
0010
,
0000
0100
0001
0100
0010
0000
1000
0000
0001
0000
0010
0000
0100
0000
1000
0100
,
0010
0000
0001
0010
0100
0000
0010
0100
0010
0000
0100
0000
1000
0000
0100
0000
,
0010
0000
0001
0000
2000
0000
0000
0000
0001
0000
3001
0000
1001
0000
0001
0100
,
0010
0000
1000
0010
0100
0000
0010
1000
0010
0000
0100
0000
0001
0000
1000
0001
,
0000
0001
0010
0100
1000
0000
0010
0000
0100
0000
0001
0000
1000
0000
0001
1000
,
0001
0000
1000
0001
1000
0000
0001
0100
0001
0000
1000
0000
1010
0000
0010
0000
,
0110
0100
0102
1000
1003
0100
1001
0000
;

//---------------dance-single - ----------------
#NOTES:
     dance-single:
     :
     Hard:
     8:
     0.502,0.488,0.208,0.042,0.154:
0000
0000
0000
0000
,
0000
0000
0000
0000
,
0000
0000
0000
0000
,
0000
0000
0000
0000
,
0000
0000
0000
0000
,
1100
0000
1000
0100
0010
0001
0100
0010
,
1010
0000
1000
0010
0100
0001
0100
0010
,
0110
0000
0100
0001
1001
0000
0001
0010
,
0110
0000
1000
0001
1001
0000
0001
1000
,
1001
0000
0000
0000
0001
0000
0100
0000
0001
0000
0100
0000
0010
0000
1000
0001
,
1000
0000
0001
0000
0010
0000
0100
0000
0010
0000
0100
0000
1000
0000
0010
0100
,
0010
0000
0000
0000
1000
0000
0010
0000
0100
0000
0010
0000
1000
0000
0100
0010
,
0100
0000
0010
0000
0001
0000
0100
0000
0001
0000
0010
0000
0100
0000
1000
0100
,
1000
0000
0000
0000
0010
0000
0100
0000
0001
0000
0100
0000
0010
0000
1000
0001
,
1000
0000
0010
0000
0100
0000
0001
0000
0100
0000
0010
0000
1000
0000
0001
0100
,
0001
0000
0000
0000
0100
0000
0010
0000
1000
0000
0010
0000
0100
0000
0001
0010
,
0001
0000
0010
0000
0100
0000
1000
0000
0100
0000
0010
0000
0001
0000
1000
0100
,
1000
0000
0001
0000
1001
0000
0000
0000
0001
0000
1000
0100
1000
0000
0001
0100
,
0001
0000
1000
0001
1000
0000
0001
0000
0100
0000
0000
0010
0000
0000
1000
0000
,
0001
0000
0010
0000
0100
0000
1000
0000
0001
0000
1000
0100
1000
0000
0100
0010
,
0100
0000
0010
0001
0010
0000
0001
0000
0100
0000
0010
0000
1000
0000
0001
0000
,
2000
0000
0000
0000
0001
0000
0000
0000
3001
0000
0100
0010
0100
0000
0001
0100
,
0001
0000
1000
0001
1000
0000
0001
0000
0010
0000
0000
0100
0000
0000
1000
0000
,
0010
0000
0100
0000
0001
0000
0100
0000
0010
0000
1000
0100
1000
0000
0001
0100
,
0001
0000
1000
0001
1000
0000
0001
0000
0100
0000
0010
0000
1000
0000
0001
0000
,
2000
0001
3001
0101
,
1000
0000
1100
0000
0010
0000
0100
0001
,
1000
0001
0010
1100
,
0010
0000
0101
0100
0001
0000
1000
0100
,
1000
0001
1000
0110
,
0001
0000
1100
0000
0010
0000
0100
0001
,
0100
0010
1000
0101
,
0010
0000
1100
1000
0001
1000
0010
0100
,
0010
0000
1000
0000
0001
0100
0001
0100
,
0010
1000
0010
1000
0001
1000
0001
1000
,
0001
0010
0001
0010
0100
0010
0100
0010
,
0100
1000
0100
1000
0001
1000
0001
1000
,
0001
0100
0010
1000
1001
0000
0001
0100
,
0010
1000
0001
0010
0110
0000
1000
0100
,
0010
0001
1000
0010
0110
0000
0001
0100
,
0101
0000
0100
0010
1010
0000
1001
0000
,
0101
0000
1001
0000
0001
1000
1000
0010
,
0010
0000
0100
0000
0100
0000
0001
0000
0010
0000
0000
0100
0000
0000
1000
0000
,
0100
1000
0010
0100
0001
0010
0010
0100
,
0100
1000
1000
0001
0100
0010
0100
0010
,
2000
3000
0001
1000
,
0001
0000
0100
0010
1000
0000
0001
0000
,
0010
0000
0100
1000
0010
0000
0010
0000
,
0100
0000
0100
0000
0001
1000
0001
1000
,
0001
0100
0010
1000
0001
0000
1000
0100
,
0010
0000
0001
0000
1000
0000
0001
0000
1000
0000
0000
0000
0001
0000
1000
0100
,
1000
0000
0001
0100
0001
0000
1000
0001
1000
0000
0001
0000
0100
0000
0000
0010
,
0000
0000
1000
0000
0001
0000
0010
0000
0100
0000
0010
0000
0001
0000
1000
0100
,
1000
0000
0001
0100
0001
0000
0100
0010
0100
0000
0010
0000
1000
0000
0100
0000
,
0010
0000
0001
0000
2000
0000
0000
0000
0001
0000
0000
0000
3001
0000
0100
0010
,
0100
0000
0010
1000
0010
0000
1000
0001
1000
0000
0001
0000
0010
0000
0000
0001
,
0000
0000
0100
0000
0010
0000
1000
0000
0001
0000
0010
0000
0001
0000
1000
0001
,
1000
0000
0001
0100
0001
0000
0100
0010
0100
0000
0010
0000
1000
0000
0100
0000
,
0010
0001
2000
0001
3001
0100
1001
0000
;

//---------------dance-single - ----------------
#NOTES:
     dance-single:
     :
     Medium:
     6:
     0.334,0.415,0.216,0.050,0.000:
0000
0000
0000
0000
,
0000
0000
0000
0000
,
0000
0000
0000
0000
,
0000
0000
0000
0000
,
0000
0000
0000
0000
,
1001
0001
0100
0010
,
0101
1000
0010
1000
,
0101
0010
1100
0001
,
1100
0100
0110
0010
,
0011
0000
0001
0100
0001
0100
0010
1000
,
1000
0000
0001
0010
0100
1000
0001
0100
,
0100
0000
0010
1000
0010
0100
0001
1000
,
1000
0000
0001
0010
0100
1000
0100
0010
,
0010
0000
0001
0000
0100
0000
0010
1000
,
0001
0001
0010
0000
0100
0000
1000
0100
,
1000
0000
1001
0000
0001
0000
0101
0100
,
0010
1000
1001
0000
0101
0000
0110
0010
,
1010
1000
1001
0000
0001
0000
1000
0000
,
0100
0010
0001
0100
,
0010
1000
0010
0100
0001
0000
0010
0000
,
0100
0000
1000
0000
0010
0100
0010
0100
,
0002
0003
0010
0100
,
1000
0100
0010
0001
,
0100
0010
0100
0001
1000
0000
0001
0000
,
0010
0000
0001
0000
0100
0010
1000
0001
,
2000
3000
0001
0001
,
1000
0000
1000
0000
0010
0000
0100
0001
,
0100
0010
1000
1000
,
0001
0000
0001
0000
0010
0000
0100
1000
,
0100
0000
0010
0010
,
0001
0000
0001
0000
0100
0000
0010
1000
,
0010
0100
0001
0001
,
0010
0000
0010
0000
0100
0000
1000
0100
,
0010
0000
0001
0100
,
0001
0100
0010
1000
,
0001
0010
1100
0010
,
0100
0001
0100
0010
,
1000
0001
0101
0010
,
1000
0010
0110
0010
,
1000
0010
0101
0001
,
0110
1000
0101
1001
,
1100
1001
0101
0100
,
0010
1000
0001
0010
,
0100
1000
0100
0010
0001
0000
0100
0000
,
0010
0000
1000
0000
0010
0100
0010
1000
,
0002
0003
1000
0100
,
0010
0001
1000
0010
,
0100
0001
1000
1000
,
0001
0000
0001
0000
1000
0001
1000
0001
,
2000
0000
3001
2002
,
0000
0000
3003
1000
,
0001
0100
0010
1000
,
0010
0100
0001
0100
0010
0000
1000
0000
,
0100
0000
1000
0000
0010
0000
0100
0001
,
0100
0010
1000
0000
0000
0000
0001
0000
,
0010
0100
1000
0001
,
0100
0000
0001
0010
0100
1000
0001
0000
,
0100
0000
0010
0000
1000
0000
0010
0100
,
0001
1000
0001
0000
0000
0000
1001
0000
;

//---------------dance-single - ----------------
#NOTES:
     dance-single:
     :
     Easy:
     3:
     0.217,0.244,0.100,0.008,0.000:
0000
0000
0000
0000
,
0000
0000
0000
0000
,
0000
0000
0000
0000
,
0000
0000
0000
0000
,
0000
0000
0000
0000
,
1001
0000
0100
0000
,
0110
0000
0010
0000
,
1010
0000
1001
0000
,
1100
0000
0101
0000
,
1001
1000
0001
0100
,
0100
0010
1000
0001
,
0001
1000
0100
1000
,
1000
0010
0100
0001
,
0001
1000
0100
1000
,
1000
0010
0100
0001
,
0001
1000
0100
0010
,
0010
0001
0100
0010
,
0010
1001
1000
0010
,
0100
0001
0010
0010
,
0100
1000
0001
0001
,
0100
0100
0010
1000
,
0001
0000
1000
0100
,
1000
1000
0010
0100
,
0001
0001
0010
0100
,
1000
0100
0001
0010
,
1000
0000
0001
0000
,
1000
0000
0100
0010
,
0001
0000
0100
0000
,
0010
0000
1000
0100
,
1000
0000
0001
0000
,
0100
0000
0010
1000
,
0010
0000
0100
0000
,
0001
0000
0010
0100
,
1000
0000
1001
0001
,
0001
0001
0100
0100
,
0100
0100
0010
0010
,
0010
0010
1000
1000
,
1000
1000
0001
0000
,
0100
0000
0010
0000
,
1000
0000
0001
0000
,
0010
0000
0100
0100
,
1000
1000
1001
0000
,
0001
0000
0100
0010
,
1000
0000
0001
0000
,
0010
0000
0100
1000
,
0001
0000
0100
0000
,
0010
0000
1000
0000
,
0001
0000
1000
0001
,
1000
0001
1000
0000
,
0000
0000
1001
0002
,
0000
0003
0000
1000
,
0100
0010
0001
0100
,
0100
0010
1000
0001
,
0010
0100
1000
0001
,
0001
0100
0000
0010
,
1000
0010
0100
0001
,
0001
0010
0100
1000
,
0100
1000
0010
0100
,
0100
0001
0000
1001
;

//---------------dance-single - ----------------
#NOTES:
     dance-single:
     :
     Beginner:
     1:
     0.120,0.195,0.050,0.000,0.000: // measure 1
0000
0000
0000
0000
,  // measure 2
0000
0000
0000
0000
,  // measure 3
0000
0000
0000
0000
,  // measure 4
0000
0000
0000
0000
,  // measure 5
0000
0000
0000
0000
,  // measure 6
1000
0000
0000
0000
,  // measure 7
0001
0000
0000
0000
,  // measure 8
0100
0000
0100
0000
,  // measure 9
0010
0000
0010
0000
,  // measure 10
1001
1001
0000
0001
,  // measure 11
0000
0001
0000
0001
,  // measure 12
0000
0100
0000
0100
,  // measure 13
0000
0100
0000
0100
,  // measure 14
0000
0010
0000
0010
,  // measure 15
0000
0010
0000
0010
,  // measure 16
0000
1000
0000
1000
,  // measure 17
0000
1000
0000
1000
,  // measure 18
1000
1000
1000
0000
,  // measure 19
1000
0000
0001
0000
,  // measure 20
0001
0000
0100
0000
,  // measure 21
0100
0000
0010
0000
,  // measure 22
0000
0000
1000
0000
,  // measure 23
0100
0000
0010
0000
,  // measure 24
0001
0000
0100
0000
,  // measure 25
0010
0000
1000
0000
,  // measure 26
0000
0000
0001
0000
,  // measure 27
0000
0000
0100
0000
,  // measure 28
0000
0000
0010
0000
,  // measure 29
0000
0000
1000
0000
,  // measure 30
1000
0000
0001
0000
,  // measure 31
0000
0000
0100
0000
,  // measure 32
0000
0000
0010
0000
,  // measure 33
0000
0000
1000
0000
,  // measure 34
1000
0000
0010
0000
,  // measure 35
0000
0000
0100
0000
,  // measure 36
0000
0000
0001
0000
,  // measure 37
0000
0000
0010
0000
,  // measure 38
0000
0000
0100
0000
,  // measure 39
0100
0000
1000
0000
,  // measure 40
0000
0000
0001
0000
,  // measure 41
0100
0000
0010
0010
,  // measure 42
0010
0000
1001
0000
,  // measure 43
1000
0000
1000
0000
,  // measure 44
0000
0000
0001
0000
,  // measure 45
0001
0000
0001
0000
,  // measure 46
0000
0000
1000
0000
,  // measure 47
1000
0000
0001
0000
,  // measure 48
0001
0000
1000
0000
,  // measure 49
0001
0000
1000
1000
,  // measure 50
1000
0000
1001
1001
,  // measure 51
0000
0000
0000
0001
,  // measure 52
0000
0001
0000
0100
,  // measure 53
0000
0100
0000
0010
,  // measure 54
0000
0010
0000
1000
,  // measure 55
0000
1000
0000
0001
,  // measure 56
0000
0010
0000
0100
,  // measure 57
0000
1000
0000
0001
,  // measure 58
0000
1000
0000
0001
,  // measure 59
0000
1000
0000
1001
;
