#TITLE:Interdimensional Voyage of a Ghostly Passenger Ship;
#SUBTITLE:;
#ARTIST:ZUN;
#TITLETRANSLIT:;
#SUBTITLETRANSLIT:;
#ARTISTTRANSLIT:;
#CREDIT:;
#BANNER:;
#BACKGROUND:;
#LYRICSPATH:;
#CDTITLE:;
#MUSIC:Interdimensional Voyage of a Ghostly Passenger Ship.ogg;
#OFFSET:-0.500;
#SAMPLESTART:87.640;
#SAMPLELENGTH:12.000;
#SELECTABLE:YES;
#BPMS:0.000=145.000,128.000=68.750,144.000=142.000,168.000=144.000,176.000=143.000,192.000=145.000;
#STOPS:;
#BGCHANGES:;

//---------------dance-single - ----------------
#NOTES:
     dance-single:
     :
     Challenge:
     11:
     0.793,1.000,0.257,0.660,0.792:
0000
0000
0000
0000
,
0000
0000
0000
0000
,
0000
0000
0000
0000
,
0000
0000
0000
0000
,
2000
0000
0000
3010
0200
0000
0000
0000
0301
0010
0100
0010
0001
0000
0100
0000
,
0020
0000
0000
1030
0002
0000
0000
0000
1003
0100
0010
0100
1000
0000
0010
0000
,
0200
0000
0000
0301
2000
0000
0000
0000
3100
0010
0001
0010
0100
0000
1000
0000
,
0020
0000
0000
0130
0002
0000
0000
0000
1003
0100
1000
0100
0010
0000
0001
0000
,
2001
0000
0000
0000
3001
0000
0100
0000
0120
0000
0000
0000
0130
0001
1000
0001
,
1000
0000
0100
0000
1000
0000
0010
0000
0100
0000
0001
0100
0001
0000
0100
0000
,
0010
0000
1000
0000
0001
0000
0000
0001
MM10
0000
0000
0010
MM01
0000
0000
0001
,
1MM0
0000
0000
0000
1001
0000
0001
0100
0001
0000
0000
0000
1001
0000
1000
0001
,
2000
0000
0000
0000
3010
0000
0100
0000
0102
0000
0000
0000
0103
0010
1000
0010
,
1000
0000
0001
0000
0100
0000
0001
0000
0010
0000
0100
1000
0100
0000
0010
0000
,
0001
0100
0010
00M0
1M0M
M000
0MM1
000M
,
2001
0000
0000
0000
3001
0100
0001
0000
0102
0000
0000
0000
0103
0010
0100
0010
,
2000
0000
0000
0000
3100
0000
0010
0000
0012
0000
0000
0000
0013
0100
1000
0001
,
1000
0000
0010
0000
0100
0001
0100
0000
0001
0000
1000
0100
1000
0100
0010
0000
,
0001
0000
0100
0000
0010
0000
0000
0010
1M0M
0000
0000
1000
0MM1
0000
0000
0001
,
2MM0
0000
0000
0000
3100
0000
0000
0000
1002
0000
0000
0000
0103
0000
0001
1000
,
0002
0000
0000
0000
0103
0000
0010
0000
2010
0000
0000
0000
3010
0100
0001
0000
,
1001
0000
1000
0000
1001
0000
0001
0000
1001
0000
1000
0001
1000
0000
0001
1000
,
0001
0010
0100
0M00
10MM
M000
0M1M
00M0
,
0200
0000
0000
0000
0001
0000
0000
0000
1000
0000
0000
0000
0301
1000
0001
1000
,
0002
0000
0000
1003
0200
0000
0000
0000
0310
0001
0010
0001
1000
0000
0010
0000
,
0200
0000
0000
0301
2000
0000
0000
0000
3100
0010
0100
0010
0001
0000
0100
0000
,
0020
0000
0000
1030
0002
0000
0000
0000
1003
0100
0010
0001
0010
0000
0100
0000
,
2000
0000
0000
3010
0200
0000
0000
0000
0301
1000
0001
1000
0100
0000
0010
0000
,
0002
0000
0000
0013
0200
0000
0000
0000
1300
0010
0100
0010
1000
0000
0001
0000
,
0200
0000
0000
0310
2000
0000
0000
0000
3001
0100
0010
0100
0001
0000
0010
0000
,
0002
0000
0000
1003
0200
0000
0000
0000
0310
0001
0010
0100
1000
0000
0010
0000
,
0200
0000
0000
0301
2000
0000
0000
0000
3001
1000
0001
1000
0001
0000
1000
0000
,
2002
0000
0000
0000
0000
0000
0000
0000
0000
0000
0000
0000
0000
0000
0000
0000
0000
0000
0000
0000
0000
0000
0000
0000
0000
0000
0000
0000
0000
0000
0000
0000
0000
0000
0000
0000
0000
0000
0000
0000
0000
0000
0000
0000
0000
0000
0000
0000
0010
0000
0000
0000
0000
0000
0000
0000
0000
0000
0000
0000
0000
0000
0000
0000
0000
0000
0000
0000
0000
0000
0000
0000
3003
0000
0000
0000
0000
0000
0000
0000
0000
0000
0000
0000
1000
0000
0000
0000
0000
0000
0100
0000
0000
0000
0000
0000
1000
0000
0000
0000
0000
0000
0000
0000
0100
0000
0000
0000
0000
0000
0000
0000
0010
0000
0000
0000
0000
0000
0000
0000
0001
0000
0000
0000
0000
0000
0000
0000
0100
0000
0000
0000
0000
0000
0000
0000
0010
0000
0000
0000
0000
0000
0000
0000
1010
0000
0000
0000
0000
0000
0000
0000
0000
0000
0000
0000
0000
0000
0000
0000
0000
0000
0000
0000
0000
0000
0000
0000
0010
0000
0000
0000
0000
0000
0000
0000
0100
0000
0000
0000
0000
0000
0000
0000
0001
0000
0000
0000
0000
0000
0000
0000
,
1000
0000
0000
0000
0000
0000
0000
0000
0100
0000
0000
0000
0000
0000
0000
0000
1000
0000
0000
0000
0000
0000
0000
0000
0001
0000
0000
0000
0000
0000
0000
0000
0100
0000
0000
0000
0000
0000
0000
0000
0001
0000
0000
0000
0000
0000
0000
0000
1000
0000
0000
0000
0000
0000
0000
0000
0010
0000
0000
0000
0000
0000
0000
0000
1000
0000
0000
0000
0000
0000
0000
0000
0001
0000
0000
0000
0000
0000
0000
0000
0010
0000
0000
0000
0000
0000
0000
0000
0001
0000
0000
0000
0000
0000
0000
0000
1000
0000
0000
0000
0000
0000
0000
0000
0100
0000
0000
0000
0000
0000
0000
0000
0001
0000
0000
0000
0000
0000
0000
0000
0100
0000
0000
0000
0000
0000
0000
0000
1000
0000
0000
0000
0000
0000
0000
0000
0010
0000
0000
0000
0000
0000
0000
0000
1000
0000
0000
0000
0000
0000
0000
0000
0000
0000
0000
0000
0000
0000
0000
0000
0000
0000
0000
0000
0000
0000
0000
0000
0000
0000
0000
0000
0000
0000
0000
0000
0000
0000
0000
0000
1000
0000
0000
0000
0000
0000
0100
0000
0000
0000
0000
0000
,
1000
0000
0010
0000
0100
0000
0001
0000
1001
0000
0101
0000
0000
0000
1001
0000
1000
0000
0000
0100
0000
0000
0010
0000
0011
0000
0000
0000
0001
0000
0100
0000
,
0010
0000
1000
0000
0001
0000
0100
0000
0101
0000
0001
0000
1000
0000
0000
0000
0002
0000
0000
0000
0000
0000
0000
0000
1003
0000
0000
0000
1001
0000
1000
0001
,
1000
0000
0001
0100
0000
0000
0010
0000
1000
0000
0001
1000
0000
0000
1000
0100
,
1000
0000
0000
0000
0100
0000
0000
0000
0010
0000
0000
0000
0001
0000
0000
0000
0010
0000
0000
0000
0100
0000
0000
0000
2000
0000
0000
0000
0000
0000
0000
0000
0000
0000
0000
0000
3001
0000
0000
0000
0000
0000
1000
0000
0000
0100
0000
0000
,
1000
0100
0010
0001
0100
0010
0000
1000
0001
0100
0010
1000
0001
0100
0001
0100
,
0001
0100
0001
1000
0100
1000
0001
0010
0001
1000
0010
1000
,
0MM2
0000
0000
M2M3
0000
0000
23MM
0000
,
3M2M
0000
0000
MM32
0000
0000
2MM3
0000
,
3M01
0000
1000
0000
0001
0000
10M0
0000
0001
0000
1000
0000
0M01
0000
0000
0000
0000
0000
10M0
0100
1000
0100
0000
0000
,
M010
0000
0000
0000
0000
0000
0001
0000
0000
0000
0000
0000
M010
0000
0000
0000
0000
0000
0100
0000
0000
0000
0000
0000
10M0
0000
0000
0001
0000
0100
0000
0001
0000
0100
0000
0000
0010
0000
0000
1000
0000
0000
0010
0000
0000
1000
0000
0000
,
0002
0000
0000
0103
0020
0000
0000
0000
1030
0001
0100
0010
1000
0000
0100
0000
,
2000
0000
0000
3010
0200
0000
0000
0000
0301
0010
0001
0100
0010
0000
1000
0000
,
0002
0000
0000
0103
0020
0000
0000
0000
1030
0100
1000
0100
0010
0000
0001
0000
,
0200
0000
0000
0310
2000
0000
0000
0000
3001
0010
0001
0010
0100
0000
1000
0000
,
1002
0000
0000
0000
0103
0000
0010
1000
0002
0000
0000
0000
0103
0000
0010
1000
,
0010
0000
0100
0000
0001
0000
0100
0010
0100
0000
0001
0100
0001
0000
0100
0000
,
0010
0000
1000
0000
0001
0000
0000
0001
1MM0
0000
0000
1000
0M1M
0000
0000
0010
,
M20M
0000
0000
0000
0301
0000
0000
0010
0200
0000
0000
0000
1300
0000
0001
1000
,
0002
0000
0000
0000
0103
0000
0010
0100
0020
0000
0000
0000
0130
0000
0001
1000
,
0001
0000
0010
0000
0100
0000
1000
0000
0001
0000
1000
0100
1000
0000
0010
0000
,
0100
0001
2MM0
0000
3M2M
0000
M23M
0000
,
M3M2
0000
0000
0000
1003
0000
0100
0000
2000
0000
0000
0000
3010
0100
0010
0100
,
0002
0000
0000
0000
0103
0000
0010
0000
1020
0000
0000
0000
1030
0100
0010
0100
,
0010
0000
0001
0000
0100
0000
0010
0000
1000
0000
0001
1000
0001
0000
1000
0000
,
0010
0000
0100
0000
0001
0000
0000
0001
1MM0
0000
0000
1000
01MM
0000
0000
0100
,
M02M
0000
0000
0000
0031
0000
0000
0100
0020
0000
0000
0000
1030
0000
0001
0100
,
0002
0000
1003
0100
2100
0000
3100
0010
,
0001
0000
1000
0000
0010
0000
1000
0000
0100
0000
1000
0100
1000
0000
0100
0000
,
0010
0000
0000
0000
0000
0000
0001
0000
0000
0000
0000
0000
0100
0000
0000
0000
0M00
0000
0000
0000
0000
0100
0000
0000
M01M
0000
0000
0000
0000
0000
00M0
0000
0000
0000
0000
0000
2M0M
0000
0000
0000
0000
0000
0000
0000
0000
0000
0000
0000
,
3001
0000
0100
0000
0010
0000
0000
1000
0000
0000
0001
0000
1000
0001
1000
0000
,
2001
0000
0000
0000
3010
0000
0010
0100
0000
0000
1000
0000
0001
0000
0100
0000
,
0010
0000
0010
1000
0010
0000
0100
0001
0100
0000
0001
1000
0001
0000
1000
0000
,
1002
0000
0000
0000
1000
0000
0000
1003
0200
0000
0000
0000
0010
0000
0310
0000
,
0021
0000
0000
0000
0000
0000
0001
0000
0000
0000
0000
0000
0032
0000
0000
0000
0000
0000
0000
0000
0000
1003
0000
0000
0100
0000
0000
0010
0000
0000
0001
0000
0000
1000
0000
0000
0100
0000
0000
0010
0000
0000
0000
0000
0001
0000
0000
0000
,
1000
0000
0000
0001
0000
0000
1000
0000
1000
0000
0010
0000
0100
0000
0001
0000
,
1000
0000
0000
0000
0100
0000
0000
0000
0010
0000
0000
0000
0001
0000
0000
0010
0000
0000
0000
0000
0000
0100
0000
0000
1000
0000
0000
0100
0000
0000
0010
0000
0000
0001
0000
0000
1000
0000
0000
0000
0100
0000
0000
0000
0010
0000
0000
0000
,
0002
0000
0000
0000
0000
0000
0203
0000
0000
0000
0000
0320
0000
0000
0000
0000
,
1030
0000
0100
0000
0010
0000
0001
0100
0000
0001
0100
0000
0010
1000
0010
1000
,
0010
0000
1000
0002
0000
0000
1003
0000
0010
0000
0100
0020
0000
0000
1030
0100
,
1000
0000
0000
0000
0100
0000
0000
0000
0010
0000
0000
0000
0001
0000
0000
0000
0010
0000
0000
0000
0100
0000
0000
0000
1000
0000
0000
0000
0000
0000
0000
0000
0000
0001
0000
0000
1000
0000
0000
0000
0000
0000
0010
0000
0000
0100
0000
0000
,
0001
0100
0010
1000
0001
0100
0000
0001
0010
0001
0010
0100
1000
0010
0100
0001
,
1000
0100
1000
0001
0100
0001
1000
0010
1000
0001
0010
0001
,
2002
0000
3003
0202
0000
0303
0220
0330
,
2020
0000
3030
2002
0000
3003
0101
0000
,
2002
0000
0000
0000
0000
0000
0000
0000
0000
0000
0000
0000
3003
0000
1000
0001
,
1000
0100
0010
0001
1000
0100
0010
0001
1000
0000
0000
1001
0000
0000
1001
0000
,
1001
0000
0000
0000
;

//---------------dance-single - ----------------
#NOTES:
     dance-single:
     :
     Hard:
     8:
     0.549,0.611,0.160,0.452,0.198:
0000
0000
0000
0000
,
0000
0000
0000
0000
,
0000
0000
0000
0000
,
0000
0000
0000
0000
,
2000
0000
3020
0000
0130
0001
0100
0010
,
2000
0000
3200
0000
0310
0001
0010
0001
,
0200
0000
0320
0000
1030
0001
0100
0010
,
2000
0000
3200
0000
1300
0010
0100
0001
,
1001
0000
0000
0001
0101
0000
0000
0001
,
1000
0100
1000
0100
0010
0001
0100
0010
,
1000
0000
0010
0000
0100
0000
0000
0100
0001
0000
0000
0001
0100
0000
0000
0100
,
0020
1000
0001
1000
,
0130
0000
0000
0001
1001
0000
0000
0001
,
1000
0010
0100
0001
0010
0100
0100
1000
,
0010
0100
0001
0000
1000
0000
0010
0000
,
0200
0001
1000
0001
,
0310
0000
0000
1000
1001
0000
0000
0100
,
0010
1000
0010
0100
0001
0010
0100
0010
,
0001
0000
0100
0000
0010
0000
0000
0010
1000
0000
0000
1000
0001
0000
0000
0001
,
0200
0010
1000
0001
,
0310
0000
0000
1000
1001
0000
0000
0100
,
0010
1000
0010
0100
0001
1000
1000
0100
,
1000
0010
0100
0000
0001
0000
0010
0000
,
0002
1000
1000
1000
,
2003
0000
3020
0000
0130
0001
0100
0010
,
2000
0000
3200
0000
0310
0001
0010
0001
,
0200
0000
0320
0000
1030
0100
0010
0001
,
0020
0000
0230
0000
1300
0010
0100
0001
,
2000
0000
3200
0000
0310
0100
0010
0100
,
2000
0000
3020
0000
0130
0001
0100
0010
,
0200
0000
0302
0000
0013
0100
1000
0010
,
0200
0000
0302
0000
0013
0100
1000
0001
,
2002
0000
3003
0000
1000
0100
1000
0010
,
0100
0100
0001
0001
1000
1000
1001
0000
,
1000
0000
0100
0000
0010
0010
0000
0001
0001
0000
0100
0000
0010
0000
1000
0000
,
0001
0000
0100
0000
0001
1000
0001
0000
2002
0000
0000
0000
3003
0000
1000
0000
,
0001
0000
1000
0100
0000
0000
0010
0000
0001
0000
0100
0010
0000
0000
1000
0000
,
0001
0000
0100
0000
0001
0000
0100
0000
0001
0000
0100
0000
0001
0000
0000
0000
0000
0000
1000
0000
0000
0100
0000
0000
,
1000
0000
0100
0000
0010
0001
0000
1000
0100
0000
0010
0000
0001
0000
0100
0000
,
0010
1000
0010
1000
0010
1000
0001
1000
0001
1000
0001
1000
,
0002
0000
0000
0203
0000
0000
0320
0000
,
2030
0000
0000
3200
0000
0000
0320
0000
,
0031
0000
1000
0000
0001
0000
1000
0000
0001
0000
1000
0000
0001
0000
0000
0000
0000
0000
1000
0000
0000
0100
0000
0000
,
1000
0100
0010
0001
0200
0000
0310
1000
,
0002
0000
0023
0000
0130
1000
0010
0100
,
0002
0000
0203
0000
0310
1000
0010
0100
,
0002
0000
0023
0000
0130
0010
0001
0100
,
0020
0000
2030
0000
3010
0100
0001
1000
,
0001
0000
0000
1000
1100
0000
0000
0001
,
0100
0010
1000
0010
0100
0001
0001
0010
,
0001
0000
0100
0000
0010
0000
0000
0010
1000
0000
0000
1000
0001
0000
0000
0001
,
0020
0100
1000
0001
,
0130
0000
0000
1000
1100
0000
0000
1000
,
0010
0100
0001
0100
0010
1000
0010
0100
,
0001
0010
0100
0000
1000
0000
0010
0000
,
0200
0000
0001
0000
0302
0000
1000
1000
,
1003
0000
0000
0001
1001
0000
0000
1000
,
0100
1000
0010
0100
0001
0010
0001
0100
,
0010
0000
1000
0000
0100
0000
0000
0100
0010
0000
0000
0010
0001
0000
0000
0001
,
2000
0100
0010
0001
,
3001
0000
0000
0001
0101
0000
0000
0001
,
0100
0010
1000
0001
0010
0001
0100
0010
,
1000
0000
0100
0000
1000
0000
0000
1000
0002
0000
0000
0000
0010
0000
0000
0000
,
2003
0100
0010
0001
,
3001
0000
0000
0000
1000
0000
0000
1000
0000
0000
0010
0000
0100
0000
0001
0000
,
0001
0000
1000
0001
0001
1000
1000
0001
,
0200
0010
0320
1000
,
2030
3002
0023
0230
,
1300
0000
0000
0100
0000
0000
1000
0000
0010
0000
0100
0000
0001
0000
0010
0000
,
0001
0100
0010
1000
0010
0100
0001
0010
,
0210
0000
0000
0000
0000
0000
2300
0000
0000
0000
0000
3020
0000
0000
0000
0000
,
0230
0000
0000
0000
0001
0000
0000
0001
0000
0000
0000
0000
0301
0000
1000
0000
,
1001
0000
0001
0100
0000
0000
0010
0000
1000
0000
0001
0100
0000
0000
0010
0000
,
1000
0000
0001
0000
1000
0000
0001
0000
1000
0000
0001
0000
1000
0000
0000
0000
0000
0000
0010
0000
0000
0100
0000
0000
,
0001
0000
0100
0000
0010
1000
0000
0001
0100
0000
0010
0000
1000
0000
0010
0000
,
0100
0001
0100
0001
0100
0001
1000
0100
1000
0100
1000
0100
,
1000
0000
0000
1001
0000
0000
0101
0000
,
0110
0000
0000
1010
0000
0000
0110
0000
,
2002
0000
0000
0000
3003
0000
1000
0100
,
1000
0000
0010
0000
0100
0000
0001
0000
1000
0000
0000
1001
0000
0000
1001
0000
,
1001
0000
0000
0000
;

//---------------dance-single - ----------------
#NOTES:
     dance-single:
     :
     Medium:
     5:
     0.360,0.417,0.090,0.361,0.017:
0000
0000
0000
0000
,
0000
0000
0000
0000
,
0000
0000
0000
0000
,
0000
0000
0000
0000
,
1000
1000
0020
0000
,
0130
0001
0200
0000
,
0310
1000
0002
0000
,
0013
0100
2000
0000
,
3010
0000
0000
0100
0100
0000
0000
0001
,
0001
0100
0010
1000
,
0001
0100
0010
0000
1000
0000
0010
0000
,
0200
0001
0302
1000
,
1003
0000
0000
0010
0010
0000
0000
0100
,
0100
0001
0010
0100
,
1000
0100
1000
0000
0010
0000
0100
0000
,
0002
1000
2003
0010
,
3010
0000
0000
0100
0100
0000
0000
0001
,
0001
1000
0100
1000
,
0010
0100
0001
0000
1000
0000
0010
0000
,
0200
0010
0320
1000
,
1030
0000
0000
0001
0001
0000
0000
0010
,
0010
0100
1000
0010
,
0100
0001
1000
0000
0010
0000
0100
0000
,
2002
0000
0000
0000
3003
0000
1000
0001
,
1000
0010
0200
0000
,
0301
0010
0002
0000
,
0013
0100
2000
0000
,
3010
0100
0020
0000
,
1030
0100
2000
0000
,
3100
0010
0002
0000
,
0103
0010
0200
0000
,
0301
0100
0020
0030
,
2002
0000
3003
0000
1000
0100
0010
0000
,
0001
0000
1000
0000
0010
0100
0001
0000
,
1000
0100
1000
0000
0010
0100
0001
0000
,
1000
0100
0010
0001
1001
0000
0100
0000
,
1000
0000
0000
1000
0000
0000
0001
0000
0001
0000
0000
0001
0000
0000
0100
0000
,
0100
0000
0010
0000
1000
0000
0000
0001
,
1000
0010
1000
0001
,
0010
0100
1000
0010
,
0200
0000
0000
0302
0000
0000
0023
0000
,
0230
0000
0000
2300
0000
0000
3010
0000
,
2002
0000
0000
3003
,
1000
0100
0010
0001
1000
0000
0001
1000
,
0001
0100
0020
0000
,
1030
0010
0200
0000
,
0301
0010
0002
0000
,
0013
0100
2000
0000
,
3001
0000
0000
0100
0010
0000
0000
1000
,
0010
0100
0001
0010
,
0100
1000
0010
0000
0100
0000
0001
0000
,
0020
0100
0230
1000
,
1300
0000
0000
0010
0100
0000
0000
0001
,
1000
0010
0100
0010
,
1000
0100
0010
0000
0001
0000
0010
0000
,
0200
1000
2300
0010
,
3010
0000
0000
0100
0001
0000
0000
1000
,
0001
0100
0010
1000
,
0010
0100
0001
0000
0010
0000
0100
0000
,
2000
0100
3200
0010
,
0310
0000
0000
0001
0010
0000
0000
0010
,
0100
1000
0010
0100
,
0001
0100
0001
0000
1000
0000
0001
0000
,
2000
0001
0001
0001
,
3001
0100
0010
1000
,
0001
0010
0100
1000
,
0020
0000
0230
0000
,
0301
0010
0200
1000
,
2300
0010
0010
0010
,
3020
0100
0230
0001
,
0302
0000
0000
1000
0000
0000
1003
0000
,
2002
0000
0000
0000
3003
0000
1000
0001
,
1000
0000
0000
1000
0000
0000
0010
0000
0010
0000
0000
0010
0000
0000
0100
0000
,
0001
0010
0200
0000
,
1300
0010
0100
0001
,
0010
0100
1000
0100
,
1100
0000
0000
0110
0000
0000
0011
0000
,
0011
0000
0000
1001
0000
0000
1100
0000
,
2002
0000
0000
0000
3003
0000
1000
0001
,
1000
0000
0100
0000
0010
0000
0001
0000
1000
0000
0000
1000
0000
0000
1000
0000
,
1001
0000
0000
0000
;

//---------------dance-single - ----------------
#NOTES:
     dance-single:
     :
     Easy:
     3:
     0.227,0.278,0.049,0.097,0.000:
0000
0000
0000
0000
,
0000
0000
0000
0000
,
0000
0000
0000
0000
,
0000
0000
0000
0000
,
1000
0100
1000
0000
,
0001
0100
0001
0000
,
1000
0010
1000
0000
,
0001
0010
0001
0000
,
1000
0000
0001
0000
,
1000
0100
1000
0000
,
0010
0100
0001
0001
,
1000
0000
0010
0000
,
0100
0000
0001
0000
,
0010
0100
1000
0000
,
0010
0100
0010
0010
,
1000
0000
0001
0000
,
1000
0000
0010
0000
,
0100
0001
1000
0000
,
0001
0010
0001
0001
,
0100
0000
0010
0000
,
1000
0000
0001
0000
,
1000
0100
1000
0000
,
0010
0100
0001
0001
,
2000
0000
3000
0000
,
0001
0100
0010
0000
,
1000
0010
0100
0000
,
0001
0010
0001
0000
,
1000
0100
1000
0000
,
0001
0010
0100
0000
,
1000
0100
0010
0000
,
0001
0100
0010
0000
,
1000
0001
1000
0000
,
1001
0000
1000
1000
,
0100
0100
0010
0010
,
0001
0001
0100
0100
,
0010
0010
1001
0100
,
0001
0000
0100
0000
,
0010
1000
0100
0000
,
0010
0000
0001
0100
,
0010
0010
1000
1000
,
0001
0000
0001
0000
,
0100
0000
0100
0000
,
2002
0000
3003
0000
,
1000
0100
0010
0001
,
1000
0000
0010
0100
,
0001
0000
0100
0010
,
0100
0000
1000
0010
,
0100
0000
0001
0100
,
0010
0000
1000
0000
,
0001
0010
0001
0100
,
0010
1000
0001
0001
,
0100
0000
0010
0000
,
1000
0000
1000
0000
,
0010
0100
0001
0010
,
0001
0100
0010
0010
,
1000
0000
0001
0000
,
0010
0000
0100
0000
,
1000
0010
0100
0001
,
0100
0100
0010
0010
,
1000
0000
0100
0000
,
1000
0000
0010
0000
,
0100
0001
1000
0001
,
0010
0010
0100
0100
,
2000
0000
0000
0000
,
3002
0000
0000
0000
,
0203
0000
0000
0000
,
0320
0000
0230
0000
,
0301
0001
2000
3000
,
0020
0000
0000
0000
,
0230
0000
0302
0000
,
1003
0000
0001
0000
,
1001
0000
0000
1000
,
1100
0100
0010
0010
,
0001
0000
0001
0000
,
1000
0000
0010
0100
,
0001
0000
1000
0000
,
0001
0000
0010
0000
,
0100
0000
1000
0000
,
2002
0000
3003
0000
,
1000
0010
1000
0000
,
1001
0000
0000
0000
;

//---------------dance-single - ----------------
#NOTES:
     dance-single:
     :
     Beginner:
     1:
     0.111,0.167,0.042,0.000,0.000: // measure 1
0000
0000
0000
0000
,  // measure 2
0000
0000
0000
0000
,  // measure 3
0000
0000
0000
0000
,  // measure 4
0000
0000
0000
0000
,  // measure 5
1000
0000
0000
0000
,  // measure 6
0100
0000
0000
0000
,  // measure 7
1000
0000
0000
0000
,  // measure 8
0010
0000
0000
0000
,  // measure 9
0001
0000
0000
0000
,  // measure 10
1000
0000
0000
0000
,  // measure 11
0100
0000
0000
0000
,  // measure 12
1000
0000
1000
0000
,  // measure 13
0001
0000
0000
0000
,  // measure 14
0100
0000
0000
0000
,  // measure 15
0010
0000
0000
0000
,  // measure 16
1000
0000
0001
0000
,  // measure 17
1000
0000
0000
0000
,  // measure 18
0010
0000
0000
0000
,  // measure 19
0100
0000
0000
0000
,  // measure 20
0001
0000
0001
0000
,  // measure 21
1000
0000
0000
0000
,  // measure 22
0010
0000
0000
0000
,  // measure 23
0100
0000
0000
0000
,  // measure 24
1001
0000
0000
0000
,  // measure 25
0001
0000
0000
0000
,  // measure 26
0100
0000
0000
0000
,  // measure 27
0010
0000
0000
0000
,  // measure 28
1000
0000
0000
0000
,  // measure 29
0001
0000
0000
0000
,  // measure 30
0010
0000
0000
0000
,  // measure 31
0001
0000
0000
0000
,  // measure 32
0100
0000
0000
0000
,  // measure 33
0001
0001
0000
1000
,  // measure 34
0000
0010
0000
0100
,  // measure 35
0000
0001
0000
1000
,  // measure 36
0000
0001
0000
1000
,  // measure 37
1000
0000
1000
0000
,  // measure 38
0001
0000
0000
0000
,  // measure 39
0010
0000
0010
0000
,  // measure 40
0100
0000
0000
0000
,  // measure 41
1000
0000
0000
0000
,  // measure 42
0001
0000
0000
0000
,  // measure 43
1001
0000
0000
0000
,  // measure 44
1000
0000
1000
0000
,  // measure 45
0001
0000
0000
0000
,  // measure 46
0100
0000
0000
0000
,  // measure 47
0010
0000
0000
0000
,  // measure 48
1000
0000
0000
0000
,  // measure 49
0001
0000
0001
0000
,  // measure 50
1000
0000
0000
0000
,  // measure 51
0010
0000
0010
0000
,  // measure 52
0100
0000
0100
0000
,  // measure 53
0100
0000
1000
0000
,  // measure 54
0001
0000
0000
0000
,  // measure 55
0100
0000
0100
0000
,  // measure 56
0010
0000
0000
0000
,  // measure 57
1000
0000
1000
0000
,  // measure 58
0001
0000
0000
0000
,  // measure 59
0001
0000
0001
0000
,  // measure 60
0100
0000
0000
0000
,  // measure 61
0010
0000
0010
0000
,  // measure 62
0100
0000
0000
0000
,  // measure 63
0100
0000
0100
0000
,  // measure 64
0001
0000
0000
0000
,  // measure 65
1001
0000
0000
0000
,  // measure 66
0000
0000
0000
0000
,  // measure 67
1000
0000
1000
0000
,  // measure 68
1000
1000
1000
0000
,  // measure 69
0001
0000
0000
0000
,  // measure 70
0001
0000
0001
0000
,  // measure 71
0100
0000
0100
0000
,  // measure 72
1001
0000
0000
0000
,  // measure 73
1000
0000
1000
0000
,  // measure 74
0001
0000
0000
0000
,  // measure 75
0100
0000
0100
0000
,  // measure 76
0010
0010
0010
0000
,  // measure 77
1000
0000
0000
0000
,  // measure 78
0001
0000
0000
0000
,  // measure 79
1001
0000
0000
0000
,  // measure 80
1000
0000
0001
0000
,  // measure 81
1001
0000
0000
0000
;
