#TITLE:Heartful Necromancer;
#SUBTITLE:;
#ARTIST:IOSYS;
#TITLETRANSLIT:;
#SUBTITLETRANSLIT:;
#ARTISTTRANSLIT:;
#CREDIT:;
#BANNER:Heartful Necromancer.png;
#BACKGROUND:Heartful Necromancer-bg.png;
#LYRICSPATH:;
#CDTITLE:;
#MUSIC:Heartful Necromancer.ogg;
#OFFSET:1.860;
#SAMPLESTART:59.800;
#SAMPLELENGTH:11.980;
#SELECTABLE:YES;
#BPMS:0.000=127.000;
#STOPS:;
#BGCHANGES:3.500=Heartful Necromancer.avi=1.000=1=0=1,
99999=-nosongbg-=1.000=0=0=0 // don't automatically add -songbackground-
;

//---------------dance-single - ----------------
#NOTES:
     dance-single:
     :
     Challenge:
     9:
     0.589,0.641,0.522,0.256,0.442: // measure 1
0000
0000
0000
0000
,  // measure 2
0000
0000
0000
0000
,  // measure 3
0000
0000
0000
0000
,  // measure 4
0000
0000
0000
0000
,  // measure 5
0000
0000
0000
0000
,  // measure 6
1000
0100
0010
0000
0001
0000
0100
0010
0000
0000
1000
0000
1001
0000
0000
0001
,  // measure 7
0100
0010
1000
0000
0001
0000
0010
0000
0100
0000
0000
0000
1001
0000
0000
0001
,  // measure 8
0010
0001
0010
0000
0100
0000
1000
0001
0000
0000
1000
0000
1001
0000
0000
0001
,  // measure 9
0010
0100
1000
0000
0001
0000
0100
0010
0000
0000
1001
0000
1001
0000
0000
0001
,  // measure 10
0100
0010
1000
0000
0001
0000
0010
0100
0000
0000
1000
0000
1010
0000
0000
0100
,  // measure 11
0010
1000
0010
0000
0100
0000
0001
0000
1000
0000
0000
0000
1001
0000
0000
0100
,  // measure 12
0010
0100
0001
0000
0010
0000
0100
1000
0000
0000
0001
0000
0101
0000
0000
0100
,  // measure 13
0010
1000
0001
0000
0010
0000
0001
0000
0001
0000
0100
0000
0100
0000
0010
2000
,  // measure 14
0001
0000
0001
0000
0001
0000
0001
0000
0001
0000
3001
0000
0100
0010
0000
1000
,  // measure 15
0000
0000
0001
0000
0100
0000
0010
0000
0010
0000
1000
0000
1000
0000
0001
0010
,  // measure 16
0000
0020
0000
0000
0000
0000
0030
0000
0000
0100
0000
0000
1000
0001
0000
0100
,  // measure 17
0000
0010
1000
0000
0001
0010
0000
0100
0000
1000
0000
0000
0001
0000
0001
0200
,  // measure 18
0010
0000
0010
0000
0010
0000
0010
0000
0310
0000
1000
0000
0001
0100
0000
0001
,  // measure 19
0010
0100
1000
0010
0000
0000
0100
0000
0010
0000
0100
0000
0001
0000
0010
0100
,  // measure 20
0000
2000
0000
0000
0000
0000
3000
0000
0000
0000
0001
0000
0100
0010
0000
2000
,  // measure 21
0000
0000
0000
0000
3001
0000
0100
0010
0000
0010
1000
0000
0001
0010
0000
0100
,  // measure 22
2000
0000
0001
0000
0001
0000
0001
0000
0001
0000
3001
0000
0100
0010
0000
2000
,  // measure 23
0000
0000
0000
0000
3001
0000
0000
0100
0000
0000
0010
0000
1000
0100
0000
0010
,  // measure 24
0000
0001
0000
0200
0000
0000
0000
0000
0000
0000
0301
0000
0010
0100
0000
1000
,  // measure 25
0100
1000
0010
0100
0000
0000
1001
0000
0000
0000
0001
0000
0010
0100
0000
2000
,  // measure 26
0001
0000
0001
0000
0001
0000
3001
0000
0100
0000
0001
0000
0100
0010
0000
0200
,  // measure 27
0000
0000
0300
0000
0002
0000
0000
0000
0023
0000
0000
0000
0230
0000
0000
2300
,  // measure 28
0000
0001
0001
0000
0001
0001
3000
0001
,  // measure 29
0100
0010
0100
0001
0000
1000
0000
0020
1000
0000
1000
0000
1000
0000
1030
0000
,  // measure 30
1001
0100
0010
0100
0001
0010
0100
1000
,  // measure 31
0010
0100
0001
0100
0010
0100
0001
0010
,  // measure 32
0100
1000
0100
0010
0001
0010
0100
1000
,  // measure 33
0010
0000
0100
0000
0001
0000
0100
0000
0010
0000
1000
0000
0001
0010
0000
0000
,  // measure 34
0110
0000
0000
2100
0000
0000
0100
0000
0100
0000
0100
0000
3100
0000
0010
0000
,  // measure 35
0011
0000
0000
1001
0000
0000
1100
0000
0110
0000
0000
0011
0000
0000
1100
0000
,  // measure 36
1002
0000
0000
1000
0000
0000
1000
0000
1000
0000
0000
1000
0000
0000
1000
0000
,  // measure 37
2003
0000
0000
0000
0001
0000
0000
0000
3001
0000
0100
0000
0010
0100
0000
0000
,  // measure 38
0101
0000
0000
2001
0000
0000
0001
0000
0001
0000
0001
0000
3001
0000
0000
0000
,  // measure 39
1100
0000
0000
0110
0000
0000
0011
0000
1001
0000
0000
1100
0000
0000
0001
0000
,  // measure 40
0100
0110
0110
0010
1010
1010
1000
0001
,  // measure 41
1100
0000
0000
0210
0000
0000
0010
0000
0010
0000
0010
0000
0310
0000
0001
0000
,  // measure 42
1001
0000
0000
1100
0000
0000
0011
0000
0101
0000
0000
1010
0000
0000
0110
0000
,  // measure 43
2001
0000
0000
0001
0000
0000
0001
0000
0001
0000
0000
0001
0000
0000
0001
0000
,  // measure 44
3002
0000
1000
0000
1000
0000
1000
0000
1003
0000
0010
0000
0100
0001
0000
0000
,  // measure 45
0101
0000
0000
1020
0000
0000
1000
0000
1000
0000
1000
0000
1030
0000
0001
0000
,  // measure 46
0101
0000
0000
0110
0000
0000
1010
0000
0101
0000
0000
1001
0000
0000
1000
0000
,  // measure 47
0001
0101
0101
0010
1100
1100
0001
1000
,  // measure 48
2000
0000
3010
0020
0000
0130
0001
0010
,  // measure 49
0110
0000
1100
0000
1001
0000
0001
0000
0100
0000
0010
0000
1000
0001
0000
1001
,  // measure 50
0000
0000
0001
0000
0100
0000
0010
1000
0000
0001
1000
0000
0010
0000
0100
0000
,  // measure 51
0001
0000
0010
0000
0100
0000
1000
0100
0010
0001
0010
0001
0010
0100
0000
2002
,  // measure 52
0000
0000
0000
0000
,  // measure 53
0000
0000
0000
0000
,  // measure 54
0000
0000
0000
0000
,  // measure 55
3003
0000
0000
0000
;

//---------------dance-single - ----------------
#NOTES:
     dance-single:
     :
     Hard:
     7:
     0.384,0.410,0.180,0.199,0.100:
0000
0000
0000
0000
,
0000
0000
0000
0000
,
0000
0000
0000
0000
,
0000
0000
0000
0000
,
0000
0000
0000
0000
,
1000
0100
0010
0001
1000
0000
0001
0000
,
0100
0010
1000
0010
0100
0000
0001
0000
,
0010
0100
1000
0010
0100
0000
0001
0000
,
1000
0100
1000
0010
0100
0001
0001
0000
,
1100
1000
0100
0010
0001
0000
0100
0000
,
0010
1000
0010
0100
0001
0000
0010
0000
,
0100
0010
0001
0100
0010
0000
1000
0000
,
0001
0000
0100
0000
1000
0000
0100
0000
0100
0000
0001
0000
0001
0000
1000
0200
,
0000
0000
0000
0000
0000
0310
0001
0100
,
0010
0000
1000
0001
0001
0100
0100
0010
,
1000
0002
0000
0000
0000
1003
0100
1000
,
0010
0000
0100
0000
0000
0000
0001
0000
0010
0000
0001
0000
0010
0000
0100
2000
,
0000
0000
0000
0000
0000
3001
0100
0010
,
0100
0001
0000
1000
0100
0010
0001
0010
,
0100
0200
0000
0000
0000
1300
0010
0100
,
0001
0000
0010
0100
1000
0000
0001
0000
,
2000
0000
0100
0000
0010
0000
3001
0010
,
0100
0000
1000
0000
0010
0000
0100
0001
,
1000
0001
0100
0000
0010
1000
0001
0000
,
0100
0010
0000
1001
0000
1000
0100
0010
,
0002
0000
0100
0000
0013
0100
0100
1000
,
0010
0100
0001
1000
,
0002
1000
0000
0000
1000
0000
0000
1000
,
1003
0100
0010
0001
1000
0000
0001
0000
,
1000
0010
0100
0001
,
0010
0100
1000
0100
,
0001
0100
1000
0010
,
0100
0000
0001
0000
1000
0001
0100
0000
,
1001
0000
0000
0202
0000
0000
0000
0000
0000
0000
0000
0000
0303
0000
0000
0000
,
1000
0000
0000
0100
0000
0000
0010
0000
0001
0000
0000
0100
0000
0000
0010
0000
,
2000
0000
0000
0001
0000
0000
0001
0000
0001
0000
0000
0001
0000
0000
0001
0000
,
3002
0000
0000
0000
0000
1003
0100
0010
,
0011
0000
0000
2002
0000
0000
0000
0000
0000
0000
0000
0000
3003
0000
0000
0000
,
0001
0000
0000
0100
0000
0000
0010
0000
0100
0000
0000
0001
0000
0000
0000
0000
,
0000
1100
1100
0000
1001
1001
0000
0000
,
0011
0000
0000
0220
0000
0000
0000
0000
0000
0000
0000
0000
0330
0000
0000
0000
,
1000
0000
0000
0100
0000
0000
0010
0000
0001
0000
0000
1000
0000
0000
0001
0000
,
2000
0000
0000
0100
0000
0000
0100
0000
0100
0000
0000
0100
0000
0000
0100
0000
,
3200
0000
0000
0000
0300
0001
0100
0001
,
0101
0000
0000
0220
0000
0000
0000
0000
0000
0000
0000
0000
0330
0000
0000
0000
,
0010
0000
0000
0100
0000
0000
0001
0000
0010
0000
0000
0100
0000
0000
0000
0000
,
0000
1100
1100
0000
0011
0011
0000
1000
,
0001
0000
0100
0010
0000
1000
0100
0010
,
0100
0000
0100
0000
0100
0000
1000
0000
0010
0000
0100
0000
0001
0000
1000
0001
,
0000
0000
1000
0100
0010
0001
0100
0010
,
1000
0000
0100
0000
1000
0000
0010
0000
0100
0000
0001
0000
0100
0001
0000
2002
,
0000
0000
0000
0000
,
0000
0000
0000
0000
,
0000
0000
0000
0000
,
3003
0000
0000
0000
;

//---------------dance-single - ----------------
#NOTES:
     dance-single:
     :
     Medium:
     4:
     0.316,0.333,0.085,0.142,0.000:
0000
0000
0000
0000
,
0000
0000
0000
0000
,
0000
0000
0000
0000
,
0000
0000
0000
0000
,
0000
0000
0000
0000
,
1000
0100
1000
0000
0001
0000
1000
0000
,
0001
0100
0010
0000
1000
0000
0001
0000
,
1000
0100
0010
0000
0001
0000
0100
0000
,
0010
0100
0001
0000
1000
0001
0001
0000
,
1000
0100
0010
0000
0001
0000
0100
0000
,
0010
1000
0010
0000
0100
0000
0001
0000
,
0010
0100
1000
0000
0010
0000
0100
0000
,
0001
0010
0001
0000
0100
0010
1000
0000
,
0002
1000
1003
0010
,
0100
0000
0001
0000
0010
0100
1000
0000
,
0020
0100
0130
0001
,
2000
0000
0100
0000
3100
0010
0001
0000
,
2000
0010
3010
0100
,
0001
0000
0010
0000
0100
1000
0100
0000
,
0020
0100
0130
1000
,
0001
0001
1000
0001
,
1001
0000
0001
0000
0100
0000
0010
1000
,
0001
1000
0010
0100
,
0001
0010
0100
0000
1000
0000
0001
0000
,
0100
0000
0010
0000
1000
0000
0100
0001
,
1000
0000
0001
0000
0010
0000
0100
1000
,
0001
0100
0010
1000
,
0101
0001
0000
0000
0100
0000
0000
0010
,
0000
0000
1000
0001
0000
0000
1000
0000
,
1001
0001
0100
0001
,
0100
0010
0100
0010
,
1000
0010
1000
0010
,
1000
0000
0001
0000
1000
0100
0010
0000
,
0012
0010
0010
0013
,
0100
1000
0010
0100
,
0002
1000
1000
1000
,
2003
0000
0001
0000
3001
0100
0010
0000
,
2100
0100
0100
0100
,
3100
0010
0001
0100
,
0000
0001
0001
0000
1000
1000
0000
0000
,
0102
0100
0100
0100
,
0103
0010
1000
0001
,
0020
0100
0100
0100
,
0230
0000
0010
0000
0310
0001
1000
0000
,
1020
1000
1000
1000
,
1030
0001
0010
0100
,
0000
0100
0100
0000
0010
0010
0000
0001
,
0001
0000
0100
0010
0000
1000
0010
0000
,
0100
0100
0100
0000
0001
1000
0001
1000
,
1001
1000
0100
0010
,
0001
1000
0100
0010
,
2002
0000
0000
0000
,
0000
0000
0000
0000
,
0000
0000
0000
0000
,
3003
0000
0000
0000
;

//---------------dance-single - ----------------
#NOTES:
     dance-single:
     :
     Easy:
     2:
     0.180,0.231,0.047,0.085,0.000:
0000
0000
0000
0000
,
0000
0000
0000
0000
,
0000
0000
0000
0000
,
0000
0000
0000
0000
,
0000
0000
0000
0000
,
1000
0100
1000
0000
,
0001
0100
0001
0000
,
1000
0010
1000
0000
,
0001
0010
0001
0000
,
1000
0100
0010
0000
,
0001
0100
0010
0000
,
1000
0010
0100
0000
,
0001
0010
0100
0100
,
2000
0000
3000
0001
,
0001
0000
0100
0010
,
0200
0000
0300
0001
,
0020
0030
0100
1000
,
0002
0000
0003
0100
,
0100
0000
0010
0100
,
0002
0000
0003
1000
,
0100
0100
0010
0000
,
0011
0000
0001
0000
,
0100
0000
0010
0100
,
0001
0001
0000
0000
,
1000
0000
0010
0100
,
0002
0000
0003
1000
,
0100
0100
0010
0010
,
0002
0000
0000
0000
,
1003
0100
0010
0001
,
1001
0100
1000
0000
,
0010
0010
0100
0000
,
0001
0001
0010
0000
,
0100
0100
1000
0000
,
1001
0000
0100
0000
,
0010
0000
0100
0000
,
0001
0000
0010
0000
,
0100
0000
1000
0100
,
1000
0000
0010
0000
,
0100
0000
0001
0000
,
0000
0000
1000
0000
0000
0001
0000
0000
,
1000
0000
0100
0000
,
0010
0000
0001
0000
,
0100
0000
0010
0000
,
0100
0000
0001
0010
,
0001
0000
0100
0000
,
0010
0000
1000
0000
,
0000
0000
0001
0000
0000
0100
0000
0000
,
0001
0000
0010
0000
,
0100
0100
1000
0001
,
1001
0000
1000
0000
,
0010
0000
0100
0000
,
2002
0000
0000
0000
,
0000
0000
0000
0000
,
0000
0000
0000
0000
,
3003
0000
0000
0000
;

//---------------dance-single - ----------------
#NOTES:
     dance-single:
     :
     Beginner:
     1:
     0.083,0.145,0.057,0.000,0.000:
0000
0000
0000
0000
,
0000
0000
0000
0000
,
0000
0000
0000
0000
,
0000
0000
0000
0000
,
0000
0000
0000
0000
,
1000
0000
0000
0000
,
1000
0000
0000
0000
,
0001
0000
0000
0000
,
0001
0000
0000
0000
,
0100
0000
0000
0000
,
0100
0000
0000
0000
,
0010
0000
0000
0000
,
0010
0000
0000
0000
,
1001
0000
0000
0000
,
1000
0000
1000
0000
,
0001
0000
0000
0000
,
0001
0000
0001
0000
,
0100
0000
0000
0000
,
0100
0000
0100
0000
,
0010
0000
0000
0000
,
0010
0000
0010
0000
,
1001
0000
0000
0000
,
1000
0000
0000
0000
,
0001
0000
0000
0000
,
1000
0000
0001
0000
,
1000
0000
0000
0000
,
0001
0000
0001
0000
,
0100
0000
0000
0000
,
0000
0000
0000
0000
,
1001
0000
0000
0000
,
0001
0000
0000
0000
,
0100
0000
0000
0000
,
0010
0000
0000
0000
,
1000
0000
0000
0000
,
1000
0000
1000
0000
,
1000
0000
0000
0000
,
0000
0000
0000
0000
,
0001
0000
0000
0000
,
0001
0000
0001
0000
,
0001
0000
0000
0000
,
0010
0000
0000
0000
,
0010
0000
0010
0000
,
0010
0000
0000
0000
,
0000
0000
0000
0000
,
0100
0000
0000
0000
,
0100
0000
0100
0000
,
0100
0000
0000
0000
,
1000
0000
0000
0000
,
0001
0001
0000
0000
,
1001
0000
0000
0000
,
0110
0000
0000
0000
,
1001
0000
0000
0000
;
