#TITLE:Hartmann's Youkai Girl;
#SUBTITLE:;
#ARTIST:=NeutraL=;
#TITLETRANSLIT:;
#SUBTITLETRANSLIT:;
#ARTISTTRANSLIT:;
#CREDIT:;
#BANNER:bom-bn.PNG;
#BACKGROUND:bom-bg.PNG;
#LYRICSPATH:;
#CDTITLE:!rebirth.png;
#MUSIC:Hartmann's Youkai Girl.ogg;
#OFFSET:-0.660;
#SAMPLESTART:21.293;
#SAMPLELENGTH:11.700;
#SELECTABLE:YES;
#BPMS:0.000=163.000,204.000=81.500,236.000=163.000;
#STOPS:;
#BGCHANGES:;

//---------------dance-single - ----------------
#NOTES:
     dance-single:
     :
     Challenge:
     9:
     0.762,1.000,0.880,0.031,0.336:
0000
0000
0000
0000
,
0000
0000
0000
0000
,
0000
0000
0000
0000
,
0000
0000
0000
0000
,
0000
0000
0000
0000
,
0000
0000
0000
0000
,
0000
0000
0000
0000
,
1001
0001
0100
0010
1000
0001
0010
0100
,
1000
0100
0010
0001
0100
0010
1000
0100
,
0001
0100
1000
0010
0100
0001
1000
0100
,
1000
0010
0100
0001
1001
1000
0010
0100
,
0001
0100
1000
0100
0001
0010
0100
1000
,
0100
0010
0011
0001
0010
0100
1000
0100
,
0001
0000
0100
0000
1000
0000
0010
0000
0100
0000
0001
0000
1000
0100
0010
0001
,
1000
0010
0110
0MM0
0001
0010
0011
00MM
,
0100
0010
1010
M0M0
0001
0010
0011
00MM
,
0100
0010
1010
M0M0
0001
0100
0101
0M0M
,
1000
0100
0101
0M0M
0100
1000
1010
M0M0
,
1001
0000
0001
0000
0100
0000
0010
1000
0010
0000
0100
0000
0001
0000
1000
0100
,
1000
0000
0010
0000
0100
0000
0001
0100
0001
0000
1000
0000
0010
0000
0100
0001
,
1000
0000
0010
0000
0100
0000
0001
1000
0010
0000
0100
0000
0001
0000
0010
0100
,
1000
0000
0010
0000
0100
0000
0001
0010
0001
0000
0010
0000
0100
0000
1000
0001
,
1001
0000
0001
0000
0100
0000
0110
0000
0000
1010
0000
0000
1001
0000
0001
0000
,
0100
0010
1010
1000
0001
0010
0110
0100
,
1000
0000
1001
0000
0000
0101
0000
0000
0110
0000
0010
0000
1000
0000
0001
0000
,
0101
0100
0010
1000
1010
1000
0001
0101
,
0000
1001
0000
0000
1100
0000
0100
0000
0010
0000
0001
0000
1001
0000
1000
0000
,
0010
0000
0100
0000
0110
0000
0100
0000
0001
0000
1001
0000
0000
1100
0000
0000
,
0110
0010
0001
1000
2002
0000
0000
3003
,
1001
0001
0100
0010
1000
0100
0001
0100
,
1000
0010
0100
0001
0010
1000
0010
0001
,
0100
0010
1000
0100
1000
0100
0010
0001
,
0010
0001
1000
0100
0110
0010
0001
0100
,
1000
0100
0001
0010
0100
1000
0010
0100
,
0001
0010
0110
0100
1000
0100
0010
0001
,
0100
0000
1000
0000
0100
0000
0001
0000
0010
0000
0100
0000
1000
0100
0010
0001
,
1001
0000
1000
0000
0010
0000
0110
0000
0000
0101
0000
0000
1001
0000
1100
0000
,
0100
0010
0011
0001
0100
0010
1010
1000
,
0001
0000
0101
0000
0000
1001
0000
0000
1100
0000
0110
0000
0010
0000
0001
0000
,
1001
1000
0010
0100
0101
0001
1000
1001
,
0000
1100
0000
0000
0110
0000
0011
0000
0001
0000
0100
0000
0010
0000
1000
0000
,
0100
0000
0010
0000
0011
0000
0001
0000
0100
0000
0110
0000
0000
0101
0000
0000
,
1001
0000
0100
0000
0010
0000
0001
0000
1000
0000
0001
0000
1000
0100
1000
0100
,
0010
0001
1001
M00M
1000
0010
0110
0MM0
,
0001
0100
1010
M0M0
0100
0001
1100
MM00
,
0010
0100
1001
M00M
0010
0100
1100
MM00
,
0100
0010
0011
00MM
0001
0100
1010
M0M0
,
1001
0000
0001
0000
0100
0000
0010
1000
0001
0000
0010
0000
0100
0000
1000
0100
,
0010
0000
0001
0000
0100
0000
0010
1000
0010
0000
0100
0000
0001
0000
0010
0100
,
1000
0000
0100
0000
0010
0000
0001
0100
0010
0000
1000
0000
0100
0000
0001
0100
,
1000
0000
0010
0000
0100
0000
0001
0010
0100
0000
1000
0000
0001
0000
0000
0000
,
1001
0000
1000
0000
0010
0000
0100
0000
0001
0000
0010
0000
0100
0000
1000
0100
0010
0000
0000
0000
0011
0000
0000
0000
0110
0000
0000
0000
1100
0000
0000
0000
,
1001
0000
0001
0000
0100
0000
0010
0000
1000
0000
0001
0000
0010
0000
0100
0000
1000
0000
0000
0000
1001
0000
0000
0000
0101
0000
0000
0000
0000
0000
0001
1000
,
0001
0100
0010
1000
0010
0100
0001
0010
0100
0100
1000
1000
1001
0000
0101
0000
,
1000
0010
0100
0001
0100
0010
1000
0100
0010
0001
0010
0100
1100
0000
1001
0000
,
0101
0000
0100
0000
0010
0000
1000
0000
0010
0000
0100
0000
0001
0000
0010
0100
1000
0000
0000
0000
1001
0000
0000
0000
0101
0000
0000
0000
1100
0000
0000
0000
,
1001
0000
0001
0000
0100
0000
0010
0000
1000
0000
0100
0000
0010
0000
0001
0000
1000
0000
0000
0000
1100
0000
0000
0000
1001
0000
0000
0000
0000
0000
0001
1000
,
0001
0100
0010
1000
0100
0001
0100
1000
0010
0010
0100
0100
0101
0000
1001
0000
,
1100
0000
0100
0000
0001
0000
0100
0000
1000
0000
0010
0000
0100
0000
0001
0000
1000
0000
0100
0000
0001
0000
0100
0000
1000
0100
1000
0100
0010
0001
0010
0001
,
1000
0000
0010
0000
0100
0000
0001
0000
0010
0000
0100
0000
1000
0000
0001
0100
,
0001
0101
0110
1010
,
1001
0001
0100
0010
1000
0100
0001
0100
,
1000
0000
0000
0000
1100
0000
0000
0000
1001
0000
0000
0000
0001
0000
1000
0100
,
0010
0001
0010
0100
1000
0100
0001
0100
,
1000
0010
0001
0010
1000
0000
1001
0000
,
0101
0100
0010
1000
0100
0001
0100
1000
,
1001
0001
0101
0100
0110
0000
1010
0000
,
1001
0000
0001
0000
0100
0000
1000
0000
0100
0000
0001
0000
0010
0000
0100
1000
,
0100
0110
0011
1001
,
1100
0100
0001
0100
1000
0010
0100
0001
,
1000
0000
0000
0000
1100
0000
0000
0000
1001
0000
0000
0000
0001
0000
1000
0010
,
0100
0001
0100
1000
0100
0001
0010
0100
,
1100
0100
0110
0010
0011
0000
1001
0000
,
0101
0100
0010
1000
0010
0100
0001
0010
,
0110
0000
0100
0000
1100
0000
1000
0000
1001
0000
0000
0000
1000
0100
0010
0001
,
2002
0000
0000
0000
,
0000
0000
0000
0000
,
3003
0000
0000
0000
;

//---------------dance-single - ----------------
#NOTES:
     dance-single:
     :
     Hard:
     8:
     0.547,0.684,0.239,0.077,0.112:
0000
0000
0000
0000
,
0000
0000
0000
0000
,
0000
0000
0000
0000
,
0000
0000
0000
0000
,
0000
0000
0000
0000
,
0000
0000
0000
0000
,
0000
0000
0000
0000
,
1000
0100
1000
0100
0010
0001
0010
0001
,
1000
0010
0100
0001
0010
0100
1000
0100
,
0010
0001
0100
0010
1000
0100
1000
0010
,
0100
0001
0010
0100
1000
0010
0100
0001
,
0010
0001
0010
0100
1000
0100
1000
0010
,
0100
0001
0010
0100
1000
0100
0010
0001
,
0100
0010
1000
0100
0010
0100
1000
0001
,
1000
0100
1000
0000
0001
0100
0001
0000
,
1000
0100
0010
0000
0001
0010
0100
0000
,
1000
0010
0100
0000
0001
0100
0010
0000
,
1000
0100
1000
0000
0001
0010
0001
0000
,
1000
0100
0110
0000
0001
0100
0110
0000
,
1000
0001
0101
0000
1000
0100
1100
0000
,
0100
0010
0011
0000
0001
0100
0101
0000
,
0010
1000
1100
0000
0100
0010
0011
0000
,
2002
0000
0000
0000
,
0000
0000
3003
2200
,
0000
0000
0000
0000
,
0000
3300
0220
0000
,
0000
0000
0000
0000
,
0330
0022
0000
0000
,
0000
0033
1001
0000
,
1100
1000
0100
0010
0001
0100
0010
1000
,
0100
1000
0010
0100
0001
0010
0100
1000
,
0001
0010
0100
1000
0010
0100
0001
0010
,
0001
0100
0010
1000
0100
0010
0001
1000
,
0100
0010
0001
0100
0010
1000
0100
1000
,
0100
0010
0001
0010
0001
0100
0010
1000
,
0100
1000
0010
0100
0001
0010
0100
1000
,
0001
0000
0100
0000
0001
0000
1000
0000
0000
0100
0000
0000
0010
0000
0001
0000
,
0100
0010
1000
0010
0100
0001
0010
0100
,
1000
0000
0001
0000
0000
0100
0000
0000
0010
0000
1000
0000
0010
0000
0100
0000
,
0001
0010
0100
1000
0010
0100
0001
0100
,
0000
0010
0000
0000
1000
0000
0001
0000
0010
0000
0001
0000
0100
0000
0010
0000
,
1000
0000
0100
0000
0010
0000
0001
0000
0100
0000
0010
0000
0000
1000
0000
0000
,
0001
0010
0001
0100
0010
1000
0001
1000
,
0001
0100
0001
0000
1000
0100
1000
0000
,
0001
0010
0001
0000
1000
0010
1000
0000
,
0001
1000
0001
0000
1000
0001
1000
0000
,
0010
0100
0010
0000
0100
0010
0100
0000
,
1000
0100
0011
0000
0001
0100
1010
0000
,
0100
0001
1100
0000
0010
0100
0011
0000
,
1000
0100
0011
0000
0100
0010
1001
0000
,
0001
1000
0110
0000
0001
0010
1100
0000
,
1001
0000
0001
0000
0100
0000
0010
1000
0001
0000
1000
0000
0100
0000
1000
0000
,
0010
0100
0001
0000
0010
0100
1000
0000
0001
0000
0100
0000
0010
0000
0000
0000
,
1000
0100
1000
0000
0001
0100
0001
0000
1000
0100
0010
0001
1000
0000
0001
0000
,
0100
0010
1000
0000
0001
0010
0100
0000
1000
0100
0010
0100
1000
0000
0010
0000
,
0100
0001
0100
0000
0010
1000
0010
0000
0100
0000
0001
0000
0010
0000
0100
0000
,
1000
0100
1000
0000
0001
0100
0001
0000
1000
0000
0010
0000
0100
0000
0000
0000
,
0001
0010
0100
0000
1000
0100
0010
0000
0001
0100
0010
1000
0001
0000
1000
0000
,
0001
0100
0001
0000
1000
0100
1000
0000
0001
0100
0010
1000
0001
0000
0000
0000
,
1000
0100
0010
0001
0100
0010
1000
0001
,
0100
0010
1000
0001
,
0010
0100
0010
0001
0100
0010
1000
0001
,
0100
0000
0000
0000
0010
0000
0000
0000
1001
0000
0000
0000
0000
0000
1000
0001
,
1000
0010
0100
0001
0100
0010
1000
1000
,
0001
0001
0100
0100
0010
0000
1000
0000
,
0001
0010
0100
1000
0100
0010
0001
0100
,
0010
0010
1000
1000
0001
0000
1001
0000
,
1001
1000
0100
0010
0001
0100
0010
1000
,
1000
0001
0100
0010
,
1001
1000
0100
0010
0100
1000
0010
0100
,
0001
0000
0000
0000
0101
0000
0000
0000
1001
0000
0000
0000
0000
0000
1000
0001
,
1000
0100
0010
0001
0100
0010
1000
1000
,
0010
0010
0100
0100
0001
0000
1000
0000
,
0101
0001
0100
0010
1000
0100
0010
0001
,
0100
0010
1000
0001
1000
0000
0000
0000
,
2002
0000
0000
0000
,
0000
0000
0000
0000
,
3003
0000
0000
0000
;

//---------------dance-single - ----------------
#NOTES:
     dance-single:
     :
     Medium:
     5:
     0.397,0.416,0.208,0.077,0.000:
0000
0000
0000
0000
,
0000
0000
0000
0000
,
0000
0000
0000
0000
,
0000
0000
0000
0000
,
0000
0000
0000
0000
,
0000
0000
0000
0000
,
0000
0000
0000
0000
,
1000
0000
0100
0000
0010
0000
0001
0100
,
0010
0000
0010
0100
0001
0000
1000
0000
,
0100
0000
0010
0000
0001
1000
0100
0000
,
0010
0001
0100
0000
0010
0000
1000
0000
,
0010
0000
0100
0001
1000
0000
0001
0010
,
0100
0000
1000
0000
0010
0000
0100
0001
,
1000
0000
0001
0010
0100
0000
1000
0000
,
0001
0101
1000
1100
,
0001
0011
1000
1010
,
0001
0101
1000
1100
,
0001
0011
1000
1010
,
0001
0100
0001
0000
1000
0100
1000
0000
,
0001
0100
0001
0000
1000
0100
1000
0000
,
0001
0010
0100
0000
1000
0100
0010
0000
,
0001
0100
0010
0000
1000
0010
0100
0000
,
2002
0000
0000
0000
,
0000
0000
3003
2200
,
0000
0000
0000
0000
,
0000
3300
0202
0000
,
0000
0000
0000
0000
,
0303
0220
0000
0000
,
0000
0330
1001
0000
,
1001
0000
0001
0000
0100
0010
1000
0000
,
0001
0010
0100
0000
1000
0000
0010
0000
,
0100
0000
0001
0010
0001
0000
1000
0100
,
1000
0010
0100
0001
,
0010
0100
1000
0000
0100
0010
0001
0000
,
0100
0000
0010
0000
1000
0000
0010
0100
,
0001
0000
1000
0100
1000
0000
0001
0000
,
0100
0000
0001
0000
1000
0000
0010
0100
,
0001
0000
1000
0100
0010
0000
0001
0000
,
0100
0000
0010
0000
1000
0100
0010
0000
,
0001
0100
0010
0000
0100
0000
0001
0000
,
1000
0000
0100
0010
0001
0000
0100
0010
,
1000
0001
0100
0010
,
1000
0100
0010
0000
0001
0010
0100
0000
,
1000
1100
0001
0101
,
1000
1010
0001
0011
,
1000
1001
0001
1001
,
0100
0110
0010
0110
,
1000
0100
0010
0000
0001
0010
0100
0000
,
1000
0010
0100
0000
0001
0100
0010
0000
,
1000
0100
0001
0000
0001
0100
1000
0000
,
1000
0010
0001
0000
0001
0010
1000
0000
,
1001
0000
1000
0000
0001
0100
0010
1000
,
0001
0000
0010
0000
0100
1000
0010
0000
,
0100
0000
0001
0000
1000
0100
0010
0001
,
1000
0000
0010
0000
0100
0001
0100
0010
,
1000
0000
0001
0000
0010
0100
1000
0010
,
0100
0000
0001
0000
1000
0001
1000
0000
,
0010
0000
0100
0000
0001
0010
0100
1000
,
0001
0000
0100
0000
0010
1000
0010
0100
,
0001
0010
0100
1000
,
0010
0101
0110
1010
,
0001
0010
0100
0000
1000
0100
0010
0000
,
0001
0100
0010
0000
,
1000
0100
1000
0000
0001
0100
0001
0000
,
1000
0100
0010
0001
1000
0000
0001
0000
,
0100
0010
1000
0000
0001
0100
0001
0000
,
1000
0100
0010
0100
1000
0000
0010
0000
,
0100
0001
1000
0000
0010
0100
0001
0000
,
0010
0100
1000
0010
,
0100
0001
1000
0000
0001
0010
0100
0000
,
1000
0100
0010
0000
,
0001
0100
0010
0000
1000
0010
0100
0000
,
0001
0010
0100
1000
0010
0000
0100
0000
,
0001
0100
0010
0000
1000
0010
0100
0000
,
0001
0100
0010
1000
0001
0000
0000
0000
,
2002
0000
0000
0000
,
0000
0000
0000
0000
,
3003
0000
0000
0000
;

//---------------dance-single - ----------------
#NOTES:
     dance-single:
     :
     Easy:
     4:
     0.297,0.535,0.185,0.263,0.000:
0000
0000
0000
0000
,
0000
0000
0000
0000
,
0000
0000
0000
0000
,
0000
0000
0000
0000
,
0000
0000
0000
0000
,
0000
0000
0000
0000
,
0000
0000
0000
0000
,
1000
0100
0010
0001
,
0100
0010
1000
0010
,
0100
0001
0010
0100
,
1000
0100
0010
0001
,
0100
0010
1000
0100
,
1000
0010
0100
0001
,
0010
0100
1000
0010
,
2000
3000
0002
0003
,
0200
0300
0020
0030
,
2000
3000
0200
0300
,
0020
0030
0002
0003
,
1000
1000
0010
0010
,
0100
0100
0001
0001
,
1000
0100
1000
0100
,
0010
0001
0010
0001
,
2002
0000
0000
0000
,
0000
0000
3003
2002
,
0000
0000
0000
0000
,
0000
3003
0220
0000
,
0000
0000
0000
0000
,
0330
2002
0000
0000
,
0000
3003
1001
0000
,
1001
0001
0100
0010
,
1000
0100
0010
0001
,
0010
0100
1000
0010
,
0100
0001
0010
0100
,
1000
0010
0100
0001
,
0100
0010
1000
0100
,
0010
0001
0100
0010
,
1000
0010
0000
0100
,
0001
0010
0100
1000
,
0010
0000
0100
0001
,
0100
0010
1000
0001
,
0000
0010
0100
1000
,
0010
0100
0001
0000
,
1000
0100
0010
0001
,
2200
3300
0202
0303
,
0022
0033
2020
3030
,
0220
0330
2002
3003
,
0220
0330
2002
3003
,
1000
1100
0001
0101
,
1000
1010
0001
0011
,
0010
0110
0100
0110
,
0001
1001
1000
1001
,
1001
1000
0010
0100
,
0001
0010
0100
1000
,
0001
0100
0010
1000
,
0010
0100
0001
0010
,
0100
1000
0100
0010
,
0001
0100
0010
1000
,
0010
0100
0001
0010
,
0100
1000
0100
0010
,
0001
0000
1000
0000
,
0010
0100
0001
0010
,
0100
0000
1000
0000
,
0010
0100
0001
0000
,
1000
0000
0001
0000
,
0100
0010
1000
0001
,
0010
0000
0100
0000
,
1000
0100
0010
0001
,
1000
0000
0010
0000
,
0100
0001
0100
0010
,
1000
0000
0001
0000
,
0010
0100
1000
0000
,
0001
0000
0100
0000
,
0010
1000
0001
0100
,
0001
0000
1000
0000
,
0010
0100
0001
0000
,
2002
0000
0000
0000
,
0000
0000
0000
0000
,
3003
0000
0000
0000
;

//---------------dance-single - ----------------
#NOTES:
     dance-single:
     :
     Beginner:
     1:
     0.118,0.174,0.046,0.000,0.000: // measure 1
0000
0000
0000
0000
,  // measure 2
0000
0000
0000
0000
,  // measure 3
0000
0000
0000
0000
,  // measure 4
0000
0000
0000
0000
,  // measure 5
0000
0000
0000
0000
,  // measure 6
0000
0000
0000
0000
,  // measure 7
0000
0000
0000
0000
,  // measure 8
1000
0000
0000
1000
,  // measure 9
0000
0000
0000
0001
,  // measure 10
0000
0000
0001
0000
,  // measure 11
0000
0000
0100
0000
,  // measure 12
0000
0100
0000
0000
,  // measure 13
0000
0010
0000
0000
,  // measure 14
0010
0000
0000
0000
,  // measure 15
1000
0000
1000
0000
,  // measure 16
1000
0000
1000
0000
,  // measure 17
0001
0000
0001
0000
,  // measure 18
0001
0000
0001
0000
,  // measure 19
0100
0000
0100
0000
,  // measure 20
0100
0000
0100
0000
,  // measure 21
0010
0000
0010
0000
,  // measure 22
0010
0000
0010
0000
,  // measure 23
1001
0000
0000
0000
,  // measure 24
0000
0000
0000
1001
,  // measure 25
0000
0000
0000
0000
,  // measure 26
0000
0000
0110
0000
,  // measure 27
0000
0000
0000
0000
,  // measure 28
0000
0110
0000
0000
,  // measure 29
0000
0000
0000
0000
,  // measure 30
1000
0000
0000
1000
,  // measure 31
0000
0000
0000
0010
,  // measure 32
0000
0000
0010
0000
,  // measure 33
0000
0000
0100
0000
,  // measure 34
0000
0100
0000
0000
,  // measure 35
0000
0001
0000
0000
,  // measure 36
0001
0000
0000
0000
,  // measure 37
1000
0000
0000
1000
,  // measure 38
0000
0000
0000
0001
,  // measure 39
0000
0000
0001
0000
,  // measure 40
0000
0000
0100
0000
,  // measure 41
0000
0100
0000
0000
,  // measure 42
0000
0010
0000
0000
,  // measure 43
0010
0000
0000
0000
,  // measure 44
1000
0000
1000
0000
,  // measure 45
1000
0000
1000
0000
,  // measure 46
0001
0000
0001
0000
,  // measure 47
0001
0000
0001
0000
,  // measure 48
0100
0000
0100
0000
,  // measure 49
0100
0000
0100
0000
,  // measure 50
0010
0000
0010
0000
,  // measure 51
0010
0000
0010
0000
,  // measure 52
1001
0000
0000
0000
,  // measure 53
1000
0000
0000
0000
,  // measure 54
0001
0000
0000
0000
,  // measure 55
0100
0000
0000
0000
,  // measure 56
0010
0000
0000
0000
,  // measure 57
1000
0000
0000
0000
,  // measure 58
0100
0000
0000
0000
,  // measure 59
0010
0000
0000
0000
,  // measure 60
0001
0000
0001
0000
,  // measure 61
0001
0000
0000
0000
,  // measure 62
0100
0000
0100
0000
,  // measure 63
0100
0000
0000
0000
,  // measure 64
0010
0000
0010
0000
,  // measure 65
0010
0000
0000
0000
,  // measure 66
1000
0000
1000
0000
,  // measure 67
1000
0000
0000
0000
,  // measure 68
0001
0000
0100
0000
,  // measure 69
0010
0010
0010
0000
,  // measure 70
1000
0000
0100
0000
,  // measure 71
1000
1000
1000
0000
,  // measure 72
0010
0000
0100
0000
,  // measure 73
0001
0001
0001
0000
,  // measure 74
0010
0000
0100
0000
,  // measure 75
1000
1000
1000
0000
,  // measure 76
1001
0000
0000
0000
;
