#TITLE:Hartmania;
#SUBTITLE:;
#ARTIST:Knights of Round;
#TITLETRANSLIT:;
#SUBTITLETRANSLIT:;
#ARTISTTRANSLIT:;
#CREDIT:;
#BANNER:Hartmania - BN.png;
#BACKGROUND:Hartmania - BG.png;
#LYRICSPATH:;
#CDTITLE:;
#MUSIC:Hartmania.ogg;
#OFFSET:-0.500;
#SAMPLESTART:0.520;
#SAMPLELENGTH:12.000;
#SELECTABLE:YES;
#BPMS:0.000=140.000,150.000=70.000;
#STOPS:57.000=0.429
,58.500=0.214
,61.500=0.429
,63.000=0.214
,66.000=0.429
,67.500=0.214
,70.500=0.429
,72.000=0.214
,75.000=0.429
,76.500=0.214
,79.500=0.429
,81.000=0.214
,84.000=0.429
,85.500=0.214
,88.500=0.214
,118.000=0.429
,119.500=0.214
,122.500=0.429
,124.000=0.214
,127.000=0.429
,128.500=0.214
,131.500=0.429
,133.000=0.214
,136.000=0.429
,137.500=0.214
,140.500=0.429
,142.000=0.214
,145.000=0.429
,146.500=0.214
,149.500=0.214
;
#BGCHANGES:;

//---------------dance-single - ----------------
#NOTES:
     dance-single:
     :
     Challenge:
     10:
     0.792,0.873,0.496,0.205,1.000: // measure 1
0000
0000
0000
0000
,  // measure 2
0000
0000
0000
0000
,  // measure 3
0000
0000
0000
0000
,  // measure 4
0000
0000
0000
0000
2000
0001
3001
1001
,  // measure 5
0000
1100
0000
0000
0110
0000
0011
0000
0001
0000
0100
0000
0010
0000
1000
0000
,  // measure 6
0010
0000
0100
0000
0002
0000
0010
0000
0013
0000
0011
0000
0000
0110
0000
0000
,  // measure 7
1100
0000
0000
0000
0000
0000
1001
0000
0000
0000
0000
0000
0001
0000
0000
0000
0000
0000
0100
0000
0000
0000
0000
0000
0010
0000
0000
0000
0000
0000
1000
0000
0100
0000
1000
0000
0100
0000
0000
0010
0000
0000
0001
0000
0000
0010
0000
0000
,  // measure 8
0002
0000
0100
0000
0103
0000
0101
0000
0000
1001
0000
0000
1100
0000
1000
0000
,  // measure 9
0010
0100
0001
0010
0100
1000
0002
1000
,  // measure 10
1003
0000
1001
0000
0000
0101
0000
0000
0110
0000
1010
0000
1000
0000
0100
0000
,  // measure 11
0010
0001
0010
0100
2000
0010
3010
1010
,  // measure 12
0000
0110
0000
0000
0101
0000
1001
0000
1000
0000
0100
0000
1000
0000
0010
0000
,  // measure 13
0100
0000
0001
0000
0020
0000
0100
0000
0130
0000
0110
0000
0000
1100
0000
0000
,  // measure 14
1001
0101
0100
0010
1000
0010
0100
0001
,  // measure 15
1000
0100
0010
0001
1000
M000
0001
0100
0010
0100
0001
000M
1000
0100
0010
0001
,  // measure 16
1000
0000
0000
0M00
0000
0000
0001
0000
0000
0100
0000
0000
0010
0000
0000
1000
0000
0000
0001
0000
0000
000M
0000
0000
1000
0000
0000
0100
0000
0000
1000
0000
0100
0000
0010
0000
0001
0000
0000
000M
0000
0000
0001
0000
0000
0010
0000
0000
,  // measure 17
0100
0000
0000
1000
0000
0000
0100
0000
0000
000M
0000
0000
1000
0000
0000
0010
0000
0000
1000
0000
0001
0000
0100
0000
0001
0000
0000
000M
0000
0000
0001
0000
0000
0100
0000
0000
0001
0000
1000
0000
0100
0000
1000
0000
0000
M000
0000
0000
,  // measure 18
1000
0000
0000
0010
0000
0000
0100
0000
0010
0000
0100
0000
0001
0000
0000
00M0
0000
0000
1000
0000
0000
0100
0000
0000
0010
0000
0000
0001
0000
0000
1000
0000
0000
M000
0000
0000
1000
0000
0000
0100
0000
0000
1000
0000
0100
0000
0010
0000
,  // measure 19
0001
0000
0000
000M
0000
0000
0001
0000
0000
0100
0000
0000
0010
0000
0100
0000
0001
0000
1000
0000
0000
0M00
0000
0000
0010
0000
0000
0100
0000
0000
0001
0000
0000
1000
0000
0000
0001
0000
0000
000M
0000
0000
0001
0000
0000
0010
0000
0000
,  // measure 20
0001
0100
0001
000M
1000
0100
0010
0001
1000
0M00
0001
0100
0010
1000
0010
00M0
,  // measure 21
0100
0010
0100
0001
1000
M000
0001
0010
0001
0100
0010
1M00
0001
0100
0010
1000
,  // measure 22
0001
0000
0000
000M
0000
0000
1000
0000
0000
0100
0000
0000
1000
0000
0000
0010
0000
0000
0100
0000
0000
0M00
0000
0000
0001
0000
0000
0100
0000
0000
0001
0000
0000
0100
0000
0000
0010
0000
0000
000M
0000
0000
1000
0000
0100
0000
1000
0000
,  // measure 23
0100
0000
1000
0000
0100
0000
1000
0000
0000
M000
0000
0000
2000
0000
0000
0000
0000
0000
0100
0000
0000
0000
0000
0000
3100
0000
0000
0000
0000
0000
0110
0000
0000
0000
0000
0000
0000
0000
0000
0011
0000
0000
0000
0000
0000
0000
0000
0000
,  // measure 24
1001
1001
1000
0010
0001
0010
1000
0100
,  // measure 25
0020
0000
0001
0000
0031
0000
0011
0000
0000
1001
0000
0000
1100
0000
1000
0000
,  // measure 26
0010
0000
0000
0100
0000
0000
0001
0000
0000
1000
0100
1000
0100
0010
0001
0010
0001
1000
0002
0000
0000
1000
0000
0000
,  // measure 27
1003
0000
1001
0000
0000
1100
0000
0000
0110
0000
0011
0000
0001
0000
0100
0000
,  // measure 28
1000
0000
0100
0000
0001
0000
0100
0010
2000
0000
0001
0000
3001
0000
1001
0000
,  // measure 29
0000
1100
0000
0000
0110
0000
0011
0000
0001
0000
0100
0000
0010
0000
0100
0010
,  // measure 30
1000
0000
0001
0000
1000
0100
0010
0001
1000
M000
0001
0010
0001
0100
0010
00M0
,  // measure 31
1000
0100
0001
0100
1000
0M00
0010
0100
0001
0100
0001
000M
1000
0100
1000
0010
,  // measure 32
0001
000M
0010
1000
0001
1000
0001
M010
0100
1000
0100
1000
0100
0M00
0010
0001
,  // measure 33
0010
0100
1000
M000
0001
0100
0010
1000
0010
M000
0100
0001
1000
0001
1000
M000
,  // measure 34
0001
0010
0100
0010
0001
000M
1000
0100
0010
0001
0100
001M
1000
0001
1000
0001
,  // measure 35
1000
M000
0001
0010
1000
0010
0001
000M
1000
0100
0001
0100
1000
0M00
0010
0100
,  // measure 36
0001
1000
0001
000M
1000
0100
0010
0001
1000
M000
0001
0100
0010
1000
0010
M100
,  // measure 37
0001
1000
0001
1000
0001
000M
1000
0100
1000
0010
0100
0M00
0001
0100
0010
1000
,  // measure 38
0001
0000
00M0
0000
1000
0000
0100
0000
0010
0000
0001
0000
1000
0000
M000
0000
1001
0000
0001
0000
0100
0000
0010
0000
1000
0000
0100
0000
0010
0000
0001
0100
,  // measure 39
0010
0000
1010
0000
1001
0001
0101
0100
0110
0010
1000
0010
0100
0001
0010
0100
,  // measure 40
1000
0000
0000
0000
1100
0000
0000
0000
1001
0000
0000
0000
0001
0000
0100
0010
1000
0000
0010
0000
1000
0000
0010
0000
0100
0000
0001
0000
0010
0000
0001
0000
,  // measure 41
0010
0100
1000
0010
0200
0001
0302
1000
1003
0010
0100
0010
1000
0100
0010
0001
,  // measure 42
0010
0000
0000
0000
0000
0000
0000
0000
0000
0000
0000
0000
0100
0000
0000
0000
0000
0000
0000
0000
0000
0000
0000
0000
1000
0000
0000
0000
0000
0000
0000
0000
0000
0000
0000
0000
0001
0000
0000
0000
1000
0000
0000
0000
0001
0000
0000
0000
1000
0000
0000
0000
0000
0000
0010
0000
0000
0000
0000
0000
0100
0000
0000
0000
0000
0000
0000
0000
0000
0000
0000
0000
0001
0000
0000
0000
0000
0000
0010
0000
0000
0000
0000
0000
0001
0000
0000
0000
0000
0000
0000
0000
0000
0000
0000
0000
2002
0000
0000
0000
0000
0000
0000
0000
0000
0000
0000
0000
0000
0000
0000
0000
0000
0000
0000
0000
0000
0000
0000
0000
3003
0000
0000
0000
0000
0000
0000
0000
0000
0000
0000
0000
1000
0000
0000
0000
0000
0000
0000
0000
0000
0000
0000
0000
0100
0000
0000
0000
0000
0000
0000
0000
0000
0000
0000
0000
0010
0000
0000
0000
0000
0000
0000
0000
0000
0000
0000
0000
0001
0000
0000
0000
0000
0000
0000
0000
0000
0000
0000
0000
1000
0000
0000
0000
0000
0000
0010
0000
0000
0000
0000
0000
,  // measure 43
0100
0000
1001
0000
1100
0000
0110
0000
0011
0001
0100
0010
1000
0010
0100
0001
,  // measure 44
0010
0000
0000
0000
1100
0000
0000
0000
1001
0000
0000
0000
0001
0100
0001
0100
0001
0000
0100
0000
0010
0000
1000
0000
0010
0000
0100
0000
0001
0000
1000
0000
,  // measure 45
0002
0100
0203
0010
0310
0000
1001
0000
1001
0001
0100
0010
1000
0010
0100
0001
,  // measure 46
0010
0000
0100
0000
1000
0000
0001
0100
0010
1000
0001
0000
1000
0001
1000
0001
1000
0000
0001
0000
0100
0000
0010
0000
1000
0000
0010
0000
0100
0000
0001
0010
,  // measure 47
0001
0000
0000
0000
0011
0000
0000
0000
0110
0000
0000
0000
1000
0100
1000
0000
1001
0000
0001
0000
0100
0000
0010
0000
1000
0000
0010
0000
0100
0000
0001
0000
,  // measure 48
0020
0000
0000
0000
0230
0000
0000
0000
2300
0000
0000
0000
3001
0000
0100
0010
1000
0000
0001
0000
1000
0000
0001
0000
1000
0000
0010
0000
0100
0000
0001
0000
,  // measure 49
0100
0010
1000
0100
0002
0100
0203
1000
1300
0010
0100
0010
1000
0100
0001
0100
,  // measure 50
2000
0000
0010
0000
3010
0100
0001
0000
0100
0010
0100
0010
1000
0001
1000
0001
2002
0000
0000
0000
0000
0000
0000
0000
3003
0000
0000
0000
0000
0000
0000
0000
;

//---------------dance-single - ----------------
#NOTES:
     dance-single:
     :
     Hard:
     8:
     0.479,0.553,0.009,0.342,0.171:
0000
0000
0000
0000
,
0000
0000
0000
0000
,
0000
0000
0000
0000
,
0000
0000
0000
0000
,
0000
0000
0000
0000
,
0000
0000
0000
0000
,
0000
0000
0000
0000
,
2000
0000
0000
0000
0000
0000
3001
0000
0000
0100
0000
0000
0010
0000
1000
0000
,
0010
0100
0001
0010
0100
1000
0020
0000
,
0000
0000
0130
0000
0000
0001
0000
0000
1000
0000
0100
0000
0010
0000
0001
0000
,
0100
0010
1000
0010
0200
0000
0000
0301
,
0000
1000
0000
0000
0010
0000
0100
0000
0010
0000
1000
0000
0001
0000
0010
0000
,
0100
0000
1000
0000
0002
0000
0000
0000
0000
0000
0103
0000
0000
0010
0000
0000
,
1000
0010
0100
0010
1000
0100
0010
0001
,
1000
0000
0100
0000
2000
3000
0001
0000
0100
0000
0020
0030
1000
0000
0010
0000
,
0100
0000
0001
0000
0010
0000
0200
0300
1000
0000
0100
0000
2000
3000
0010
0000
,
0100
0000
0001
0000
0100
0000
0010
0000
2000
3000
0001
0000
0010
0000
0002
0003
,
0100
0000
0010
0000
1000
0000
0010
0000
0100
0000
0002
0003
0010
0000
0100
0000
,
2000
3000
0100
0000
0010
0000
0001
0000
0100
0000
0010
0000
2000
3000
0010
0000
,
0001
0000
0020
0030
0100
0000
0001
0000
0100
0000
0010
0000
1000
0000
0200
0300
,
1000
0000
0100
0000
0020
0030
0001
0000
0010
0000
0100
0000
1000
0000
0010
0000
,
0200
0300
0001
0000
0100
0000
0020
0030
1000
0000
0010
0000
0100
0000
0001
0000
,
0010
0000
0200
0300
2000
0000
0001
0000
0001
0000
3001
0000
0000
0100
0000
0000
,
0010
1000
0010
0100
0001
0010
0100
1000
,
0002
0000
0100
0000
0100
0000
0103
0000
0000
0010
0000
0000
1000
0000
0010
0000
,
0100
0001
0010
0100
1000
0100
2000
0001
,
0001
0000
3001
0000
0000
0100
0000
0000
0010
0000
1000
0000
0010
0000
0100
0000
,
0001
0010
0100
1000
0020
0100
0100
0130
,
0000
0001
0000
0000
1000
0000
0010
0000
0100
0000
0010
0000
1000
0000
0100
0000
,
0010
0000
0001
0000
1000
0000
0100
0000
2000
3000
0010
0000
0100
0000
0002
0003
,
0100
0000
0010
0000
1000
0000
0010
0000
0100
0000
0002
0003
0010
0000
1000
0000
,
0020
0030
0001
0000
0100
0000
0010
0000
1000
0000
0100
0000
2000
3000
0010
0000
,
0100
0000
0002
0003
0010
0000
0001
0000
0100
0000
1000
0000
0100
0000
0020
0030
,
0100
0000
0001
0000
0020
0030
0100
0000
1000
0000
0100
0000
0010
0000
0001
0000
,
0200
0300
0010
0000
1000
0000
0020
0030
0100
0000
0001
0000
0010
0000
0001
0000
,
1000
0000
0200
0300
1000
0000
0100
0000
0020
0030
0001
0000
0010
0000
0100
0000
,
1000
0000
0010
0000
0200
0300
0001
0000
0010
0000
0002
0003
0100
0000
0010
0000
,
1000
0000
0001
0000
0100
0000
0002
0000
1003
0100
1000
0100
0010
0001
0100
0010
,
1000
0000
0010
0000
0100
0000
0001
0000
1000
0100
1000
0100
0010
0001
0010
0001
,
0100
0000
0010
0000
1000
0000
0000
0000
0001
0100
0010
0000
1000
0010
0100
0000
,
0001
0010
0100
1000
0001
0000
1000
0000
0010
0100
0001
0000
1000
0100
0010
0000
,
0001
0100
0010
1000
0001
0000
0000
0000
1000
0100
1000
0100
0010
0001
0010
0001
,
1000
0000
0010
0000
0100
0000
0001
0000
0100
0010
1000
0010
0100
0001
0010
0100
,
1000
0000
0100
0000
0010
0000
0000
0000
0001
0010
0100
0000
1000
0100
0010
0000
,
0001
0100
0010
1000
0001
0000
1000
0000
0010
0100
0010
0000
1000
0001
1000
0000
,
0001
1000
0001
1000
0001
0000
0000
0000
1000
0000
0100
0000
0010
0000
0001
0000
,
0100
0100
0100
0100
0010
1000
0010
0100
,
0001
0001
0001
0000
1000
0100
0010
0001
,
0100
0010
1000
0010
0100
0001
0010
0100
,
1000
0001
1000
0000
2002
0000
3003
0000
;

//---------------dance-single - ----------------
#NOTES:
     dance-single:
     :
     Medium:
     5:
     0.268,0.319,0.009,0.086,0.000:
0000
0000
0000
0000
,
0000
0000
0000
0000
,
0000
0000
0000
0000
,
0000
0000
0000
0000
,
0000
0000
0000
0000
,
0000
0000
0000
0000
,
0000
0000
0000
0000
,
2000
0000
0000
3001
0000
0000
0100
0010
,
0000
0000
0100
0000
0000
0001
0002
0000
,
0000
0103
0000
0000
0010
1000
0000
0000
,
0001
0000
0000
1000
0020
0000
0000
0130
,
0000
0000
0001
1000
0000
0000
0010
0000
,
0000
0100
0002
0000
0000
0013
0000
0000
,
0100
1000
0000
0000
0010
0000
0000
1000
,
0001
0000
0001
0100
0000
0100
0010
0000
,
0010
1000
0000
1000
0001
0000
0001
0010
,
0000
0010
0100
0000
0100
1000
0000
1000
,
0010
0000
0010
0100
0000
0100
0001
0000
,
0001
0010
0000
0010
0001
0000
0001
0100
,
0000
0100
0010
0000
0010
1000
0000
1000
,
0010
0000
0010
0100
0000
0100
0010
0000
,
0010
1000
0000
1000
0001
0000
0001
1000
,
0000
1000
0002
0000
0000
0103
0000
0000
,
0010
1000
0000
0000
0001
0000
0000
1000
,
0020
0000
0000
0130
0000
0000
0001
0010
,
0000
0000
0100
0000
0000
1000
0200
0000
,
0000
0310
0000
0000
0001
0100
0000
0000
,
0010
0000
0000
1000
0002
0000
0000
1003
,
0000
0000
0010
0100
0000
0000
0001
0000
,
0000
1000
0001
0000
0100
0010
0000
1000
,
0001
0000
0010
0010
0000
0100
1000
0000
,
0010
0100
0000
0001
0001
0000
1000
0010
,
0000
0100
0001
0000
0010
0010
0000
0001
,
0100
0000
0010
1000
0000
0010
0100
0000
,
0001
1000
0000
0100
1000
0000
0010
0100
,
0000
0001
1000
0000
0100
1000
0000
0010
,
0100
0000
0001
0010
0000
0100
1000
0000
,
0010
0100
0000
0001
1000
1000
0100
0100
,
0010
0000
0001
0000
0100
0010
1000
0010
,
0100
0000
0001
0000
1000
0100
0010
0001
,
0100
0100
0010
0010
1000
0100
0010
0001
,
0100
0000
0001
0000
1000
0010
0100
0001
,
0100
0000
0010
0000
1000
0010
0100
0001
,
0010
0000
0100
0000
1000
0100
1000
0100
,
0010
0000
0001
0000
0100
0010
1000
0010
,
0100
0001
1000
0010
,
0100
0001
0100
0010
1000
0000
0001
0000
,
0010
0100
1000
0000
0010
0000
0100
0000
,
0001
0100
0010
0000
1000
0000
0001
0000
,
1000
0001
1000
0000
2002
0000
3003
0000
;

//---------------dance-single - ----------------
#NOTES:
     dance-single:
     :
     Easy:
     3:
     0.141,0.213,0.017,0.017,0.000:
0000
0000
0000
0000
,
0000
0000
0000
0000
,
0000
0000
0000
0000
,
0000
0000
0000
0000
,
0000
0000
0000
0000
,
0000
0000
0000
0000
,
0000
0000
0000
0000
,
1000
0000
0000
0010
,
0000
0000
0000
1000
,
0000
0000
0001
0000
,
0000
0000
0010
0000
,
0000
0100
0000
0000
,
0000
1000
0000
0000
,
0001
0000
0000
0000
,
1000
0000
1000
0000
0000
0001
0000
0000
,
0100
0000
0000
0010
0000
0000
1000
0000
,
0000
0010
0000
0000
0100
0000
0000
0001
,
0000
0000
0010
0000
0000
0100
0000
0000
,
1000
0000
0000
0100
0000
0000
0010
0000
,
0000
0001
0000
0000
0100
0000
0000
0010
,
0000
0000
1000
0000
0000
0010
0000
0000
,
0100
0000
0000
0001
0000
0000
1000
0000
,
0000
0001
0001
0000
0000
0000
0000
0000
,
1000
0000
0000
0000
,
0010
0000
0000
0100
,
0000
0000
0000
0001
,
0000
0000
0010
0000
,
0000
0000
0100
0000
,
0000
1000
0000
0000
,
0000
0000
0001
0000
0001
0000
0000
0100
,
0000
0000
0010
0000
0000
1000
0000
0000
,
0001
0000
0000
0010
0000
0000
0100
0000
,
0000
1000
0000
0000
0010
0000
0000
0100
,
0000
0000
0001
0000
0000
1000
0000
0000
,
0001
0000
0000
0010
0000
0000
0100
0000
,
0000
1000
0000
0000
0010
0000
0000
0100
,
0000
0000
0001
0000
0000
0010
0000
0000
,
0001
0000
0000
1000
1000
0000
0100
0000
,
0010
0001
0100
0010
,
1000
0010
0100
0001
,
0010
0100
1000
0100
,
0010
0001
0001
0100
,
0010
1000
0010
0100
,
0001
0010
0010
0001
,
0100
0010
1000
0010
,
0100
0001
1001
1000
,
0010
0010
0100
0001
,
0100
0100
0010
1000
,
0001
0001
0010
0100
,
1000
1000
2002
3003
;

//---------------dance-single - ----------------
#NOTES:
     dance-single:
     :
     Beginner:
     1:
     0.068,0.106,0.009,0.000,0.000:
0000
0000
0000
0000
,
0000
0000
0000
0000
,
0000
0000
0000
0000
,
0000
0000
0000
0000
,
0000
0000
0000
0000
,
0000
0000
0000
0000
,
0000
0000
0000
0000
,
1000
0000
0000
0000
,
0000
0000
0000
0001
,
0000
0000
0000
0000
,
0000
0000
0100
0000
,
0000
0000
0000
0000
,
0000
0010
0000
0000
,
0000
0000
0000
0000
,
1000
0000
0000
0001
,
0000
0000
1000
0000
,
0000
0000
0010
0000
,
0010
0000
0000
0100
,
0000
0000
0001
0000
,
0000
0100
0000
0000
,
0001
0000
0000
1000
,
0000
0000
0010
0000
,
0000
1000
0000
0000
,
0000
0000
0000
0000
,
0010
0000
0000
0000
,
0000
0000
0000
0100
,
0000
0000
0000
0000
,
0000
0000
0001
0000
,
0000
0000
0000
0000
,
0000
0000
1000
0000
,
0010
0000
0000
1000
,
0000
0000
0001
0000
,
0000
0100
0000
0000
,
0010
0000
0000
1000
,
0000
0000
0001
0000
,
0000
0100
0000
0000
,
0010
0000
0000
0100
,
0000
0000
0001
0000
,
0001
0000
1000
0000
,
1000
0000
0010
0000
,
0010
0000
0100
0000
,
0100
0000
0001
0000
,
0001
0000
0010
0000
,
0010
0000
0100
0000
,
0100
0000
1000
0000
,
1000
0000
0010
0000
,
0100
0000
0001
0000
,
0010
0000
0100
0000
,
1000
0000
0100
0000
,
1000
0000
1001
0000
;
