#TITLE:Go Reimu!!;
#SUBTITLE:;
#ARTIST:AU;
#TITLETRANSLIT:;
#SUBTITLETRANSLIT:;
#ARTISTTRANSLIT:;
#CREDIT:;
#BANNER:Go Reimu!!.png;
#BACKGROUND:Go Reimu!! - BG.png;
#LYRICSPATH:;
#CDTITLE:cdtitlegpop.png;
#MUSIC:Go Reimu!!.ogg;
#OFFSET:-0.260;
#SAMPLESTART:83.073;
#SAMPLELENGTH:12.000;
#SELECTABLE:YES;
#BPMS:0.000=200.000,32.000=100.000,34.000=200.000,62.000=100.000,64.000=200.000,92.000=100.000,146.000=200.000,238.000=100.000,240.000=200.000,268.000=100.000,270.000=200.000,334.000=100.000;
#STOPS:145.750=2.400
;
#BGCHANGES:;

//---------------dance-single - ----------------
#NOTES:
     dance-single:
     :
     Challenge:
     12:
     0.931,1.000,0.229,0.365,0.926: // measure 1
0000
0000
0000
0000
,  // measure 2
1000
0100
1000
0100
0010
0001
0010
0001
,  // measure 3
1000
0000
0000
1000
0000
0000
1000
0000
2000
0000
0000
0000
3002
0000
0000
0000
,  // measure 4
0203
0000
0310
1000
0010
0100
0001
0010
,  // measure 5
M11M
0000
0000
1000
01MM
0000
0010
0000
MM12
0000
0000
0000
2003
0000
0000
0000
,  // measure 6
3010
0010
0100
0100
0001
0010
0100
1000
,  // measure 7
00M1
0000
0000
M1M1
0000
0000
M11M
0000
2M1M
0000
0000
0000
3001
0000
0000
0000
,  // measure 8
0201
0000
0310
1000
0001
0001
0001
0010
,  // measure 9
0100
0000
0000
0100
0000
0000
0100
0000
1000
0000
0000
1000
0000
0000
1000
0000
0001
0000
0000
0000
0000
0000
0000
0000
0100
0000
0000
0000
0000
0000
0000
0000
,  // measure 10
0010
1000
0000
0001
0010
0001
0000
0100
,  // measure 11
0000
0020
0000
1000
1030
0000
0001
0000
,  // measure 12
0100
0010
0000
1000
0MM1
0MM1
0000
M0M1
,  // measure 13
0000
MM01
0000
0MM1
1000
0000
0010
0000
,  // measure 14
0100
0100
0000
0001
00M1
0M01
0000
2000
,  // measure 15
0000
3020
0000
0100
013M
0000
0001
0000
,  // measure 16
M110
0000
0100
0000
0000
0000
1000
0000
0001
0100
0001
0100
0010
1000
0001
1000
,  // measure 17
0001
0000
0101
0000
0100
0010
0000
1000
,  // measure 18
0010
0100
0000
0001
0000
0020
0000
0100
,  // measure 19
0130
0000
1100
0000
1000
0010
0000
0100
,  // measure 20
0000
0001
0000
0010
0000
0001
0000
0100
,  // measure 21
M11M
0000
1M1M
0000
1MM0
1M0M
0000
M0M1
,  // measure 22
M10M
M10M
0000
M11M
0000
M1M1
0000
M1M0
,  // measure 23
M0M1
MM01
2000
0000
3M1M
0M1M
0000
1000
,  // measure 24
0002
0000
0000
0000
2003
0000
0000
3010
,  // measure 25
0200
0000
0302
0000
,  // measure 26
1000
0000
1003
0100
2000
0000
3200
0000
,  // measure 27
0302
0023
2030
0000
,  // measure 28
0001
0000
0000
0000
0000
0000
0000
0000
3002
0000
0000
0000
0000
0000
0000
0000
1003
0000
0100
0000
0010
0000
0001
0010
0001
0000
0100
0000
0000
0000
0010
0000
,  // measure 29
1000
0000
1000
0000
0001
0000
0100
0010
0100
0000
0001
0000
1000
0100
1000
0100
1000
0000
1000
0000
0010
0000
0100
0001
0100
0000
0010
0000
0000
0000
1000
0000
,  // measure 30
0001
0000
0001
0000
0100
0000
0010
1000
0010
0000
0100
0000
0001
0100
0001
0100
0001
0000
0001
0000
0010
0000
0100
1000
0100
0000
0010
0000
0000
0000
0010
0000
,  // measure 31
0001
0000
0100
0000
0010
0000
1000
0001
1000
0000
0001
0000
0100
0010
0100
0010
0100
0000
0100
0000
0001
0000
0010
0100
0010
0000
0001
0000
0000
0000
1000
0000
,  // measure 32
0001
0100
0001
0100
0001
0100
0001
0100
0010
1000
0010
1000
0010
1000
0010
1000
0001
0000
0100
0000
0010
0000
1000
0000
0010
0000
0100
0000
0001
0000
0010
0000
,  // measure 33
0100
1000
0100
0010
0001
0010
0001
0100
1000
0100
0001
0010
0100
1000
0001
0010
,  // measure 34
0100
1000
0100
0010
0001
0010
0001
0100
0002
0000
0000
0000
0203
0000
0000
0000
,  // measure 35
2300
0000
0000
0000
3020
0000
0000
0000
0031
0100
0010
1000
0001
0100
0010
1000
,  // measure 36
0001
0010
0100
1000
0001
0010
0100
1000
0001
0010
0100
1000
1000
0100
0010
0001
,  // measure 37
1000
0100
0010
0001
0010
0100
1000
0002
1003
0100
0010
0001
0010
0100
1000
0100
,  // measure 38
0010
0100
1000
0100
0010
0100
0010
0100
1000
0100
0010
0100
1000
0100
0010
0001
,  // measure 39
0100
0010
0100
0001
0010
0100
1000
0010
0100
0010
1000
0100
0010
0001
0010
0001
,  // measure 40
0010
0100
0010
0100
1000
0100
1000
0001
0100
0010
1000
0001
1000
0100
0010
0001
,  // measure 41
1000
0100
0010
0001
1000
0100
1000
0100
1000
0100
0010
0001
0010
0001
0010
0100
,  // measure 42
1000
0100
1000
0100
1000
0100
0010
0100
1000
0010
0100
0001
0100
0001
0100
0010
,  // measure 43
0100
0010
0100
0001
0010
0001
0010
0100
1000
0100
0010
0100
1000
0100
0010
0001
,  // measure 44
1000
0100
0010
0001
0010
0001
0010
0100
0010
0001
0010
0100
0010
0100
1000
0100
,  // measure 45
0010
0001
0010
0100
1000
0001
1000
0001
1000
0100
0010
0001
1000
0100
0010
0001
,  // measure 46
1000
0100
0010
0001
1000
0100
0010
0001
1000
0010
0100
0001
1000
0010
0100
0001
,  // measure 47
1000
0010
0100
0001
1000
0010
0100
0001
1000
0100
0010
0001
0010
0100
1000
0100
,  // measure 48
0010
0100
1000
0100
0010
0001
0010
0100
0010
0100
1000
0100
0010
0100
0010
0001
,  // measure 49
0010
0100
0010
0001
0010
0100
1000
0010
0100
0001
0100
0010
1000
0010
0100
0010
,  // measure 50
0100
0001
0010
0100
1000
0100
0010
0100
1000
0100
0010
0001
1000
0100
0010
0001
,  // measure 51
1000
0100
1000
0100
0010
0001
0010
0001
1000
0010
0100
0001
0100
0010
1000
0010
,  // measure 52
1000
0001
0100
0010
0100
0001
0010
0100
1000
0100
0010
0001
1000
0100
0010
0001
,  // measure 53
1000
0010
0100
0001
1000
0010
0100
0001
2000
0000
0000
0000
3010
0000
0100
0000
,  // measure 54
0002
0000
0000
0000
1000
0000
0000
0000
2003
0000
0000
0000
3010
0000
0100
0001
,  // measure 55
0100
0010
1000
0010
0200
0000
0301
0010
,  // measure 56
0200
0000
1000
0000
1300
0100
0010
0001
,  // measure 57
0100
0010
1000
0001
0200
0000
0310
1000
,  // measure 58
0002
0000
0000
0000
0010
0000
0000
0000
0023
0000
0000
0000
0130
0000
1000
0100
,  // measure 59
1000
0010
0100
0001
1000
0100
0010
0001
,  // measure 60
1000
0010
0100
0001
1000
1100
0110
0011
,  // measure 61
2001
0000
3010
0100
0002
0000
0010
0000
,  // measure 62
0023
0000
0000
0000
0130
0000
1000
0100
0010
0000
0001
0000
0100
0000
0010
0000
,  // measure 63
2000
0000
3010
0100
0002
0000
1000
0000
,  // measure 64
1003
0100
1000
0010
0100
0001
0010
0100
,  // measure 65
1M0M
0000
M01M
0000
M1M0
01MM
0000
MM01
,  // measure 66
0MM1
M0M1
0000
M10M
0000
0M1M
0000
1M0M
,  // measure 67
1MM0
10MM
0020
0000
M13M
M1M0
0002
0000
,  // measure 68
1003
1100
0110
0011
1001
1000
0010
0100
,  // measure 69
0010
1000
0100
0010
0001
0010
0100
0010
,  // measure 70
0001
0010
0100
1000
0001
0010
0100
1000
,  // measure 71
0100
0010
0001
1000
0100
0010
0001
1000
,  // measure 72
0010
0100
0001
1000
0010
0100
0001
0010
,  // measure 73
0100
1000
0100
0010
0001
0010
0100
1000
,  // measure 74
0100
0010
0100
1000
0001
0001
0100
0010
,  // measure 75
1000
0010
0100
0001
0101
0000
0110
0000
,  // measure 76
2010
0000
0001
0000
3001
0100
0001
0100
,  // measure 77
0010
1000
0010
1000
0001
0010
0100
1000
,  // measure 78
0001
0010
0100
1000
0001
0001
0100
0010
,  // measure 79
1000
0010
0100
0001
0010
0010
0100
1000
,  // measure 80
0100
0010
0001
0100
M1M1
0000
M11M
0000
,  // measure 81
10MM
1M0M
0000
M0M1
0MM1
MM01
0000
M1M1
,  // measure 82
0000
M11M
0000
MM10
M01M
0M1M
2000
0000
,  // measure 83
3MM1
M0M1
0020
0000
0130
0000
1100
0000
,  // measure 84
1001
0000
0000
0000
0101
0000
0000
0000
1000
0100
1000
0100
0010
0001
0010
0100
,  // measure 85
1000
0100
0010
0100
1000
0100
0010
0001
0100
0010
1000
0100
1000
0010
0100
0001
,  // measure 86
0010
0001
0010
0100
1000
0100
1000
0001
2000
0000
0000
0000
3020
0000
0000
0000
,  // measure 87
0032
0000
0000
0000
0203
0000
0000
0000
1300
0100
0010
0001
1000
0100
0010
0001
,  // measure 88
1000
0010
0100
0001
1000
0010
0100
0001
1000
0100
0010
0001
0001
0010
0100
1000
,  // measure 89
0001
0001
0010
0010
0100
0100
1000
1000
2002
0000
0000
0000
0000
0000
0000
0000
,  // measure 90
3003
0000
0000
0000
;

//---------------dance-single - ----------------
#NOTES:
     dance-single:
     :
     Hard:
     9:
     0.635,0.923,0.100,0.293,0.207:
0000
0000
0000
0000
,
1000
0100
0010
0001
0100
0010
1000
0010
,
0100
0000
0000
0100
0000
0000
0100
0000
0100
0000
0000
0000
0001
0000
0000
0000
,
1000
0000
0100
0010
0100
1000
0010
0100
,
0001
0101
0101
0100
,
0010
0010
1000
1000
0001
0010
0100
1000
,
0001
0000
0000
0001
0000
0000
0001
0000
0001
0000
0000
0000
1000
0000
0000
0000
,
0010
0000
0100
0001
0100
0010
1000
0001
,
1000
0000
0000
1000
0000
0000
1000
0000
0001
0000
0000
0001
0000
0000
0001
0000
1000
0000
0000
0000
0000
0000
0000
0000
0010
0000
0000
0000
0000
0000
0000
0000
,
0100
0001
0000
0100
0010
1000
0000
0001
,
0000
0020
0000
0000
0130
0000
1000
0000
,
0010
0100
0000
0010
1000
1000
0000
1000
,
0000
1000
0000
1000
0001
0000
0100
0000
,
0010
1000
0000
0010
0100
0001
0000
0010
,
0000
0100
0000
1000
0001
0000
0100
0000
,
0010
0000
1000
0000
0000
0000
0001
0000
1000
0100
1000
0100
1000
0100
1000
0100
,
1000
0000
0010
0000
0100
0001
0000
0100
,
0010
0100
0000
0001
0000
0020
0000
0000
,
0130
0000
1000
0000
0010
0100
0000
0001
,
0000
0010
0000
0001
0000
0010
0000
0100
,
1000
0000
1100
0000
0100
0010
0000
0001
,
0010
0100
0000
1100
0000
0101
0000
0001
,
0100
0100
0010
0000
1000
1000
0000
0001
,
2000
0000
0000
0000
3020
0000
0000
0100
,
0230
0000
0302
0000
,
0000
0000
1000
1000
2003
0000
3200
0000
,
0320
0032
0203
0000
,
0000
0000
0000
0000
0310
0000
0000
0000
1000
0100
0010
0001
0100
0010
0000
1000
,
0100
1000
0100
0010
0001
0100
0010
0000
1000
0100
1000
0010
0100
0001
0000
1000
,
0100
1000
0010
0100
0001
0010
0100
0000
0010
0001
0010
0001
0100
0010
0000
1000
,
0010
0100
0001
0100
0010
0100
0001
0000
1000
0100
1000
0100
1000
0010
0000
0100
,
0001
1000
0001
1000
0001
1000
0001
1000
0001
0000
0100
0000
0010
0000
1000
0000
,
0100
0010
0001
1000
0100
1000
0010
0100
,
0001
0010
0200
0000
2300
0000
3020
0000
,
0230
0000
0302
0000
1003
0100
0010
0001
,
1000
0000
0100
0000
0010
0000
0001
0000
1000
0100
1000
0100
1000
0100
1000
0100
,
0010
0001
0010
0001
0010
0001
0010
0001
1000
0000
0100
0000
0001
0000
0100
0000
,
1000
0010
0100
0001
0010
1000
0010
0001
,
0100
0010
1000
0010
0001
0010
0100
0001
,
0010
1000
0010
0001
0010
0100
0010
1000
,
0010
0001
0100
0010
0100
1000
0100
0001
,
0010
0001
0010
0100
1000
0100
0010
0001
,
0100
1000
0100
0010
0100
1000
0100
0001
,
0100
0010
1000
0010
0001
0010
1000
0100
,
1000
0100
0010
0001
1000
0100
0001
0100
,
1000
0010
0001
0010
1000
0100
1000
0010
,
0100
0010
0001
0010
0100
0001
0010
0100
,
1000
0100
0010
0100
1000
0100
0001
0100
,
1000
0100
0010
0100
1000
0010
0100
0001
,
0010
0100
0010
0001
0100
0010
1000
0100
,
1000
0010
0001
0010
1000
0100
1000
0010
,
0001
0010
1000
0100
0011
0000
0110
0000
,
1100
0000
1001
0000
2001
0000
0000
3010
,
0200
0000
0000
0000
0000
0000
0000
0000
0302
0000
0000
0000
0000
0000
1003
0100
,
1000
0100
0010
0001
0200
0000
0000
0310
,
2000
0000
0000
0000
3001
0100
0001
0100
,
0010
1000
0001
0000
2000
0000
0000
3100
,
0020
0000
0000
0000
0000
0000
0000
0000
0032
0000
0000
0000
0000
0000
0103
0010
,
0100
0001
0010
0100
2000
0000
0000
3010
,
0200
0000
0000
0000
0301
0001
0001
0001
,
2000
0000
0000
3010
0200
0000
0000
0000
,
0302
0000
0000
0000
0000
0000
1003
0100
1000
0000
0010
0000
0100
0000
0001
0000
,
0200
0000
0000
0310
2000
0000
0000
0000
,
3001
0010
0001
0100
0010
1000
0001
0000
,
1100
0000
1001
0000
0001
0100
0000
0010
,
0100
0001
0000
0100
0000
0001
0000
1000
,
0100
1000
0020
0000
0130
0100
0002
0000
,
1003
1000
1000
1000
1000
0100
1000
0000
,
0010
0000
0100
0001
0010
0000
0100
0000
,
1000
0000
0010
0100
0001
0000
0100
0000
,
0010
1000
0010
0100
,
0001
0010
0001
0100
0001
0000
0100
0010
,
1000
0000
0001
0010
0100
0000
1000
0100
,
1000
0000
0010
0100
0001
0000
1000
0000
,
0010
0000
0100
0000
0001
0000
0001
1000
,
0001
0000
0001
1000
0001
0000
0100
0000
,
0010
0000
1000
0000
0001
0010
0100
0000
,
1000
0000
0010
0100
0100
0000
0001
0000
,
0100
0010
1000
0001
,
0010
0100
1000
0100
1100
0000
0110
0000
,
0010
0001
0000
0001
0100
0010
0000
1000
,
0000
0001
0000
0010
0100
0100
2000
0000
,
3001
0001
0200
0000
0301
0000
0010
0000
,
0100
0000
1000
0000
0001
0100
0010
1000
,
0010
0100
0001
0010
0100
1000
0001
0100
,
0010
1000
0020
0000
0230
0000
0302
0000
,
0023
0000
0230
0000
1300
0100
0010
0001
,
0100
0000
0010
0000
1000
0000
0001
0000
1000
0100
1000
0100
1000
0100
1000
0100
,
0010
0001
0010
0001
0010
0001
0010
0001
2000
0000
0000
0000
0000
0000
0000
0000
,
3000
0000
0000
0000
;

//---------------dance-single - ----------------
#NOTES:
     dance-single:
     :
     Medium:
     7:
     0.452,0.541,0.150,0.222,0.000:
0000
0000
0000
0000
,
1000
0100
1000
0000
0001
0100
0001
0000
,
0100
0010
1000
0001
,
1000
0000
0001
0100
0010
0000
1000
0100
,
1000
1100
1100
1001
,
0101
0100
0010
0000
1000
0100
1000
0000
,
0010
0010
0100
0001
,
1000
0000
0100
0000
0010
0001
0010
0100
,
1000
1000
1000
1000
0001
0000
0100
0000
,
0010
0100
0000
0010
0100
0000
0000
0001
,
0000
0010
0000
0000
0100
0000
1000
0000
,
0010
0100
0000
0000
0001
0001
0000
0001
,
0000
0001
0000
0001
0001
0000
0100
0000
,
0010
1000
0000
0010
1000
1000
0000
0001
,
0000
0010
0000
0000
0100
0000
1000
0000
,
0010
0010
0000
0100
0001
1000
0001
1000
,
0001
0000
0100
0000
0010
0100
0000
0010
,
0100
0000
0000
0001
0000
1000
0000
0000
,
0001
0000
0010
0000
0001
0100
0000
0001
,
0000
0001
0000
0100
0000
0100
0000
0010
,
0010
0000
1000
0000
0001
0001
0000
0100
,
0100
0100
0000
0010
0000
0010
0000
1000
,
1000
1000
0000
0000
0001
0001
0000
1000
,
0002
0000
2003
0000
,
3020
0000
0230
0000
,
0000
0000
0001
0001
0301
0000
0010
0000
,
0100
1000
0002
0000
,
0000
0000
0100
0000
0103
0010
0100
0010
,
1000
0001
1000
0001
1000
0100
0010
0001
,
1000
0100
0010
0001
0100
0010
1000
0010
,
0100
0001
0010
0100
1000
0100
0010
0001
,
1000
0001
1000
0001
2000
0000
0000
0000
,
0000
3010
0200
0000
,
0000
0301
0010
0001
,
0100
0010
1000
1000
,
0001
0001
1000
0100
,
0010
0000
0001
0000
1000
0100
0010
0000
,
0001
0010
0100
0000
1000
0100
1000
0000
,
0001
0100
0001
0000
1000
0010
1000
0000
,
0001
0010
0001
0000
1000
0010
0100
0000
,
0001
0100
0010
0000
1000
0000
0000
0001
,
0000
0000
1000
0000
0010
0100
0001
0000
,
0100
0010
1000
0000
0001
0010
0100
0000
,
0010
0001
1000
0000
1100
0000
1100
0000
,
0101
0000
0101
0000
0001
0100
0010
0000
,
1000
0010
0100
0000
0001
0010
0100
0000
,
1000
0100
0010
0000
0001
0010
0001
0000
,
1000
0100
1000
0000
0010
0100
0010
0000
,
0100
0010
0100
0000
0001
0000
0000
0010
,
0000
0000
0100
0000
1000
0100
1000
0000
,
0010
0100
0001
0000
0100
0010
1000
0000
,
0001
0010
0100
0000
1100
0000
1100
0000
,
0101
0101
2000
0000
,
3020
0000
0230
0000
,
0301
0010
0100
1000
0002
0000
0000
0000
,
0203
0000
0310
1000
,
0010
0100
0002
0000
,
0023
0000
0230
0000
,
1300
0100
1000
0010
0200
0000
0000
0000
,
0302
0000
0000
0000
1003
1000
0001
0001
,
2000
0000
3020
0000
,
0230
0000
0000
0000
0301
0010
0001
0010
,
0200
0000
2300
0000
,
3001
0100
0010
1000
,
0002
0000
0203
0000
,
0320
0000
0000
0000
1030
0100
1000
0001
,
0200
0000
0320
0000
,
1030
1000
0001
0001
1000
0000
0001
0000
,
0100
0010
1000
0010
,
0100
0001
0010
0100
,
1000
0100
0010
0001
,
0100
0010
1000
0010
,
0100
0001
0010
0100
,
1000
0100
1000
0010
,
0100
0001
1100
1100
,
0101
0101
1000
0010
,
0100
0001
0100
0010
,
1000
0001
0010
0100
,
1000
0001
0010
0100
,
1000
0010
0100
0100
,
0001
0001
0000
1000
1000
1000
0000
0010
,
0000
0010
0000
0100
0100
0100
0000
0000
,
0001
0001
0000
0000
1100
0000
0110
0000
,
0011
1001
2000
0000
,
0000
3010
0200
0000
,
0000
0301
0010
0001
,
0100
0010
1000
0100
,
0010
0001
1000
0010
,
1000
1000
0001
0001
2002
0000
0000
0000
,
3003
0000
0000
0000
;

//---------------dance-single - ----------------
#NOTES:
     dance-single:
     :
     Easy:
     4:
     0.302,0.382,0.057,0.072,0.000:
0000
0000
0000
0000
,
1000
0100
0010
0001
,
1000
0000
1000
0000
,
0001
0100
0001
0100
,
0010
0010
0010
0000
,
1000
0001
0010
0100
,
1000
0000
0001
0000
,
0100
0010
1000
0001
,
2000
3000
0001
0100
,
0010
0000
1000
0000
,
0001
0000
0010
0100
,
1000
0000
0010
0000
,
0010
0000
0010
1000
,
0001
0000
0010
0000
,
0100
0000
1000
0100
,
1000
0000
0001
0001
,
0100
0010
1000
0000
,
0001
0000
0010
0000
,
0001
0010
0100
0000
,
1000
0000
1000
0000
,
0001
0001
0100
0000
,
0010
0000
1000
0000
,
0001
0001
0100
0100
,
0002
0000
1003
0000
,
0100
0000
0020
0000
,
0030
0001
0100
0100
,
0010
0010
2000
0000
,
3000
0001
0001
0100
,
0010
1000
0010
0100
,
0001
0010
0100
1000
,
0100
0010
0001
0100
,
0010
1000
0002
0000
,
0003
0010
0200
0000
,
0300
1000
0010
1000
,
0010
0100
0001
0000
,
0001
0000
1000
0000
,
1000
0000
1001
0001
,
0100
0010
1000
0010
,
0100
0001
0010
0100
,
1000
0001
0010
0100
,
1000
0010
0100
0001
,
0100
0010
1000
0010
,
0100
0001
0010
0100
,
1000
0001
0010
0100
,
1000
0100
0010
0001
,
1000
0100
0010
0001
,
1000
0010
0100
0001
,
0100
0010
1000
0010
,
0100
0001
0010
0100
,
1000
0010
0100
0001
,
0100
0010
1000
0001
,
0010
0100
1100
1100
,
1100
1100
1001
0000
,
0100
0000
0010
0000
,
1000
0100
1000
0000
,
0010
0000
0100
0001
,
0010
0100
1000
0000
,
0010
0000
0100
0000
,
0001
0100
0010
0000
,
1000
0000
0001
1000
,
0001
0000
0010
0000
,
0100
0000
1000
0100
,
1000
0000
0010
0000
,
0100
0001
0100
0001
,
1000
0000
0010
0000
,
0100
0000
0001
0010
,
0001
0000
0010
0000
,
1000
1000
1000
0100
,
0010
0001
1000
0100
,
0010
0001
1000
0010
,
0100
0001
1000
0010
,
0100
0001
1000
0100
,
1000
0100
0010
0001
,
0010
0001
1000
0010
,
0100
0001
1000
1000
,
1000
1000
0001
0100
,
0001
0100
0010
0100
,
0010
0100
0010
1000
,
0010
1000
0001
1000
,
0001
1000
0001
0001
,
0010
0000
0100
0000
,
1000
0000
0001
0000
,
0100
0000
0010
1000
,
0001
1000
1002
0000
,
0003
1000
2000
0000
,
3000
0010
0100
0100
,
0001
0001
1000
0000
,
0001
0000
0100
0000
,
0010
0000
2002
0000
,
3003
0000
0000
0000
;

//---------------dance-single - ----------------
#NOTES:
     dance-single:
     :
     Beginner:
     2:
     0.135,0.190,0.007,0.000,0.000:
0000
0000
0000
0000
,
0000
0000
0000
0000
,
0000
0000
0000
0000
,
0000
0000
0000
0000
,
0000
0000
0000
0000
,
0000
0000
0000
0000
,
0000
0000
0000
0000
,
0000
0000
0000
0000
,
0000
0000
1000
0000
,
1000
0000
0001
0000
,
0000
0000
0001
0000
,
0001
0000
0100
0000
,
0000
0000
0100
0000
,
0100
0000
0010
0000
,
0000
0000
1000
0000
,
0100
0000
1000
0000
,
0001
0000
0001
0000
,
0100
0000
0000
0000
,
0010
0000
0010
0000
,
1000
0000
0000
0000
,
0001
0000
0010
0000
,
0100
0000
0000
0000
,
1000
0000
0100
0000
,
1000
0000
1000
0000
,
0001
0000
0100
0000
,
0000
0000
0010
0000
,
0010
0000
1000
0000
,
0000
0000
0001
0000
,
0001
0000
0100
0000
,
0000
0000
0100
0000
,
0010
0000
1000
0000
,
0000
0000
0001
0000
,
0000
0000
0100
0000
,
0000
0000
0010
0000
,
0010
0000
1000
0000
,
0000
0000
0000
0000
,
0000
0001
0001
0000
,
0001
0000
0100
0000
,
0100
0000
0010
0000
,
0010
0000
1000
0000
,
1000
0000
0001
0000
,
0001
0000
0001
0000
,
0001
0000
0100
0000
,
0100
0000
0010
0000
,
0010
0000
1000
0000
,
0100
0000
1000
0000
,
0100
0000
0010
0000
,
0001
0000
0010
0000
,
0001
0000
1000
0000
,
0010
0000
1000
0000
,
0010
0000
0100
0000
,
0001
0000
1000
1000
,
1000
1000
1000
0000
,
1000
0000
0001
0000
,
0000
0000
0100
0000
,
0100
0000
0010
0000
,
0000
0000
0010
0000
,
0010
0000
0100
0000
,
0000
0000
0001
0000
,
0001
0000
1000
0000
,
1000
0000
1000
0000
,
0010
0000
0000
0000
,
0010
0000
0010
0000
,
0100
0000
0000
0000
,
0001
0000
0001
0000
,
0010
0000
0000
0000
,
0100
0000
0100
0000
,
1000
0000
1000
0000
,
0000
0000
0001
0000
,
0000
0000
0100
0000
,
0000
0000
0000
0000
,
0100
0000
0010
0000
,
0010
0000
1000
0000
,
1000
0000
0001
0000
,
0000
0000
0000
0000
,
0001
0000
0001
0000
,
0000
0000
0001
0000
,
0000
0000
0100
0000
,
0000
0000
0000
0000
,
0100
0000
0010
0000
,
0010
0000
0010
0000
,
0100
0000
0100
0000
,
0000
0000
0000
0000
,
0001
0000
0001
0000
,
0000
1000
1000
0000
,
0000
0001
0001
0001
,
0001
0001
0001
0000
,
0000
0000
0000
0000
,
1000
0000
1001
0000
;
