#TITLE:Freezing On Me;
#SUBTITLE:;
#ARTIST:IOSYS;
#TITLETRANSLIT:;
#SUBTITLETRANSLIT:;
#ARTISTTRANSLIT:;
#CREDIT:;
#BANNER:Freezing on Me - BN.png;
#BACKGROUND:Freezing on Me - BG.png;
#LYRICSPATH:;
#CDTITLE:;
#MUSIC:FREEZING ON ME.ogg;
#OFFSET:0.000;
#SAMPLESTART:61.893;
#SAMPLELENGTH:12.000;
#SELECTABLE:YES;
#BPMS:0.000=128.000;
#STOPS:;
#BGCHANGES:;

//---------------dance-single - ----------------
#NOTES:
     dance-single:
     :
     Challenge:
     9:
     0.616,0.727,0.396,0.334,0.150:
0000
0000
0000
0000
,
0000
0000
0000
0000
,
0000
0000
0000
0000
,
0000
0000
0000
0000
,
1001
0001
0100
0010
00M0
0100
0001
1000
,
M000
0001
0010
0001
000M
1000
0100
0010
,
00M0
0001
0010
0100
0M00
1000
0100
1000
,
M000
0000
0010
0000
0100
0000
0001
0000
1000
0100
M000
0100
1000
0000
0010
0000
,
2000
0000
0010
3010
0100
0001
1000
0001
,
0010
0000
0100
0000
1000
0000
0001
0000
0000
0000
1000
0100
1000
0000
0010
0000
,
0200
0000
0000
0000
0001
0000
0301
0000
0000
0000
1000
0100
1000
0000
0010
0000
,
0000
0200
0000
0301
2000
0000
3010
0100
,
1001
0000
0001
0100
0001
0000
0001
0000
1000
0000
0001
0010
0001
0000
0001
0000
,
1000
0000
0010
0100
0010
0000
0010
0000
1000
0000
0001
0100
0001
0000
0001
0000
,
1000
0000
0100
0010
0100
0000
0100
0000
1000
0000
0001
1000
0001
0000
0001
0000
,
0100
0000
0000
0010
0000
0000
0100
0000
0001
0000
0000
0000
1000
0000
0000
0000
0001
0000
0100
0000
0010
0000
1000
0000
0001
0000
0000
0000
1000
0000
0000
0000
,
0001
0100
0001
0100
0010
0100
0010
0100
0010
1000
0010
1000
0001
0000
M0MM
0000
,
1001
0001
0100
0010
1000
0010
0100
0100
,
0001
00M0
2000
0010
3001
0010
0100
2100
,
0000
3100
0010
0100
1000
0010
0100
0002
,
0200
0010
1000
0313
,
1001
0000
1000
0100
1000
0010
0100
0001
,
1000
0M00
0001
0001
0100
0100
0010
2000
,
00M0
3001
0100
0010
1000
0010
0100
0001
,
1000
M000
0100
0M00
0001
000M
0010
00M0
,
1001
0000
1000
0100
0010
0100
1000
0001
,
0100
0000
0002
0100
1003
0010
0100
0002
,
0000
0013
0100
0010
0001
1000
0100
0020
,
0200
0001
1000
0331
,
1001
0000
0001
0100
0001
0100
1000
0100
,
0001
00M0
1000
1000
1000
0M00
0001
0101
,
000M
0100
0010
1000
0010
0100
0001
1000
,
0001
0100
0101
1101
,
1001
0001
0011
0011
0001
0001
0101
0101
,
0001
0001
1001
1001
0001
0011
0101
1001
,
1000
1000
1100
1100
1000
1000
1010
1010
,
1000
0100
0010
0002
0000
0013
0100
0000
,
0110
0100
0110
0110
0100
0100
1100
1100
,
0100
0100
0101
0101
0100
0101
1100
0110
,
0010
0010
0011
0011
0010
0110
1010
1010
,
0110
0010
0001
2000
0000
0010
3002
0000
,
1003
0100
1000
0100
0010
0001
0010
0001
1000
0001
1000
0001
2000
0000
0001
0000
,
3001
0200
0010
0310
1000
0001
0100
0010
,
0100
0001
0010
0100
1000
0002
0100
0100
,
0103
0020
1000
1030
0001
0010
0001
0100
,
1000
0100
0001
1000
0001
0001
0100
0200
,
0010
0300
0001
0100
1000
0100
0002
1000
,
0003
0100
0010
0010
1000
1000
0002
0003
,
MMM0
0000
2001
0000
0001
3100
0110
0000
,
0002
0000
1000
0000
1003
0001
1000
0000
1000
0100
1000
0000
0002
0000
1000
0000
,
2003
0010
3010
0200
0001
0301
1000
0100
,
1000
0000
0010
0100
0010
0000
0100
0010
0100
0000
0001
0000
2000
0000
0001
0000
,
0002
3000
0100
0200
0003
0301
0010
0100
,
1000
0000
0010
0000
0100
0000
0001
0100
0001
0000
0100
0000
0020
0000
1000
0000
,
1030
0000
0000
0000
0001
0000
0010
0100
0010
0000
0001
0000
2000
0000
0001
0000
,
3000
0001
0100
0010
1000
0001
0200
0301
,
1001
0000
0000
0000
2200
0000
0000
0000
0001
0000
0301
0000
3100
0000
0100
1000
,
0100
0000
0010
0000
0001
0000
0100
0010
0100
0000
0001
0000
1000
0000
0001
0000
,
2002
0000
0000
0000
,
3003
0000
0000
0000
;

//---------------dance-single - ----------------
#NOTES:
     dance-single:
     :
     Hard:
     7:
     0.449,0.467,0.185,0.132,0.004: // measure 1
0000
0000
0000
0000
,  // measure 2
0000
0000
0000
0000
,  // measure 3
0000
0000
0000
0000
,  // measure 4
0000
0000
0000
0000
,  // measure 5
1000
0100
1000
0100
0000
0010
0001
0100
,  // measure 6
0000
0010
1000
0001
0000
0100
0001
0100
,  // measure 7
0000
0010
1000
0001
0000
0010
0100
1000
,  // measure 8
0000
0001
0100
0010
1000
0000
0001
0100
,  // measure 9
0002
0000
1000
1000
1003
0100
0010
0100
,  // measure 10
1000
0001
0100
0010
0000
1000
0100
1000
,  // measure 11
0002
0000
0100
0103
0000
0010
0100
0010
,  // measure 12
0000
1000
0001
1000
0001
0000
0100
0010
,  // measure 13
1000
0001
0010
0100
0000
1000
0100
0010
,  // measure 14
0000
0001
0100
0001
0000
1000
0100
1000
,  // measure 15
0000
0001
0010
0100
0000
1000
0010
0100
,  // measure 16
0000
0001
0100
0010
1000
0000
0001
2000
,  // measure 17
0000
0000
0000
3001
,  // measure 18
1001
0000
0001
0100
0010
1000
0010
0100
,  // measure 19
0001
0000
1000
1000
0001
0000
0100
0010
,  // measure 20
0000
1000
0010
0100
0001
0010
0100
1000
,  // measure 21
0001
0101
0110
1010
,  // measure 22
1001
0000
1000
0100
1000
0010
0100
0001
,  // measure 23
1000
0000
0001
0000
0100
0000
0010
1000
,  // measure 24
0000
0001
0100
0001
0100
0010
1000
0001
,  // measure 25
1000
1000
1000
1000
,  // measure 26
1001
0000
0001
0100
0010
0100
0001
0010
,  // measure 27
0100
0000
1000
1000
0001
0000
0100
0010
,  // measure 28
0000
0100
0010
1000
0010
0100
0001
0010
,  // measure 29
0100
1100
1001
0101
,  // measure 30
1001
0000
1000
0100
1000
0010
0100
0001
,  // measure 31
1000
0000
0002
0000
0000
0000
1003
1000
,  // measure 32
0000
0010
0100
0010
0100
0001
0010
0100
,  // measure 33
1000
1001
0101
1001
,  // measure 34
1100
1000
0100
0100
0010
0001
1000
1000
,  // measure 35
0010
0100
0001
0001
0010
0100
0100
0100
,  // measure 36
1000
0010
0100
0100
0001
0100
0010
0010
,  // measure 37
1000
0100
1000
0200
0000
0010
0310
0000
,  // measure 38
1001
0001
0100
0100
0010
1000
0010
0010
,  // measure 39
0100
0001
1000
1000
0100
0010
0010
0010
,  // measure 40
0001
0100
0001
0001
0100
0010
1000
1000
,  // measure 41
0001
0100
0001
0200
0000
0010
0020
0000
,  // measure 42
0330
0000
0000
0000
0000
0000
1000
0001
,  // measure 43
1001
0000
1000
0100
0000
0000
0001
0000
,  // measure 44
0100
0000
0010
0000
1000
0000
0001
0100
,  // measure 45
0001
0000
0100
0010
0000
0000
1000
0000
,  // measure 46
0001
0000
0010
0000
0100
1000
0100
0010
,  // measure 47
0001
0000
0100
0000
0010
1000
0010
0200
,  // measure 48
0000
0301
0010
0100
1000
0100
2000
0000
,  // measure 49
3000
0000
1001
0000
0001
0100
0110
0010
,  // measure 50
1000
0000
1000
0000
1000
0000
1000
0000
1000
0001
1000
0000
1000
0000
0001
0000
,  // measure 51
1001
0000
0001
0100
0000
0000
0010
0000
,  // measure 52
1000
0000
0010
0000
0100
0000
0001
0010
,  // measure 53
0001
0000
0100
0010
0000
0000
1000
0000
,  // measure 54
0100
0000
0010
0000
1000
0100
0020
0000
,  // measure 55
0031
0000
0100
0000
0010
1000
0010
0200
,  // measure 56
0000
0301
1000
0100
1000
0010
0200
0000
,  // measure 57
0301
0000
2000
0000
3100
0010
0000
0001
,  // measure 58
1001
1000
0100
0010
0001
1000
0001
1000
,  // measure 59
2002
0000
0000
0000
,  // measure 60
3003
0000
0000
0000
;

//---------------dance-single - ----------------
#NOTES:
     dance-single:
     :
     Medium:
     5:
     0.347,0.389,0.141,0.106,0.000:
0000
0000
0000
0000
,
0000
0000
0000
0000
,
0000
0000
0000
0000
,
0000
0000
0000
0000
,
1001
0000
1000
1000
0000
0000
0001
0001
,
0000
0000
0100
0100
0000
0000
0010
0010
,
0000
0000
1000
0001
0000
0000
0001
0100
,
0000
0000
0100
0010
1000
0000
0001
1000
,
0002
1000
0203
0010
,
0301
0000
0100
0000
0010
0000
1000
0100
,
2000
0010
3002
0100
,
0013
0000
0100
0000
1000
0000
0001
1000
,
1001
0000
0001
0100
0000
0000
0100
0010
,
0000
0000
0010
1000
0000
0000
1000
0001
,
0000
0000
0001
0010
0000
0000
0010
0100
,
0000
0000
0100
1000
0001
0000
1000
0001
,
2002
0000
0000
3003
,
1001
0000
1000
0100
0010
0000
0001
0100
,
0001
0200
0300
0001
,
1000
0000
0001
0010
0100
0000
1000
0100
,
1000
0001
0100
0010
,
1001
0000
0001
0100
0010
0000
1000
0100
,
1000
0001
0100
0010
,
1000
0000
0001
0100
0010
0000
0010
1000
,
0001
0100
0010
1000
,
0001
0000
0100
0010
0100
0000
0001
1000
,
0001
0020
0030
0100
,
1000
0000
0001
0100
0010
0000
1000
0001
,
0100
0010
1000
0001
,
1000
0000
0001
0010
0100
0000
1000
0100
,
1000
0001
0100
0010
,
1000
0000
0001
0010
0100
0000
1000
0100
,
1000
0010
0100
0001
,
1000
0000
0001
0001
0000
0000
0100
0100
,
0000
0000
0010
0010
0000
1000
1000
1000
,
0000
0000
0001
0001
0000
0000
0010
0010
,
0100
1000
0100
0010
0000
0000
1001
0000
,
0001
0000
0100
0010
0000
0000
0010
1000
,
0000
0000
1000
0001
0000
0001
1000
0100
,
0000
0000
0100
0010
0000
0000
0010
0001
,
1000
0100
1000
0100
0000
0000
0011
0000
,
2002
0000
0000
3003
,
1001
0001
0100
0010
,
1000
0100
1000
0010
,
0100
0001
0010
0001
,
0100
0000
0010
0000
1000
0001
1000
0001
,
0000
0000
0100
0000
0010
0100
0010
0100
,
0000
0000
0001
0100
0001
0100
0001
0000
,
1000
1001
0001
1001
,
1000
0001
1000
0001
1000
1000
0001
0000
,
1001
0001
0100
0010
,
1000
0010
0100
0001
,
1000
0100
1000
0010
,
0100
0000
0001
0000
1000
0001
1000
0001
,
0000
0000
1000
0000
0001
0100
0010
0100
,
0000
0000
0001
1000
0001
1000
0001
0000
,
1001
1000
1001
0001
,
1001
1000
0010
0100
,
2002
0000
0000
0000
,
3003
0000
0000
0000
;

//---------------dance-single - ----------------
#NOTES:
     dance-single:
     :
     Easy:
     3:
     0.243,0.285,0.141,0.106,0.000:
0000
0000
0000
0000
,
0000
0000
0000
0000
,
0000
0000
0000
0000
,
0000
0000
0000
0000
,
1001
0000
0001
0000
,
0100
0000
0010
0000
,
1000
0000
0001
0000
,
1000
0100
0010
0001
,
2000
0000
0001
0000
,
0010
0000
3100
0000
,
0002
0000
0010
0000
,
0100
0000
1003
0000
,
0001
0100
0010
1000
,
0001
0100
1000
0010
,
0001
0100
1000
0010
,
0100
0001
1000
0001
,
2002
0000
0000
3003
,
1001
0001
0100
0010
,
1000
0010
0000
0000
,
0100
0001
0010
0100
,
1000
1000
0001
0001
,
1001
1000
0010
0100
,
0001
2000
0000
3000
,
0001
0100
0010
0100
,
0001
0001
1000
1000
,
1001
0001
0100
1000
,
0010
0100
0000
0000
,
0001
0010
1000
0001
,
0100
0100
0010
0010
,
0110
0100
0001
1000
,
0001
0200
0000
0300
,
0010
1000
0010
0100
,
0010
0010
0100
0100
,
1001
0001
0000
0001
,
0000
0001
0000
0001
,
0000
1000
0000
1000
,
0001
0100
0010
1000
,
1001
0010
0000
0010
,
0000
0010
0000
0010
,
0000
0100
0000
0100
,
0010
1000
0001
1000
,
2002
0000
0000
3003
,
1000
0000
0001
0000
,
0010
0000
0100
0000
,
1000
0000
0010
0000
,
0001
0000
0100
0010
,
1000
0100
0010
0001
,
0001
0100
0010
1000
,
0000
1001
0000
1001
,
2002
0000
0000
3003
,
1000
0100
0010
0001
,
0100
0010
1000
0001
,
0100
1000
0010
0001
,
1000
0100
0010
0001
,
1000
0100
1000
0100
,
0010
0001
0010
0001
,
0110
0000
0110
0000
,
1001
1000
0010
0100
,
2002
0000
0000
0000
,
3003
0000
0000
0000
;

//---------------dance-single - ----------------
#NOTES:
     dance-single:
     :
     Beginner:
     1:
     0.099,0.179,0.026,0.000,0.000:
0000
0000
0000
0000
,
0000
0000
0000
0000
,
0000
0000
0000
0000
,
0000
0000
0000
0000
,
0000
0000
0000
0000
,
0000
0000
0000
0000
,
0000
0000
0000
0000
,
0000
0000
0000
0000
,
1000
0000
0000
0000
,
0000
0000
0000
0000
,
0001
0000
0000
0000
,
0000
0000
0000
0000
,
0010
0000
0010
0000
,
0010
0000
0010
0000
,
0100
0000
0100
0000
,
0100
0000
0000
0000
,
1000
0000
0000
0000
,
1001
0000
0000
0000
,
0010
0000
0000
0000
,
0100
0000
0000
0000
,
0001
0001
0001
0001
,
0001
0000
0000
0000
,
1000
0000
0000
0000
,
0100
0000
0000
0000
,
1000
1000
1000
1000
,
1000
0000
0000
0000
,
0010
0000
0000
0000
,
0100
0000
0000
0000
,
0010
0010
0010
0010
,
0010
0000
0000
0000
,
0100
0000
0000
0000
,
0001
0000
0000
0000
,
0100
0100
0100
0100
,
0100
0100
0000
0100
,
0000
0100
0000
0100
,
0000
0001
0000
0001
,
0001
0000
0000
0000
,
1000
1000
0000
1000
,
0000
1000
0000
1000
,
0000
0010
0000
0010
,
0010
0000
0000
0000
,
0100
0000
0000
0000
,
0110
0000
0000
0000
,
1000
0000
0000
0000
,
0001
0000
0000
0000
,
1000
0000
0000
0000
,
0001
0000
0000
0000
,
0010
0000
0000
0000
,
0100
0000
0000
0000
,
0010
0000
0000
0000
,
0001
0000
0001
0000
,
0001
0000
0000
0000
,
0100
0000
0100
0000
,
0100
0000
0000
0000
,
0010
0000
0010
0000
,
0010
0000
0000
0000
,
1000
0000
1000
0000
,
1000
0000
0000
0000
,
1001
0000
0000
0000
;
