#TITLE:Freezing On Me;
#ARTIST:IOSYS;
#FILE:FREEZING ON ME.ogg;
#BPM:128.000;
#GAP:0;
#SAMPLESTART:61.893;
#SAMPLELENGTH:12.000;
#SINGLE:SMANIAC:9:
00000000
00000000
00000000
00000000
B6280264
06860428
06820424
(0080206042024080)
4!40872646
(8020406000424080)
(2!2000603000424080)
02!2034!4072
(B062606040686060)
(4082808040626060)
(4028202040646060)
{2000008000002000600000004000000060002000800040006000000040000000}
(6262828284846000)
B6284822
604!48B821!4
01824826!6
2!208040<83>0
B0424826
40662284!4
0B284826
40206080
B0428246
206!62B826!6
09286428!8
2!206040<83>0
B0626242
60444063
02848264
602030<61>0
B6996633
66BB693B
44114477
4286!60920
A2AA2211
2233231A
88998A77
A864!408B!60
(B242868646464!4060)
B2!28A4628
268246!622
38!8476862
42646622!2
8262426!64
6288446!66
00B!4061A0
(6!6040B64042406!6040)
B!4872!26342
(4082802820604!4060)
6!6422!26382
(4080206260208!8040)
(7000608280604!4060)
4628462!23
(B0001!100060301024)
(2080602820604060)
B!B0000000
B0000000
;
#SINGLE:MANIAC:7:
00000000
00000000
00000000
00000000
42420862
08460262
08460824
06284062
6!6044B282
46280424
6!60230828
04646028
46820428
06260424
06820482
06284064!4
000000B0
B0628482
60446028
04826824
6030A070
B0424826
40602084
06262846
40404040
B0628268
20446028
02848268
2010B030
B0424826
406!6000B4
08282682
40B030B0
14228644
82668222
48226288
4242!208A0
B6228488
26442888
62662844
6262!2088!80
A0000046
B0420060
20804062
60280040
60802428
60208482!2
0382424!40
40B062A8
(4040404046404060)
B0620080
40802068
60280040
2080428!80
90208482!2
0342482!20
304!401806
B4286464
B!B0000000
B0000000
;
#SINGLE:ANOTHER:5:
00000000
00000000
00000000
00000000
B0440066
00220088
00460062
00284064
6!60403!2080
30208042
4!4080B!6020
90204064
B0620028
00840046
00680082
00246046
B!B00000B0
B0428062
602!202060
40682042
40602080
B0628042
40602080
40628084
60208040
60282064
608!808020
40628046
20804060
40682042
40602080
40682042
40802060
40660022
00880444
00660088
242800B0
60280084
00460642
00280086
42420090
B!B00000B0
B0602080
40204080
20608060
20804646
00208282
00626260
40B060B0
46464460
B0602080
40802060
40204080
20604646
00406282
00646460
B040B060
B0408020
B!B0000000
B0000000
;
#SINGLE:BASIC:3:
00000000
00000000
00000000
00000000
B0006000
20008000
40006000
40208060
4!40006000
80001000
6!60008000
2000B000
60208040
60204080
60204080
20604060
B!B00000B0
B0602080
40800000
20608020
40406060
B0408020
604!400040
60208020
60604040
B0602040
80200000
60804060
20208080
A0206040
602!200020
80408020
80802020
B0600060
00600060
00400040
60208040
B0800080
00800080
00200020
80406040
B!B00000B0
40006000
80002000
40008000
60002080
40208060
60208040
00B000B0
B!B00000B0
40208060
20804060
20408060
40208060
40204020
80608060
A000A000
B0408020
B!B0000000
B0000000
;
#SINGLE:BEGINNER:1:
00000000
00000000
00000000
00000000
00000000
00000000
00000000
00000000
40000000
00000000
60000000
00000000
80008000
80008000
20002000
20000000
40000000
B0000000
80000000
20000000
60606060
60000000
40000000
20000000
40404040
40000000
80000000
20000000
80808080
80000000
20000000
60000000
20202020
20200020
00200020
00600060
60000000
40400040
00400040
00800080
80000000
20000000
A0000000
40000000
60000000
40000000
60000000
80000000
20000000
80000000
60006000
60000000
20002000
20000000
80008000
80000000
40004000
40000000
B0000000
;
