#TITLE:Floating Darkness;
#SUBTITLE:;
#ARTIST:Tatsh;
#TITLETRANSLIT:;
#SUBTITLETRANSLIT:;
#ARTISTTRANSLIT:;
#GENRE:;
#CREDIT:;
#BANNER:Floating Darkness.png;
#BACKGROUND:Floating Darkness-bg.png;
#LYRICSPATH:;
#CDTITLE:cdtitlegpop.png;
#MUSIC:Floating Darkness.ogg;
#OFFSET:0.530;
#SAMPLESTART:89.120;
#SAMPLELENGTH:12.000;
#SELECTABLE:YES;
#BPMS:0.000=91.000,24.000=182.000,116.000=91.000,118.000=182.000,214.000=91.000,230.000=182.000,607.000=91.000;
#STOPS:422.000=0.330
;
#BGCHANGES:1.000=Floating Darkness.avi=1.000=1=0=1===CrossFade==,
99999=-nosongbg-=1.000=0=0=0 // don't automatically add -songbackground-
;
#KEYSOUNDS:;

//---------------dance-single - ----------------
#NOTES:
     dance-single:
     :
     Challenge:
     11:
     0.939,1.000,0.625,0.606,0.407:
0000
0000
0000
0000
,
0000
0000
0000
0000
,
1002
0000
1000
1000
1000
0000
2003
0000
0100
0000
0100
0000
3200
0000
0010
0000
,
0310
0010
0001
0100
0010
1000
0010
0010
0100
0001
0010
0100
2000
0000
3020
0000
,
0230
0001
0001
0302
1000
1000
2003
3200
,
0310
0010
0001
0100
0010
1000
0010
0010
0100
0001
0100
0010
1000
0001
1000
0001
,
2001
0001
3001
0100
0002
0000
0013
0100
,
2000
0001
3001
0000
0102
0000
0103
0000
,
0120
0100
0130
0001
2000
0000
3100
0010
,
0002
0000
1003
0100
1200
0000
0310
0000
,
0012
0010
0013
0100
2000
0000
3010
0100
,
0002
1000
1003
0000
2001
0000
3100
0000
,
1200
1000
1300
0010
0200
0000
0301
0010
,
0002
0000
0000
0000
0103
0000
0000
0000
0001
1000
0001
1000
0001
1000
0001
1000
,
0001
0000
0100
0000
1010
0010
0100
0000
,
0001
0000
0010
0000
1100
1000
0010
0000
,
0100
0100
0001
0000
1100
0000
0010
0000
,
0101
1001
2200
3300
,
1001
1000
0010
0000
1100
0000
0001
0000
,
0110
0010
0100
0000
1001
0000
0010
0000
,
0100
0100
0001
0000
1100
1000
0010
0000
,
0101
1001
2200
3300
,
1001
0001
0100
0000
0010
0000
1000
0000
,
0101
0001
1000
0000
0110
0000
0001
0000
,
1001
1000
0010
0000
0100
0000
0001
0000
,
1001
1000
1100
0000
2002
0003
3001
0000
,
0101
0100
0010
0000
0110
0000
1000
0000
,
0101
0001
1000
0000
1100
0000
0001
0000
,
1010
1000
0001
0000
0110
0000
0010
0000
,
1100
1001
0202
0303
0002
0100
0103
0010
,
2000
0100
3100
0010
0200
1000
1300
0010
,
0200
0001
0301
1000
0020
0100
0130
0001
,
2000
0100
3100
0010
0002
0100
0103
0010
,
2000
0001
3001
0100
0110
0010
1000
0010
,
0110
0100
0001
1000
1100
0100
1000
0010
,
0110
0100
0001
1000
1001
0001
0010
0100
,
1100
0000
1000
0000
0010
0000
1000
0100
1000
0100
0010
0001
0010
0001
1000
0010
,
4000
0004
0000
0000
0000
0000
0000
0000
0000
0000
0000
0000
3003
0000
0000
0000
0000
0000
0010
0000
0000
0000
0000
0000
,
0101
0000
1001
0000
1100
1000
0010
0000
,
0101
0000
0010
0000
1001
0001
0100
0000
,
0110
0000
1000
0000
0101
0001
1001
0000
,
2200
0300
3100
0000
1100
1000
0010
0000
,
0110
0000
0100
0000
0101
0001
1000
0000
,
0110
0000
0100
0000
1001
1000
0100
0000
,
0110
0000
0001
0100
0110
0010
1010
0000
,
2001
0001
3001
0100
0101
0001
1000
0001
,
0100
0001
0010
0001
0100
0001
0010
0001
,
1000
0001
0100
0001
0010
0001
0100
0001
,
0010
0001
1000
0001
0100
0001
0010
0001
,
2000
0001
3001
1000
1010
1000
0001
1000
,
0010
1000
0100
1000
0010
1000
0100
1000
,
0001
1000
0010
1000
0100
1000
0010
1000
,
0100
0000
1000
0000
0001
0000
1000
0000
0001
0100
0010
0100
0001
0100
0010
0100
,
0004
4000
0000
0000
0000
0000
0000
0000
0000
3003
0000
0000
0002
0000
0000
0100
0000
0000
0103
0000
0000
0010
0000
0000
,
2000
0000
0100
0000
3100
0000
0010
0001
0100
0010
1000
0010
0100
0001
0010
0100
,
2000
0000
3002
0000
0203
0010
0320
1030
2002
0000
3003
0000
1000
0100
0010
0001
,
0200
0000
0320
1000
2030
0000
3001
0100
0002
0000
0000
2003
0000
0000
3100
0010
,
0001
0100
0001
0100
0001
0100
0001
0100
0010
1000
0010
1000
0010
1000
0010
1000
0002
0000
0000
0000
1000
0000
0000
0000
1003
0000
0000
0000
0010
0000
0000
0000
,
0100
0000
0000
0001
0000
0000
1000
0000
0020
0000
0100
0000
0130
0000
0001
0000
,
1000
0000
0000
0100
0000
0000
0010
0000
0002
0000
1000
0000
1003
0000
0010
0000
,
0100
0000
0000
0001
0000
0000
1000
0000
0100
0000
0000
0010
0000
0000
0001
0000
,
0100
0010
1000
0001
2000
3200
0010
0310
,
0001
0000
0000
0100
0000
0000
0010
0000
2000
0000
0001
0000
3001
0000
0100
0000
,
0010
0000
0000
1000
0000
0000
0010
0000
0200
0000
0001
0000
0301
0000
1000
0000
,
0010
0000
0000
0100
0000
0000
0001
0000
1000
0100
0010
0001
1000
0100
0010
0001
,
0100
0010
1000
0010
0100
0001
0010
0100
2000
0000
0010
0000
3010
0000
0100
0000
,
0001
0000
0000
0100
0000
0000
0010
0000
2000
0000
0001
0000
3001
0000
0010
0000
,
0100
0000
0000
1000
0000
0000
0100
0000
0020
0000
0001
0000
0031
0000
0100
0000
,
1000
0000
0000
0100
0000
0000
0001
0000
0010
0000
0000
0100
0000
0000
1000
0000
,
0100
1000
0100
0010
0002
0203
0010
0310
,
1000
0000
0000
0001
0000
0000
0100
0000
0020
0000
1000
0000
1030
0000
0001
0000
,
0010
0000
0000
0100
0000
0000
1000
0000
1001
0000
0001
0000
0100
0000
0010
0000
,
1000
0000
0010
0000
0100
0000
0101
0000
0001
0100
0010
1000
0010
0100
0001
0010
,
0100
1000
0001
0010
0100
1000
0010
0100
0001
0000
0100
0000
0010
0000
1000
0000
,
0010
0010
0100
0002
1000
1003
0010
1000
,
0001
0001
0100
0010
1000
1000
0100
0010
,
0001
0001
0100
0020
1000
1030
0010
0100
,
0001
0001
1000
0100
1000
1000
0010
0100
,
0010
0010
0100
0002
0100
0103
0010
1000
,
0001
0000
0001
0000
0010
0000
0100
1000
0001
0000
0001
0000
0100
0000
0010
0000
,
1000
1000
0010
0200
0001
0301
0010
0100
,
1000
1000
0001
M000
10M1
0001
0100
0100
,
001M
1000
0010
0010
M100
0001
0010
0010
,
010M
1000
0100
0100
M010
0001
1000
1000
,
001M
0100
0001
0001
M100
0010
1000
1000
,
001M
0100
0001
0001
10M0
0100
1000
1000
,
001M
0100
0001
0001
M010
0100
1000
1000
,
010M
0010
0001
0001
1M01
1000
0010
0100
,
01M1
0000
0001
0000
1000
0000
0010
0000
100M
0100
1000
0100
0010
0001
0010
0001
,
1000
0100
0010
0001
0100
0010
1000
0001
1000
0000
0100
0000
0010
0000
0000
0000
,
0101
0001
1000
0000
1010
0010
0100
0000
,
0101
0001
1000
0000
1100
0100
0010
0000
,
0011
0010
0100
0000
1100
1000
1001
0001
,
0101
0100
0010
1000
1100
0100
0010
0000
,
0011
0010
0100
0000
1010
1000
0001
0000
,
0101
0100
0010
0000
1010
1000
0001
0000
,
1001
0001
0100
0000
0110
0010
1010
1000
,
1001
0001
0100
0010
1010
1000
0001
0000
,
0101
0100
0010
0000
1010
1000
0100
0000
,
0110
0010
0001
0000
1001
1000
0010
0000
,
0110
0010
1000
0000
1001
0001
0101
0100
,
0110
0010
1000
0001
0101
0100
0010
0000
,
1010
1000
0001
0000
0101
0001
1000
0000
,
1100
0100
0010
0000
0011
0001
1000
0000
,
1010
0000
0010
0000
0100
0000
0000
0000
0001
0100
0001
0100
0010
1000
0010
1000
,
0001
0100
0010
1000
0001
0010
0100
0010
0001
0000
MMMM
0000
2001
0000
0001
0000
,
3001
0000
0100
0000
0010
0000
0000
1000
0000
0000
0010
0000
0200
0000
0001
0000
,
0301
0000
0100
0000
0010
0000
0000
1000
0000
0000
0001
0000
2000
0000
0100
0000
,
3100
0000
0010
0000
0001
0000
0000
0100
0000
0000
0001
0000
0100
0000
0000
0010
,
0000
1000
0100
0001
0100
1000
0020
0230
,
0001
0000
0301
0000
0100
0000
0000
0010
0000
0000
1000
0000
0020
0000
0100
0000
,
0130
0000
0001
0000
1000
0000
0000
0100
0000
0000
0010
0000
0002
0000
1000
0000
,
1003
0000
0010
0000
0100
0000
0000
0001
0000
0000
1000
0000
1100
0000
0100
0000
,
0010
0001
1001
1000
0010
0100
0102
0100
,
0103
0000
0010
0000
1000
0000
0000
0100
0000
0000
1000
0000
0020
0000
0100
0000
,
0130
0000
0001
0000
1000
0000
0000
0010
0000
0000
0100
0000
0020
0000
1000
0000
,
1030
0000
0001
0000
0010
0000
0000
0100
0000
0000
1000
0000
0010
0000
0000
0100
,
0000
0001
1000
0100
1000
0100
2000
3020
,
0100
0000
0130
0000
0001
0000
0000
0100
0000
0000
1000
0000
0200
0000
0001
0000
,
0301
0000
0010
0000
0100
0000
0000
0001
0000
0000
0100
0000
2000
0000
0010
0000
,
0010
0000
3010
0000
0100
0000
0001
0000
1000
0000
1001
0000
0001
0100
0001
0100
,
0010
1000
0010
1000
0001
0100
0010
1000
0100
0010
0001
0100
0002
0000
1000
0000
,
1003
0000
0010
0000
0110
0000
0000
0101
0000
0000
1001
0000
1100
0000
0100
0000
,
0010
0000
0001
0000
1001
0000
0000
1100
0000
0000
1001
0000
0101
0000
0100
0000
,
0010
0000
1000
0000
1001
0000
0000
1100
0000
0000
0110
0000
0011
0000
0000
1001
,
0000
0000
1100
0000
0000
1001
0000
0000
0101
0000
1001
0000
2100
0000
0100
0000
,
0100
0100
3100
0010
0011
0011
0001
0100
,
0020
1000
2030
0001
3002
0100
0203
0310
,
2000
0000
3200
0000
0310
0000
0002
0000
1000
0000
2003
0000
0001
0000
3001
0100
,
0001
0000
0100
0000
0010
0000
1000
0000
0010
0000
0100
0000
0001
0000
0010
0000
0100
0000
2000
0000
0000
0010
0000
0000
,
3010
0000
0100
0000
0101
0000
0000
1001
0000
0000
1100
0000
1001
0000
0001
0000
,
0100
0000
0010
0000
1010
0000
0000
0110
0000
0000
1010
0000
0210
0000
0001
0000
,
0001
0001
0001
0001
0001
0001
0301
1000
,
0020
0130
0002
1003
0200
0310
0002
0100
,
0203
0320
1030
0002
0100
0203
0010
0320
,
1000
2030
0100
3200
0310
0110
0010
0001
,
0100
0010
1000
0010
0100
0001
0010
0100
,
1000
0010
1000
0010
0100
0001
2000
0000
,
0001
0001
0001
0001
,
3001
0000
0100
0000
0010
1000
0001
0000
1000
0100
0010
0000
0002
0000
0000
0000
,
0103
0100
0010
1000
0100
1000
0020
0230
,
0001
0000
0000
0000
0301
0010
0100
0000
1000
0000
0010
0000
2000
0000
0000
0000
,
0010
0000
3010
0100
0001
1000
0002
0000
,
0100
0203
0010
0320
1000
2030
0001
3002
,
0010
0013
0200
0000
1000
0000
1000
0000
,
1000
0000
0000
1000
0000
0000
2300
0000
0000
3001
0100
0010
,
1000
0000
0000
0000
0010
0000
0000
0000
0100
0000
0000
0000
0002
0000
0000
0000
0000
0000
0000
0000
0000
1003
0000
0000
0100
0000
0000
0000
0010
0000
0000
0000
0001
0000
0000
0000
1000
0000
0000
0000
0100
0000
0000
0000
0010
0000
0000
0000
,
0001
0000
0000
0100
0000
0000
0001
0000
0000
0000
0000
0000
1000
0000
0000
0000
0100
0000
0000
0000
0010
0000
0000
0000
0002
0000
0000
0000
0000
0000
0000
0000
0000
0000
0000
0000
2003
0000
0000
0000
0000
0000
0000
0000
0000
0000
0000
0000
,
0000
0000
0000
0000
3001
0000
0100
0010
2000
0000
3001
0000
1000
0100
0010
0001
,
2000
0000
0000
0000
3020
0000
0000
0000
0230
0000
0000
0000
0301
0100
0001
0100
,
0001
0100
0001
0100
0010
1000
0010
1000
0010
1000
0010
1000
0001
0100
0010
1000
,
0100
0010
0001
0010
0100
1000
0010
0100
0001
1000
0001
0100
0002
1000
1003
0100
,
0010
0001
0100
0010
1000
0100
0001
0100
1000
0001
2000
0000
0000
0000
0000
0000
,
0000
3000
0000
0000
;

//---------------dance-single - ----------------
#NOTES:
     dance-single:
     :
     Hard:
     8:
     0.629,0.598,0.537,0.505,0.110:
0000
0000
0000
0000
,
0000
0000
0000
0000
,
2000
0000
0000
3020
0000
0000
0230
0000
,
0301
0000
1000
0010
0100
0001
0100
0100
,
0020
0000
0000
2030
0000
0000
3001
0100
,
0010
0000
1000
0100
0010
0001
1000
0001
,
1002
1003
2100
3100
,
0210
0310
0021
0031
,
1002
1003
2010
3010
,
0120
0130
0201
0301
,
0101
0000
0100
0010
1010
0000
1000
0001
,
0101
0000
0001
0010
0110
0000
0100
1000
,
1001
0000
0001
0100
0110
0000
0010
1000
,
1001
0000
0001
1000
0100
0010
0100
0010
,
1001
0100
0010
1000
,
0101
0010
1000
0010
,
0101
1000
0010
0100
,
1001
1100
2002
3003
,
1001
1000
0100
0010
,
0110
0001
1000
0010
,
0101
1000
0010
1000
,
1001
0101
2002
3003
,
1001
1000
0010
1000
,
1001
0001
0100
0010
,
0110
1000
0010
0100
,
0101
1001
2200
3300
,
1001
1000
0010
0100
,
0101
0001
1000
0100
,
0110
0010
0001
1000
,
1001
0110
1001
0000
1000
0100
0010
0001
,
0100
0010
1000
0000
0001
0100
0010
1000
,
0100
0010
0001
0001
0100
0010
1000
0010
,
0100
0001
1000
0000
0001
0010
0100
1000
,
0010
0100
0001
0001
0100
0010
1000
0100
,
0010
0001
1000
0000
0001
0100
0010
1000
,
0010
0100
0010
0010
1000
0010
0100
0001
,
0010
0100
1000
0000
0001
0100
0010
1000
,
0001
1000
0001
1000
1001
0000
0100
0000
,
0010
1000
1001
0001
,
0010
0100
1001
0100
,
0010
1000
0101
1001
,
2200
3300
0101
0010
,
0100
0010
1001
0100
,
0010
1000
0101
0010
,
1000
0001
1100
1001
,
0202
0303
0101
0010
,
1000
0001
1001
1000
,
0010
0100
1001
0010
,
0100
0001
1100
0110
,
0022
0033
1001
0100
,
0010
1000
0101
0010
,
1000
0001
1100
0001
,
0100
0010
1001
0110
,
2002
0000
3003
0000
1000
0100
0010
0010
,
0001
0100
0010
0010
1000
0000
0001
0000
,
1000
0000
1000
0000
0010
0000
0100
0010
1000
0000
0000
0000
0001
0100
0001
0100
,
0001
0000
0100
0000
0010
0000
1000
0000
0001
0000
0000
0001
0000
0000
0100
0010
,
2000
0000
0000
3000
1001
0000
0001
0100
,
0010
0000
0000
1000
0000
0000
0001
0000
1000
0000
0000
0000
0010
0000
0100
0000
,
0001
0000
0000
0010
0000
0000
0100
0000
1000
0000
0000
0000
0100
0000
0010
0000
,
0001
0000
0000
0100
0000
0000
0010
0000
1000
0000
0000
0010
0000
0000
0100
0000
,
0001
0100
0001
0100
0002
1000
0003
0000
,
1000
0000
0000
0100
0000
0000
0010
0000
0001
0000
0000
0000
0100
0000
0010
0000
,
1000
0000
0000
0010
0000
0000
0100
0000
0001
0000
0000
0000
1000
0000
0100
0000
,
1000
0000
0000
0010
0000
0000
0100
0000
0002
0000
0000
0000
0000
0000
0000
0000
,
2003
0000
0000
0000
3010
0000
0100
0001
,
1000
0000
0000
0010
0000
0000
1000
0000
0001
0000
0000
0000
0010
0000
0100
0000
,
1000
0000
0000
0100
0000
0000
0010
0000
0001
0000
0000
0000
0100
0000
0010
0000
,
1000
0000
0000
1000
0000
0000
0010
0000
0100
0000
0000
0001
0000
0000
1000
0000
,
0001
0100
0001
0100
0020
1000
0030
0000
,
1000
0000
0000
0010
0000
0000
0010
0000
0100
0000
0000
0000
0001
0000
0010
0000
,
0001
0000
0000
0001
0000
0000
0100
0000
0020
0000
0000
0000
1000
0000
0000
0000
,
1030
0000
0001
0100
0000
0010
1000
0010
,
0100
0001
0010
0100
1000
0000
0001
0100
,
0010
1000
0000
0002
0000
0100
0103
0000
,
0010
1000
0001
0000
1000
0100
0010
0001
,
0100
0010
0000
2000
0000
0001
3001
0000
,
0100
0010
1000
0000
0001
0010
0100
1000
,
0100
0010
0000
0002
0000
0100
0103
0000
,
0010
1000
0001
0000
1000
0100
1000
0010
,
0100
0001
0000
2000
0000
0100
3100
0000
,
0010
0001
1000
0000
2002
0000
3003
0000
,
0202
0303
0220
0330
,
2020
3030
2002
3003
,
2200
3300
0220
0330
,
0022
0033
2002
3003
,
2200
3300
2002
3003
,
0202
0303
0220
0330
,
2020
3030
0220
0330
,
2002
3003
1100
0010
,
0100
0001
1010
0100
,
0001
1000
0110
0001
,
1000
0010
1100
1100
,
2002
3003
0101
0010
,
1000
0001
0110
1000
,
0010
0100
1001
0010
,
0100
0001
1100
0110
,
0022
0033
1001
0010
,
0100
0001
1100
0010
,
0100
0001
1100
0001
,
0100
0010
1001
1100
,
2002
3003
0101
0010
,
1000
0010
0101
1000
,
0010
0100
0011
0100
,
1000
0001
1100
1001
,
0202
0000
0303
1001
,
0001
0000
0100
0000
0010
0000
0000
0010
0000
0000
1000
0000
0001
0000
0000
0000
,
1000
0000
0100
0000
0010
0000
0000
0010
0000
0000
0001
0000
0100
0000
0000
0000
,
0010
0000
1000
0000
0010
0000
0000
0100
0000
0000
0001
0000
1000
0000
0000
0100
,
0000
0010
0001
0010
0001
0010
0002
1000
,
0003
0000
0000
0000
1000
0000
0000
0010
0000
0000
0100
0000
0001
0000
0000
0000
,
1000
0000
0100
0000
1000
0000
0000
0010
0000
0000
0100
0000
0001
0000
0000
0000
,
0100
0000
0010
0000
1000
0000
0000
0100
0000
0000
0010
0000
0002
0000
0000
0000
,
0100
0203
0010
0310
,
1000
0000
0100
0000
0010
0000
0000
0001
0000
0000
0010
0000
0100
0000
0000
0000
,
1000
0000
0010
0000
0001
0000
0000
0010
0000
0000
1000
0000
0001
0000
0000
0000
,
1000
0000
0100
0000
1000
0000
0000
0010
0000
0000
0100
0000
0001
0000
0000
1000
,
0000
0001
0100
0010
0100
0010
0200
0001
,
0300
0000
0000
0000
0001
0000
0000
0100
0000
0000
0010
0000
1000
0000
0000
0000
,
0001
0000
0010
0000
0100
0000
0000
1000
0000
0000
0100
0000
0020
0000
0000
0000
,
0001
0000
0031
0000
1000
0010
0000
0100
,
0001
0100
0020
1000
0030
0000
2002
0000
,
3003
0000
0000
0000
1000
0000
0000
0100
0000
0000
0001
0000
0100
0000
0000
0000
,
1000
0000
0010
0000
0100
0000
0000
0001
0000
0000
1000
0000
0010
0000
0000
0000
,
0100
0000
0001
0000
1000
0000
0000
0100
0000
0000
0010
0000
0001
0000
0000
0100
,
0000
0000
0010
0000
0000
1000
0000
0000
0001
0000
1000
0000
0002
0000
0000
0000
,
0100
0000
0100
0000
0103
0020
1000
0000
,
2030
3200
0320
0031
,
0100
0010
0000
1010
0000
0202
0000
0000
,
0000
0303
1001
1100
,
1000
0000
0100
0000
0010
0000
0000
0001
0000
0000
0100
0000
0010
0000
0000
0000
,
1000
0000
0010
0000
0100
0000
0000
0001
0000
0000
1000
0000
2000
0000
0000
0000
,
0001
0001
0001
3001
,
1100
1001
0101
0110
,
0010
1000
0000
0001
0000
0010
0000
0100
,
0000
1000
0000
0010
0000
2002
0000
0000
,
0000
0000
0000
0000
,
0000
3003
1001
2000
,
0000
0000
0000
3000
,
0010
0100
0001
1000
0001
0010
0200
0000
,
0000
1300
0010
0100
0001
1000
0002
0000
,
0000
0000
0103
0010
1000
0001
2000
0000
,
0000
0000
3100
0010
0001
1000
0001
0100
,
0000
0010
0000
1000
0000
0001
0000
0020
,
0000
0230
1000
1000
,
1000
0000
0000
1000
0000
0000
2300
0000
0000
3001
0100
0001
,
0100
0000
0001
0000
0100
0000
0002
0000
0000
0000
0000
0000
1003
0000
0000
0100
0000
0000
0010
0000
0000
0001
0000
0000
,
0100
0010
1000
0010
2000
0000
3002
0000
,
0100
0000
0103
0010
1000
0000
0001
0100
,
0010
1000
0020
0000
0130
0001
2000
0000
,
0000
0000
3010
0100
0001
0100
0010
2000
,
0001
0000
0000
0000
0001
0000
0000
0000
3001
0000
0000
0000
1001
0000
0001
1000
,
0001
1000
0001
1000
0001
1000
0001
1000
0001
2000
0002
0000
0000
0000
0000
0000
,
0000
3003
0000
0000
;

//---------------dance-single - ----------------
#NOTES:
     dance-single:
     :
     Medium:
     6:
     0.476,0.422,0.216,0.367,0.000:
0000
0000
0000
0000
,
0000
0000
0000
0000
,
2000
0000
0000
3020
0000
0000
0230
0000
,
0301
0000
0010
0000
0100
0000
1000
0100
,
2000
0000
0000
3020
0000
0000
0130
0001
,
1000
0000
0010
0000
0100
0000
0001
1000
,
1002
0000
2003
0000
,
3020
0000
0230
0000
,
0302
0000
0023
0000
,
0230
0000
2300
0000
,
3020
0000
0230
0000
,
0302
0000
0203
0000
,
0320
0000
2030
0000
,
3002
0000
0000
0000
1003
0100
1000
0100
,
1100
1000
0010
0100
,
0001
0100
0010
1000
,
1001
0001
0100
0010
,
1000
1000
2002
3003
,
1001
0001
0100
0010
,
1000
0010
0100
0001
,
1100
0010
0100
0001
,
0100
0100
0220
0330
,
0110
0010
1000
0010
,
0100
0001
0010
0100
,
1100
1000
0010
0100
,
0001
0001
2002
3003
,
1001
0001
0100
0010
,
1000
0100
1000
0010
,
0001
0100
1000
0001
,
0100
0100
0110
0000
1001
0000
0001
0000
,
0100
0010
1000
0000
0001
0000
0100
0000
,
0010
1000
0001
0000
0100
0000
0010
0000
,
0100
0010
0001
0000
0010
0000
0100
0000
,
1000
0100
1000
0000
1001
0000
0001
0000
,
0100
0010
1000
0000
0010
0000
0100
0000
,
0001
0100
0001
0000
0100
0000
0010
0000
,
1000
0100
0010
0000
0001
0000
1000
0000
,
0001
1000
0001
1000
1001
0000
0001
0000
,
0100
0010
1000
0010
,
0100
0001
1100
0010
,
0100
0001
0100
0100
,
0202
0303
0101
0001
,
0100
0010
1000
0100
,
0010
0001
1100
0010
,
0100
0001
1000
1000
,
2200
3300
1100
1000
,
0010
0100
0001
0001
,
0010
0100
0110
0010
,
0001
0100
0010
0010
,
2020
3030
1010
1000
,
0001
0100
0001
0001
,
0010
0100
1000
0100
,
0010
0001
0010
0010
,
0022
0033
1001
0001
,
0100
0010
1000
0100
,
0010
0001
0010
0001
2000
0000
3010
0100
,
0001
0100
0010
0010
,
2000
3001
1001
0001
,
0100
0100
0010
1000
,
0001
0001
1000
0010
,
0100
0100
0001
0010
,
0100
1000
0100
0000
0110
0000
0010
0000
,
0001
0001
0100
0010
,
1000
1000
0001
0100
,
0010
1000
0002
0100
,
0203
0010
0310
1000
,
0010
0010
0100
0001
,
0010
0010
0100
1000
,
0001
0001
0100
0010
,
1000
0100
0010
0000
0011
0000
0001
0000
,
0100
0100
0010
1000
,
0001
0001
2000
0010
,
3010
0000
0100
0000
0001
0010
0100
0000
,
1000
0100
0010
0001
1000
0000
0010
0000
,
0100
0000
0000
0001
0000
0000
0100
0000
,
0010
1000
0001
0000
1000
0000
0100
0000
,
0010
0000
0000
0001
0000
0000
0010
0000
,
0100
1000
0100
0000
0010
0000
0001
0000
,
0100
0100
0000
0100
0000
0000
0010
0000
,
0001
0100
0010
0000
1000
0000
0100
0000
,
0010
0010
0000
0010
0000
0000
0001
0000
,
0100
0010
1000
0000
0002
0000
0000
0000
,
0203
0000
0320
0000
,
2030
0000
3200
0000
,
0320
0000
0032
0000
,
0203
0000
0320
0000
,
2030
0000
3002
0000
,
2003
0000
3200
0000
,
0320
0000
0032
0000
,
1003
0100
1000
0100
1100
0000
1000
0000
,
0010
0100
0001
0100
,
0010
1000
0101
0010
,
1000
0010
0100
0100
,
0202
0303
1001
0100
,
0010
1000
0010
0010
,
0100
0010
0011
0100
,
1000
0100
0010
0010
,
0022
0033
1001
0010
,
0100
0001
0100
0100
,
0010
1000
1001
0001
,
0010
0100
1000
1000
,
2200
3300
1001
1000
,
0010
0100
0001
0001
,
0010
0100
1000
1000
,
0010
0100
0001
0001
,
2002
0000
3003
1001
,
0001
0000
0100
0000
0100
0010
1000
0000
,
0001
0000
0010
0000
0010
0100
1000
0000
,
0001
0000
0001
0000
0100
0010
1000
0000
,
0001
0000
0010
0100
0010
0000
0001
0000
,
0100
0000
0010
0000
0010
1000
0001
0000
,
0010
0000
0100
0000
0100
1000
0010
0000
,
0100
0000
0001
0000
0001
1000
0002
0000
,
0100
0203
0010
0310
,
1000
0000
0001
0000
0001
0010
0100
0000
,
1000
0000
0010
0000
0010
0100
0001
0000
,
0010
0000
0100
0000
0100
1000
0010
0000
,
0100
0000
0001
1000
0001
0000
1001
0000
,
1000
0000
0010
0000
0010
0100
0001
0000
,
0010
0000
0100
0000
0100
1000
0200
0000
,
0010
0000
0310
0000
0001
0001
0000
0000
,
1000
0000
0010
0100
0010
0100
0010
0000
,
1000
0000
0001
0000
0001
0010
0100
0000
,
1000
0000
0010
0000
0010
0100
0001
0000
,
1000
0000
0001
0000
0001
0100
0010
0000
,
1000
0100
0010
0000
0001
1000
0002
0000
,
1000
0000
1000
0000
0000
2003
0000
0000
,
3010
0100
0001
1000
,
0000
0100
0000
0100
0000
0020
0000
0000
,
0031
0100
0010
1001
,
0100
0000
0010
0000
0010
1000
0001
0000
,
0010
0000
0100
0000
0100
1000
0020
0000
,
0100
0100
0100
0130
,
0110
0101
1001
1100
,
0000
1000
0000
0100
0000
0010
0000
0001
,
0000
0100
0000
0010
0000
2000
0000
0000
,
3001
0100
0010
1000
,
0010
0000
0100
0000
0001
0010
0200
0000
,
0000
0000
0000
0300
,
1000
0000
0010
0100
0001
0000
2000
0000
,
0000
0000
3100
0000
0010
0001
0020
0000
,
0000
0031
0100
0020
,
0000
0130
0001
1000
,
0000
0100
0000
0010
0000
0001
0000
0100
,
0000
0002
1000
0000
,
1000
0000
0000
0000
1000
0000
1003
0100
,
1000
0100
1000
0000
0010
0100
0001
0000
,
1000
0000
0001
0100
0010
0000
2000
0000
,
0000
0000
3001
0001
0100
0000
0010
1000
,
0001
0010
0100
2000
,
0000
0000
3010
0100
0001
0000
2000
0000
,
0000
0000
0000
3002
,
0000
2000
0000
0000
0000
0000
0000
0000
,
0000
3003
0000
0000
;

//---------------dance-single - ----------------
#NOTES:
     dance-single:
     :
     Easy:
     4:
     0.263,0.317,0.092,0.078,0.000:
0000
0000
0000
0000
,
0000
0000
0000
0000
,
1000
0000
0000
1000
0000
0000
1000
0000
,
0001
0000
0000
0100
,
0010
0000
0000
0010
0000
0000
0010
0000
,
1000
0000
0000
0000
,
1000
0000
0010
0000
,
0100
0000
0001
0000
,
0010
0000
0100
0000
,
1000
0000
0010
0000
,
1000
0000
0010
0000
,
0100
0000
0001
0000
,
0010
0000
0100
0000
,
1000
0000
0001
0000
,
1001
0000
1000
0000
,
0010
0000
0100
0000
,
0001
0000
0010
0000
,
0100
1000
1100
0000
,
0010
0000
0100
0000
,
0001
0000
0100
0000
,
0010
0000
1000
0000
,
0001
0010
0110
0000
,
0100
0000
1000
0000
,
0010
0000
0100
0000
,
0001
0000
0010
0000
,
0001
1000
1010
0000
,
0010
0000
0100
0000
,
0001
0000
1000
0000
,
0100
0000
0010
0000
,
0001
1001
1000
0000
,
0010
0000
0100
0000
,
0001
0000
0010
0000
,
0100
0000
1000
0000
,
0100
0000
0010
0000
,
0001
0000
0100
0000
,
0010
0000
1000
0000
,
0010
0000
0100
0000
,
0001
1000
1001
0000
,
0001
0000
0100
0000
,
0010
0000
1000
0000
,
0010
0000
0100
0001
,
1001
0000
0001
0000
,
0010
0000
0100
0000
,
1000
0000
0100
0000
,
0010
0000
0001
0100
,
0110
0000
0010
0000
,
1000
0000
0010
0000
,
0100
0000
0001
0000
,
0010
0000
0100
1000
,
1001
0000
0001
0000
,
0100
0000
0010
0000
,
1000
0000
0001
0000
,
0010
0000
0100
1000
,
1001
0000
1001
0000
,
0001
0000
0100
0000
,
0010
0010
1000
0000
,
0001
0000
0010
0010
,
0100
0000
1000
0000
,
0010
0100
0001
0000
,
0010
0100
1000
0000
,
0010
0100
0001
0000
,
0100
0000
0010
0000
,
1000
0001
0010
0000
,
0100
1000
0010
0000
,
0100
0001
1000
0000
,
0001
0000
1000
0000
,
0010
0100
0001
0000
,
0010
0100
1000
0000
,
0010
0100
0001
0000
,
0100
0100
0010
0000
,
1000
0010
1000
0000
,
0001
0010
0002
0000
,
0003
0000
1000
0000
,
0010
0000
0100
0001
,
1000
0000
0001
0010
,
0001
0000
1000
1000
,
0010
0000
0100
0100
,
0001
0000
1000
0100
,
1000
0000
0010
0100
,
0001
0000
1000
1000
,
0010
0000
0100
0001
,
1000
1000
1001
0000
,
0001
0000
0100
0000
,
0010
0000
1000
0000
,
0010
0000
0100
0000
,
0001
0000
1001
0000
,
0010
0000
0100
0000
,
1000
0000
0010
0000
,
0100
0000
0001
0001
,
1000
1000
1010
0000
,
0100
0000
0001
0000
,
0010
0000
0100
0000
,
1000
0000
0001
0100
,
0110
0000
0010
0000
,
1000
0000
0010
0000
,
0100
0000
0001
0000
,
0010
0000
0100
1000
,
1001
0000
0001
0000
,
0100
0000
0010
0000
,
1000
0000
0010
0000
,
0100
0000
0001
0010
,
0110
0000
0010
0000
,
0100
0000
1000
0000
,
0010
0000
0100
0000
,
0001
0000
1000
1000
,
2002
0000
3003
1001
,
0000
0001
0100
0010
,
0000
1000
0010
0100
,
0000
0001
0010
0100
,
0100
1000
1000
0010
,
0000
0100
0001
1000
,
0000
0001
0010
0100
,
0000
1000
0100
0010
,
0000
0001
0000
0100
,
0000
0010
1000
0010
,
0000
0100
0001
1000
,
0000
0001
0010
0100
,
1000
0010
0010
0100
,
0000
0001
0010
0100
,
0000
1000
0010
0200
,
0000
0300
0000
0001
,
0010
0100
0100
1000
,
0000
0010
0100
0001
,
0000
0010
0100
1000
,
0000
0010
0100
0001
,
1000
0010
0010
0200
,
0000
0000
0000
0000
0000
0301
0000
0000
,
1000
1000
0010
0010
,
0000
0100
0000
0001
,
0000
0000
0000
1000
,
0000
0001
0100
0010
,
0000
1000
0010
0200
,
0000
0000
0000
0300
,
0001
0010
0001
0100
,
0000
0010
0000
1000
,
0000
0010
0000
2002
,
0000
0000
0000
0000
,
0000
0000
3003
2000
,
0000
0000
0000
3000
,
0010
0100
0001
0200
,
0000
0310
1000
0002
,
0000
0000
1003
0020
,
0000
0130
0001
1000
,
0000
0010
0000
0100
,
0000
0002
0000
1000
,
0000
0000
0003
1000
,
0010
1000
0000
0001
,
0010
0100
0100
1000
,
0000
0010
0100
0001
,
0000
1000
0000
0002
,
0000
0103
0010
2000
,
0000
0000
0000
3002
,
0000
2000
0000
0000
,
0000
3003
0000
0000
;

//---------------dance-single - ----------------
#NOTES:
     dance-single:
     :
     Beginner:
     1:
     0.157,0.279,0.005,0.000,0.000:
0000
0000
0000
0000
,
0000
0000
0000
0000
,
0000
0000
0000
0000
,
0000
0000
0000
0000
,
0000
0000
0000
0000
,
0000
0000
0000
0000
,
1000
0000
0000
0000
,
1000
0000
0000
0000
,
0001
0000
0000
0000
,
0001
0000
0000
0000
,
0100
0000
0000
0000
,
0100
0000
0000
0000
,
0010
0000
0000
0000
,
0010
0000
0010
0000
,
1000
0000
1000
0000
,
1000
0000
1000
0000
,
1000
0000
1000
0000
,
1000
1000
1000
0000
,
0001
0000
0001
0000
,
0001
0000
0001
0000
,
0001
0000
0001
0000
,
0001
0001
0001
0000
,
0100
0000
0100
0000
,
0100
0000
0100
0000
,
0100
0000
0100
0000
,
0100
0100
0100
0000
,
0010
0000
0010
0000
,
0010
0000
0010
0000
,
0010
0000
0010
0000
,
0010
0010
0010
0000
,
0000
0000
0100
0000
,
0000
0000
0001
0000
,
0000
0000
0010
0000
,
0000
0000
0100
0000
,
0000
0000
1000
0000
,
0000
0000
0001
0000
,
0000
0000
1000
0000
,
0000
0000
0001
0000
,
0001
0000
0001
0000
,
0001
0000
0001
0000
,
0001
0000
0001
0001
,
0001
0000
0100
0000
,
0100
0000
0100
0000
,
0100
0000
0100
0000
,
0100
0000
0100
0100
,
0100
0000
0010
0000
,
0010
0000
0010
0000
,
0010
0000
0010
0000
,
0010
0000
0010
0010
,
0010
0000
1000
0000
,
1000
0000
1000
0000
,
1000
0000
1000
0000
,
1000
0000
1000
1000
,
1000
0000
0001
0000
,
0000
0000
0100
0000
,
0000
0000
0010
0000
,
0000
0000
1000
0000
,
0000
0000
0001
0000
,
0000
0000
0001
0000
,
0000
0000
0100
0000
,
0000
0000
0100
0000
,
0100
0000
0010
0000
,
0000
0000
0010
0000
,
0000
0000
1000
0000
,
0000
0000
1000
0000
,
1000
0000
0001
0000
,
0000
0000
0001
0000
,
0000
0000
0100
0000
,
0000
0000
0100
0000
,
0100
0000
0010
0000
,
0000
0000
0010
0000
,
0000
0000
1000
0000
,
0000
0000
0001
0000
,
0001
0000
1000
0000
,
0000
0000
0001
0000
,
0000
0000
0100
0000
,
0000
0000
0010
0000
,
0000
0000
1000
0000
,
0000
0000
0100
0000
,
0000
0000
0010
0000
,
0000
0000
0001
0000
,
0000
0000
1000
0000
,
0000
0000
0000
0000
,
0000
0000
0001
0000
,
0000
0000
0000
0000
,
0000
0000
0100
0000
,
0000
0000
0000
0000
,
0000
0000
0010
0000
,
0000
0000
0000
0000
,
0000
0000
1000
1000
,
1000
1000
1000
1000
,
1000
1000
1000
1000
,
1000
1000
1000
1000
,
1000
0000
0001
0001
,
0001
0001
0001
0001
,
0001
0001
0001
0001
,
0001
0001
0001
0001
,
0001
0000
0100
0100
,
0100
0100
0100
0100
,
0100
0100
0100
0100
,
0100
0100
0100
0100
,
0100
0000
0010
0010
,
0010
0010
0010
0010
,
0010
0010
0010
0010
,
0010
0010
0010
0010
,
0010
0000
0000
1000
,
0000
0000
0000
0010
,
0000
0000
0000
0100
,
0000
0000
0000
0001
,
0000
0001
0000
0100
,
0000
0000
0000
0010
,
0000
0000
0000
1000
,
0000
0000
0000
0001
,
0000
0001
0000
0001
,
0000
0000
0000
0100
,
0000
0000
0000
0010
,
0000
0000
0000
1000
,
0000
0100
0000
1000
,
0000
0000
0000
0010
,
0000
0000
0000
0100
,
0000
0000
0000
0001
,
0000
0001
0000
1000
,
0000
0000
0000
1000
,
0000
0000
0000
0100
,
0000
0000
0000
0100
,
0000
0100
0000
0010
,
0000
0000
0000
0001
,
0000
0000
0000
0100
,
0000
0000
0000
0010
,
0000
0000
0000
1000
,
0000
0000
0000
0010
,
0000
0000
0000
0100
,
0000
0000
0000
0000
,
0000
0000
0000
0001
,
0000
0000
0000
0100
,
0000
0000
0000
0001
,
0000
0000
0000
0000
,
0000
0000
0000
1000
,
0000
0000
0000
0000
,
0000
0000
0000
0001
,
0000
0000
0000
0100
,
0000
0000
0000
0010
,
0000
0000
0000
0010
,
0000
0010
0000
1000
,
0000
1000
0000
0001
,
0000
0000
0000
1000
,
0000
1000
0000
0010
,
0000
0010
0000
0100
,
0000
0100
0000
0001
,
0000
0001
0000
1000
,
0000
0000
0000
0001
,
0000
0000
0000
1001
;
