#TITLE:Firebird;
#SUBTITLE:;
#ARTIST:Sound Online;
#TITLETRANSLIT:;
#SUBTITLETRANSLIT:;
#ARTISTTRANSLIT:;
#CREDIT:;
#BANNER:Firebird - BN.png;
#BACKGROUND:Firebird - BG.png;
#LYRICSPATH:;
#CDTITLE:cdtitlegpop.png;
#MUSIC:Firebird.ogg;
#OFFSET:0.020;
#SAMPLESTART:21.560;
#SAMPLELENGTH:12.000;
#SELECTABLE:YES;
#BPMS:0.000=178.000,192.000=90.000,194.000=178.000,258.000=170.000,262.000=156.100;
#STOPS:;
#BGCHANGES:;

//---------------dance-single - ----------------
#NOTES:
     dance-single:
     :
     Challenge:
     10:
     0.795,1.000,0.347,0.099,0.591: // measure 1
0000
0000
0000
0000
,  // measure 2
0000
0000
0000
0000
,  // measure 3
0000
0000
0000
0000
,  // measure 4
0000
0000
0000
0000
,  // measure 5
0000
0000
0000
0000
,  // measure 6
0000
0000
0000
0000
,  // measure 7
1001
0001
0100
0101
0100
0010
0110
0010
,  // measure 8
1000
1010
1000
0001
1001
1000
0002
0000
,  // measure 9
1003
1000
0010
0100
0100
0001
0010
0010
,  // measure 10
0100
1000
1000
0001
0100
0010
0100
0001
,  // measure 11
1000
1000
0010
0100
0100
0001
0010
0010
,  // measure 12
0100
1000
1000
0001
0100
0010
0100
0001
,  // measure 13
1000
0100
1000
0100
1000
0100
1000
0100
0010
0001
0010
0001
0010
0001
0010
0001
,  // measure 14
1000
0010
1000
0010
1000
0010
1000
0010
0100
0001
0100
0001
0100
0001
0100
0001
,  // measure 15
1000
1000
1000
1001
0001
0001
0101
0100
,  // measure 16
0100
0000
0110
0000
0010
0000
0010
0000
1000
0010
1000
0000
1001
0000
1001
0000
,  // measure 17
1001
0100
0010
1000
M000
0001
000M
0010
,  // measure 18
0100
1000
0010
0100
0100
0001
0010
0001
,  // measure 19
1000
0001
0010
0100
0M00
0100
0M00
0100
,  // measure 20
1000
0010
0100
0001
0001
0100
0010
0100
,  // measure 21
0001
0010
0100
1000
M000
1000
M000
1000
,  // measure 22
0001
0100
0010
1000
1000
0010
0100
0001
,  // measure 23
1000
0001
0100
0010
00M0
1000
M000
0001
,  // measure 24
0100
0010
1000
0001
0001
000M
1000
0100
,  // measure 25
1001
0001
0100
0010
00M0
0010
00M0
0010
,  // measure 26
1000
0010
0100
0001
0001
0010
0001
0100
,  // measure 27
0010
1000
0010
0001
000M
0010
00M0
1000
,  // measure 28
0100
0010
0001
1000
1000
0010
0100
0001
,  // measure 29
0010
1000
0010
0001
000M
0001
000M
0001
,  // measure 30
0100
0010
1000
0010
0010
0100
0001
0100
,  // measure 31
0010
1000
0001
0010
00M0
0100
0M00
1000
,  // measure 32
0001
0100
0001
0100
0001
0100
0001
0100
0010
1000
0010
1000
0010
1000
0010
1000
,  // measure 33
0001
0001
0001
0000
1000
0100
1000
0000
,  // measure 34
0001
0100
0001
1000
0000
0020
0000
0100
,  // measure 35
0130
0100
0100
0000
0001
0100
1000
0000
,  // measure 36
0100
0001
1000
0001
0000
2000
0000
0100
,  // measure 37
3100
0100
0100
0000
1000
0010
0001
0000
,  // measure 38
0010
1000
0001
0100
0000
0020
0000
1000
,  // measure 39
1030
1000
1000
0000
0001
0010
0100
0000
,  // measure 40
1000
0100
0001
0100
0000
2000
0000
3001
,  // measure 41
1001
0001
0001
0000
1000
0010
1000
0000
,  // measure 42
0001
0100
0010
1000
0000
0200
0000
0001
,  // measure 43
0301
0001
0001
0000
0100
1000
0001
0000
,  // measure 44
0100
0010
1000
0001
0000
0020
0000
1000
,  // measure 45
1030
1000
1000
0000
0010
0001
1000
0000
,  // measure 46
0010
0100
0001
0100
0000
0002
0000
0103
,  // measure 47
0001
0100
0001
0100
0001
0100
0001
0100
0010
1000
0010
1000
0010
1000
0010
1000
,  // measure 48
0001
0010
0100
1000
0001
0010
0100
1000
0001
0100
0010
1000
0001
0100
0010
1000
,  // measure 49
0001
0100
0010
1000
0010
0100
0001
0010
1100
0000
1100
0000
1001
0000
1001
0000
,  // measure 50
0001
0100
0010
1000
0001
0100
0001
0100
0001
0000
0100
0000
0010
0000
1000
0000
,  // measure 51
0010
0000
0100
0000
0001
0000
1000
0100
1000
0000
0000
0000
1100
0000
0000
0000
,  // measure 52
1001
0000
0101
0000
0110
0010
1000
0010
,  // measure 53
0100
0001
0010
0100
1000
0000
1100
0000
,  // measure 54
1001
0000
1001
0000
0000
0000
0001
0010
0100
0000
0100
0000
1000
0000
0010
0000
,  // measure 55
0100
0001
1000
1000
0001
0001
0100
0010
,  // measure 56
2000
0010
3020
0100
0130
0001
0100
0010
,  // measure 57
1000
0001
1000
1000
0001
0010
0100
0010
,  // measure 58
0001
0000
1000
1001
1001
0001
0100
0010
,  // measure 59
1010
0000
1000
0000
0001
0000
0010
0100
1000
0000
0000
0000
0101
0000
0000
0000
,  // measure 60
1001
0000
1100
0000
1001
0001
0100
0010
,  // measure 61
1010
1000
0001
0010
0110
1100
1100
0000
,  // measure 62
1001
0000
1001
0000
0001
0000
1000
0100
1100
0000
0100
0000
1000
0000
0100
0000
,  // measure 63
0011
0001
0010
0001
1010
1000
0010
1000
,  // measure 64
0101
0000
0001
0000
0100
0000
0001
0000
1000
0100
1000
0100
1000
0100
1000
0100
,  // measure 65
0010
0000
0000
0001
0000
0000
0010
0000
0000
0001
0000
0000
0010
0000
0000
0001
0000
0000
0010
0000
0000
0001
0000
0000
1000
0000
0000
0000
0100
0000
0000
0000
0010
0000
0000
0000
0001
0000
0000
0000
0100
0000
0000
0000
0010
0000
0000
0000
,  // measure 66
1000
0010
0100
0001
0010
0100
1000
0000
0001
0100
0000
0100
,  // measure 67
0010
0000
0010
1000
0000
1000
0001
0000
0001
0100
0000
0100
,  // measure 68
0010
0000
0010
0100
0000
0100
0001
0000
0001
0010
0000
0010
,  // measure 69
0100
0000
0100
1000
0000
1000
0001
0000
0001
0100
0000
0100
,  // measure 70
1000
0000
1000
0100
0001
0010
0100
0000
0100
1000
0000
1000
,  // measure 71
0100
0000
0100
0001
0000
0001
0100
0000
0100
1000
0000
1000
,  // measure 72
0010
0100
0001
0100
0000
0001
0100
0000
0010
1000
0000
0001
,  // measure 73
0010
0000
0100
1000
0000
0001
0010
0000
0100
1000
0000
0001
,  // measure 74
0100
0001
0100
0010
1000
0001
1000
0000
0001
0010
0000
0100
,  // measure 75
1000
0000
0100
0001
0000
0100
1000
0000
0010
0100
0000
0001
,  // measure 76
0010
0000
0100
1000
0000
0010
0100
0000
0001
0100
0000
1000
,  // measure 77
0100
0000
0001
0010
0000
1000
0010
0000
0001
0100
0000
0010
,  // measure 78
0100
0000
0001
0100
0010
1000
0001
0000
0010
0100
0000
1000
,  // measure 79
0100
0000
0010
0001
0000
1000
0010
0000
0100
0001
0000
1000
,  // measure 80
0100
0000
0001
0100
1000
0100
1000
0100
0010
0001
0100
0010
,  // measure 81
1000
0100
1000
0010
0100
0001
10M0
0000
M010
0000
010M
0000
,  // measure 82
00M1
0000
1M00
0000
010M
0000
2002
0000
0000
0000
0000
0000
,  // measure 83
0000
0000
0000
0000
,  // measure 84
0000
0000
0000
0000
,  // measure 85
0000
0000
0000
0000
,  // measure 86
3003
0000
0000
0000
;

//---------------dance-single - ----------------
#NOTES:
     dance-single:
     :
     Hard:
     9:
     0.626,0.808,0.306,0.017,0.211:
0000
0000
0000
0000
,
0000
0000
0000
0000
,
0000
0000
0000
0000
,
0000
0000
0000
0000
,
0000
0000
0000
0000
,
0000
0000
0000
0000
,
1001
0000
0000
0101
0000
0000
0110
0000
,
0000
1010
0000
0000
1001
0000
0110
0000
,
1001
1000
0010
1000
1000
0001
1000
1000
,
0100
1000
1000
0010
1000
0100
1000
0010
,
0001
0001
0100
0001
0001
1000
0001
0001
,
0010
0001
0001
0010
0001
0100
0001
1000
,
0100
0100
0001
0100
0100
0010
0100
0100
,
1000
0100
0100
0001
0100
1000
0100
0001
,
1001
1000
1000
1001
0001
0001
1001
1000
,
1000
1001
0001
0001
1001
1000
0100
0010
,
1001
0001
0010
0100
0000
1000
0000
0010
,
0100
0001
0100
0010
0100
0001
0010
0100
,
1000
0100
1000
0010
0000
0100
0000
0001
,
0100
0010
1000
0010
0100
0000
0001
0100
,
0010
0100
0010
1000
0000
0001
0000
0010
,
0100
1000
0100
1000
0010
0100
0001
1000
,
0001
0010
0100
1000
0000
0010
0000
0100
,
0001
0100
0010
0100
0100
0000
0001
0010
,
0001
0100
0010
1000
0000
0001
0000
0010
,
0100
1000
0100
0010
0010
0001
0100
0010
,
1000
0010
0100
0001
0000
1000
0000
0100
,
0010
0001
0100
0010
0010
0000
1000
0010
,
0100
0001
0100
0010
0000
1000
0000
0001
,
0010
0100
1000
0010
0010
0100
0001
0100
,
0010
1000
0001
0010
0000
0100
0000
1000
,
0100
0010
0001
1000
1000
0000
0001
1000
,
1001
0001
0100
0000
0010
0000
1000
0000
,
0010
0000
0001
0100
0000
0010
0000
1000
,
0010
1000
0010
0000
0100
0000
0001
0000
,
0010
0000
0100
1000
0000
0010
0000
0100
,
0001
0100
0010
0000
1000
0000
0100
0000
,
0010
0000
0001
0100
0000
0010
0000
1000
,
0010
0100
0001
0000
1000
0000
0100
0000
,
0010
0000
0001
0010
0000
0100
0000
1000
,
0010
0100
0001
0000
1000
0000
0010
0000
,
0100
0000
0001
0010
0000
1000
0000
0010
,
0001
0100
0010
0000
1000
0000
0010
0000
,
0100
0000
0001
0100
0000
0010
0000
1000
,
0010
0100
0001
0000
0010
0000
0100
0000
,
0010
0000
0001
0100
0000
0010
0000
1000
,
1010
0010
1000
0000
1001
0000
0100
0000
,
0011
0000
1000
0001
0101
0100
0000
0010
,
1000
0100
1000
0100
0010
0001
0010
0001
1000
0000
1000
0000
0001
0000
0001
0000
,
1000
0001
1000
0001
1000
0000
0001
0000
1000
0000
0100
0000
1000
0000
0100
0000
,
0010
0001
0100
0010
0010
0000
1010
0000
,
0110
0000
0101
0000
1001
1000
0100
1000
,
0010
0100
0001
0010
0100
0000
1100
0000
,
1001
0001
0000
0100
0100
0010
1000
0010
,
0100
0001
0010
0010
0100
0100
1000
1000
,
0001
0000
1000
0000
0010
0100
0010
0100
,
0001
1000
0001
1000
0001
0010
0100
1000
,
0001
0000
1000
0001
1001
1000
0010
0100
,
0001
0100
0010
1000
1000
0000
0011
0000
,
0110
0000
1100
0000
1001
0001
0100
0010
,
1000
0010
0100
0001
1000
0001
0001
0000
,
0110
0010
0000
1000
1000
0001
0100
0010
,
1000
0010
0100
0100
0001
0001
1000
1000
,
0001
0000
0010
0000
0100
1000
0100
0010
,
0001
0100
0010
1000
0101
0000
0110
0000
,
1010
1001
1100
1000
,
0010
0000
0000
0100
0000
0001
1000
0000
0000
0100
0000
0000
,
0010
0000
0001
0010
0000
0100
1000
0000
0000
0010
0000
0000
,
0100
0000
0000
0001
0000
0010
0100
0000
0000
1000
0000
0000
,
0010
0000
0100
0001
0000
0100
0001
0000
0000
0100
0000
0000
,
0010
0000
0000
1000
0000
0001
0010
0000
0000
0100
0000
0000
,
1000
0000
0010
0100
0000
0010
0100
0000
0000
0001
0000
0010
,
0100
0000
0000
1000
0000
0001
1000
0000
0000
0001
0000
0100
,
0010
0000
0000
1001
0000
1000
0001
0000
0001
0100
0000
0100
,
0010
0000
0010
1000
0000
1000
0100
0000
0100
0010
0000
0010
,
0001
0000
0001
0100
0000
0100
0010
0000
0010
0100
0000
0100
,
0001
0000
0001
1000
0000
1000
0100
0000
0100
0010
0000
0010
,
0001
0000
0001
1000
0000
0001
1000
0000
1000
0010
0000
0010
,
0100
0000
0100
0001
0000
0001
0010
0000
0010
0100
0000
0100
,
1000
0000
1000
0010
0000
0010
0100
0000
0100
0001
0000
0001
,
1000
0000
1000
0001
0000
0001
1000
0000
0100
0000
0010
0000
,
0001
0000
0100
0000
0010
0000
2002
0000
0000
0000
0000
0000
,
0000
0000
0000
0000
,
0000
0000
0000
0000
,
0000
0000
0000
0000
,
3003
0000
0000
0000
;

//---------------dance-single - ----------------
#NOTES:
     dance-single:
     :
     Medium:
     6:
     0.484,0.633,0.356,0.091,0.017:
0000
0000
0000
0000
,
0000
0000
0000
0000
,
0000
0000
0000
0000
,
0000
0000
0000
0000
,
0000
0000
0000
0000
,
0000
0000
0000
0000
,
1001
0000
0000
1100
0000
0000
1001
0000
,
0000
0101
0000
0000
1001
0000
0100
0000
,
1001
0001
0100
0010
,
1000
0100
1000
0010
,
0100
0001
0010
0100
,
1000
0100
0010
0001
,
0100
0010
1000
0010
,
0100
0001
1000
0001
,
0001
0000
1000
0001
0000
1000
0010
0000
,
1000
0001
0000
1000
0100
1000
0100
1000
,
0001
0000
0100
0010
0000
0010
0000
0010
,
1000
0000
0001
0100
0010
0000
1000
0000
,
0001
0000
0100
0010
0000
1000
0000
0010
,
0100
0000
0001
0010
0100
0000
1000
0000
,
0001
0000
0100
0010
0000
1000
0000
0010
,
0100
0000
0001
0100
0010
0000
1000
0000
,
0010
0000
0100
0001
0000
1000
0000
0100
,
0010
0000
0001
0010
0100
0000
1000
0100
,
1000
0000
0001
0100
0000
0010
0000
1000
,
0010
0000
0100
0001
1000
0000
0001
0000
,
0010
0000
0100
1000
0000
1000
0000
0010
,
0100
0000
0001
0100
0001
0000
1000
0000
,
0010
0000
0100
1000
0000
0010
0000
0100
,
0001
0000
0100
0010
0100
0000
0001
0000
,
0010
0000
0100
1000
0000
0010
0000
0100
,
0001
0000
1000
0100
1000
0000
0001
1000
,
1001
0001
0100
0010
,
1000
0000
0010
0100
0000
0100
0000
0100
,
0001
0010
0100
1000
,
0100
0000
0010
0001
0000
0001
0000
0001
,
0100
0010
1000
0010
,
0100
0000
0001
0010
0000
0010
0000
0010
,
0100
1000
0010
0100
,
0001
0000
1000
0100
0000
0100
0000
0100
,
0010
0001
0100
0010
,
1000
0000
0010
0100
0000
0100
0000
0100
,
0001
0010
0001
0100
,
0010
0000
1000
0001
0000
0001
0000
0001
,
0100
0010
1000
0010
,
0100
0000
0001
0010
0000
0010
0000
0010
,
0100
1000
0101
0010
,
1001
0100
0011
0100
,
1001
0001
0100
0010
1000
0001
1000
0001
,
2000
0000
0001
0001
3001
0100
0010
0000
,
1000
0100
0010
0000
0001
0000
0100
0000
,
0010
0000
1000
0000
0001
0010
0001
0000
,
1000
0100
1000
0000
0001
0000
0100
0000
,
0010
0000
0000
0000
1000
0100
0010
0000
,
0001
0010
0100
0000
1000
0000
0100
0000
,
0010
0000
0010
0000
0001
0010
0001
0000
,
1000
0100
1000
0000
0001
0000
0100
0000
,
0010
0000
0010
0000
1000
0100
0010
0000
,
0001
0010
0100
0000
1000
0000
0010
0000
,
0100
0000
0001
0000
1000
0100
0001
0000
,
0100
1000
0010
0000
0100
0000
0001
0000
,
1000
0000
0000
0000
0001
0100
0001
0000
,
1000
0100
1000
0000
0001
0100
0001
0100
,
0001
0000
1000
0000
0001
0010
0001
0000
,
1000
0100
1000
0000
0101
0000
1001
0000
,
1100
1001
0102
0010
,
1000
0100
2003
0010
,
0001
0100
3020
0100
,
0001
1000
0230
0001
,
1000
0000
0310
1000
0002
0000
0010
0000
,
0100
0010
2003
0100
,
0010
0001
3200
0010
,
0001
1000
0320
0001
,
1030
0000
0001
0010
0100
0000
1100
0000
,
1100
1100
1001
1001
,
1001
1001
0101
0101
,
0101
0101
0110
0110
,
0110
0000
0010
1000
0101
0000
1001
0000
,
1100
0110
0011
0110
,
1100
1001
0101
1100
,
1010
0000
0000
0011
0000
0000
0001
0000
1000
0000
0001
0000
,
1000
0000
0001
0000
1000
0000
2002
0000
0000
0000
0000
0000
,
0000
0000
0000
0000
,
0000
0000
0000
0000
,
0000
0000
0000
0000
,
3003
0000
0000
0000
;

//---------------dance-single - ----------------
#NOTES:
     dance-single:
     :
     Easy:
     4:
     0.333,0.492,0.174,0.066,0.000:
0000
0000
0000
0000
,
0000
0000
0000
0000
,
0000
0000
0000
0000
,
0000
0000
0000
0000
,
0000
0000
0000
0000
,
0000
0000
0000
0000
,
1001
0000
0000
1001
0000
0000
1001
0000
,
0000
1001
0000
0000
1001
0000
1000
0000
,
1001
0001
0100
0001
,
1000
0100
1000
0100
,
0010
0001
0010
0001
,
1000
0010
1000
0010
,
0100
0001
0100
0010
,
1000
0001
0010
0100
,
1000
0000
0000
1000
0000
0000
1000
0000
,
0000
1000
0000
0000
1000
0000
0001
0000
,
1001
0000
1000
0000
,
0010
0100
0001
0100
,
0010
0000
1000
0000
,
0001
0010
0100
1000
,
0010
0000
0100
0000
,
0001
0100
0010
1000
,
0001
0000
0010
0000
,
0001
0100
0010
1000
,
1000
0000
0010
0000
,
0100
0001
1000
0010
,
0100
0000
0001
0000
,
0010
0100
1000
0100
,
0010
0000
0001
0000
,
0100
0010
1000
0010
,
0100
0000
0001
0000
,
0010
0001
0100
0010
,
1000
0000
0001
0000
,
0010
0000
0100
1000
,
0001
0000
0100
0000
,
0010
0000
1000
0001
,
0100
0000
0010
0000
,
1000
0000
0001
0010
,
0001
0000
0100
0000
,
1000
0000
0010
0001
,
0100
0000
0010
0000
,
1000
0000
0001
0100
,
0010
0000
1000
0000
,
0100
0000
0010
0001
,
0100
0000
0010
0000
,
1000
0000
0001
0010
,
0001
0000
1001
0000
,
0110
0000
1001
0100
,
2002
3003
1000
0001
,
1001
0000
1000
0100
,
0010
0001
0100
0010
,
0010
0010
1000
0001
,
0100
0010
1000
1000
,
0001
0000
1000
0100
,
1000
0010
0100
0100
,
0001
0001
1000
0100
,
1000
0010
0100
0100
,
0001
0001
1001
1000
,
0100
1000
0010
0010
,
0010
0010
0100
0001
,
0100
0010
1000
1000
,
1000
0000
0001
0010
,
0001
0100
0010
0010
,
0010
0010
1000
0001
,
0010
0100
1100
1100
,
1100
1100
1001
0001
,
0001
0001
0100
0100
,
0100
0100
0010
0010
,
0010
0010
1000
1000
,
1000
1000
0002
0100
,
0100
0100
0203
0010
,
0010
0010
0320
1000
,
1000
1000
2030
0001
,
0001
3001
1000
0100
,
0010
0001
1000
0010
,
0100
0001
1000
0100
,
1000
0100
0010
0001
,
0010
0001
0100
0010
,
1000
0010
0100
0001
,
0010
0100
1000
0001
,
0100
0001
0101
0000
,
1100
0000
2002
0000
,
0000
0000
0000
0000
,
0000
0000
0000
0000
,
0000
0000
0000
0000
,
3003
0000
0000
0000
;

//---------------dance-single - ----------------
#NOTES:
     dance-single:
     :
     Beginner:
     2:
     0.177,0.270,0.083,0.000,0.000:
0000
0000
0000
0000
,
0000
0000
0000
0000
,
0000
0000
0000
0000
,
0000
0000
0000
0000
,
0000
0000
0000
0000
,
0000
0000
0000
0000
,
0000
0000
0000
0000
,
0000
0000
0000
0000
,
1001
0000
0001
0000
,
0100
0000
0001
0000
,
0100
0000
0010
0000
,
0100
0000
0010
0000
,
1000
0000
0010
0000
,
1000
0000
0010
0000
,
1001
0000
0000
1001
,
0000
0000
1001
0000
,
1001
0000
0001
0000
,
0100
0000
0100
0000
,
0010
0000
0010
0000
,
1000
0000
1000
0000
,
0001
0000
0001
0000
,
0010
0000
0010
0000
,
0100
0000
0100
0000
,
1000
0000
1000
0000
,
0001
0000
0001
0000
,
0100
0000
0100
0000
,
0010
0000
0010
0000
,
0100
0000
0100
0000
,
0001
0000
0001
0000
,
0010
0000
0010
0000
,
0100
0000
0100
0000
,
1000
0000
1000
0000
,
0001
0000
0000
0000
,
0001
0000
0001
0000
,
0100
0000
0000
0000
,
0100
0000
0100
0000
,
0010
0000
0000
0000
,
0010
0000
1000
0000
,
1000
0000
0000
0000
,
0001
0000
0001
0000
,
0010
0000
0000
0000
,
0010
0000
0100
0000
,
0100
0000
0000
0000
,
0100
0000
1000
0000
,
1000
0000
0000
0000
,
1000
0000
0010
0000
,
0010
0000
0010
0000
,
0100
0000
0100
0000
,
1001
0000
1001
0000
,
0000
0000
1000
0000
,
1000
0000
0010
0010
,
0010
0000
0100
0000
,
0100
0000
0001
0001
,
0001
0000
1000
0000
,
1000
0000
0100
0100
,
0100
0000
1000
0000
,
1000
0000
0010
0010
,
0010
0000
0100
0000
,
0100
0000
0001
0001
,
0001
0000
0010
0000
,
0010
0000
1000
1000
,
1000
0000
0010
0000
,
0010
0000
0100
0100
,
0100
0000
0001
0000
,
0001
0000
1000
1000
,
1000
1000
1000
0000
,
0000
0000
1000
0000
,
0000
0000
0001
0000
,
0000
0000
0001
0000
,
0000
0000
0100
0000
,
0000
0000
0100
0000
,
0000
0000
0010
0000
,
0000
0000
0010
0000
,
0000
0000
1000
0000
,
1000
0000
0010
0000
,
0010
0000
0100
0000
,
0100
0000
0001
0000
,
0001
0000
1000
0000
,
0100
0000
0010
0000
,
0001
0000
1000
0000
,
0001
0000
0110
0000
,
0110
0000
1001
0000
;
