#TITLE:FUCKING Saturday Night FEVER!!;
#SUBTITLE:;
#ARTIST:MiNDFuCKeD LOLi;
#TITLETRANSLIT:;
#SUBTITLETRANSLIT:;
#ARTISTTRANSLIT:;
#CREDIT:;
#BANNER:Fucking Saturday Night Fever!! - BN.png;
#BACKGROUND:Fucking Saturday Night Fever!! - BG.png;
#LYRICSPATH:;
#CDTITLE:cdtitlegpop.png;
#MUSIC:MiNDFuCKeD LOLi - FUCKING Saturday Night FEVER!!.ogg;
#OFFSET:-4.560;
#SAMPLESTART:76.133;
#SAMPLELENGTH:14.700;
#SELECTABLE:YES;
#BPMS:0.000=332.999,24.000=665.997,28.000=332.999,52.000=665.997,56.000=332.999,80.000=665.997,86.000=332.999,110.000=665.997,114.000=332.999,116.000=665.998,134.000=332.999,158.000=665.998,162.000=332.999,185.000=665.998,191.000=332.999,215.000=665.998,221.000=332.999,222.000=665.998,226.000=332.999,249.000=665.998,253.000=332.999,300.000=665.998,334.000=166.501,367.000=333.003,384.000=666.006,388.000=333.003,438.000=666.006,446.000=333.003,494.000=666.006,502.000=333.003,524.000=166.501,561.500=333.003,589.000=666.006,591.000=333.003,592.000=666.006,594.000=333.003,596.000=666.006,650.000=333.003;
#STOPS:116.000=0.471
,121.000=0.090
,314.000=0.068
,314.750=0.068
,315.500=0.045
,316.000=0.023
,316.250=0.045
,318.250=0.045
,318.750=0.045
,319.250=0.045
,319.750=0.045
,320.250=0.045
,320.750=0.045
,321.250=0.285
,322.000=0.070
,322.750=0.075
,323.500=0.020
,323.750=0.020
,324.000=0.045
,324.500=0.045
,325.000=0.045
,325.500=0.045
,326.000=0.045
,326.500=0.045
,327.000=0.045
,334.000=5.025
,367.000=0.901
,561.500=6.732
;
#BGCHANGES:;

//---------------dance-single - ----------------
#NOTES:
     dance-single:
     :
     Challenge:
     12:
     0.862,1.000,0.037,0.286,0.257:
1000
0100
0010
0001
,
0100
1000
0100
0001
,
0010
0100
0010
0001
,
0100
0010
1000
0001
,
0010
0100
1000
0010
,
0100
0000
0001
0000
1000
0000
0001
0100
,
0002
0000
0000
0000
,
0103
0010
1000
0100
,
0001
0100
1000
0010
,
0100
0001
0010
0100
,
1000
0100
0001
0100
,
1000
0010
0100
0001
,
0010
0000
0100
0000
1000
0000
0001
0100
,
0002
0000
0000
0000
,
1003
0100
0010
0001
,
0010
0100
1000
0010
,
0100
0001
0010
1000
,
0010
0001
0100
0010
,
1000
0100
1000
0100
,
0010
0000
0001
0000
0010
0000
0001
0100
,
0002
0000
0000
0000
,
0000
0000
2MM3
0000
,
3001
0100
0001
0100
,
0010
1000
0100
0001
,
0100
1000
0010
0100
,
0001
0010
0100
1000
,
0001
0100
0010
1000
,
0100
0000
0001
0100
2000
0000
0000
0000
,
0000
0000
3MM2
0000
,
M003
2000
0000
0000
,
0000
3000
M002
0000
,
0000
0000
0000
0000
,
0000
0000
0000
0000
,
0000
0000
1003
0100
,
0100
0000
0010
0001
0100
0000
0010
0000
,
0010
0000
1000
0100
1000
0000
0010
0000
,
0100
0000
0001
0010
0100
0000
1000
0000
,
0010
0000
0100
0001
1000
0000
0010
0000
,
0100
0000
0001
0010
0001
0000
0010
0000
,
0100
0000
1000
0010
0200
0000
0000
0000
,
0001
0000
0000
0000
0301
0000
0010
0100
,
1000
0000
0001
0000
0100
0000
0010
1000
,
0001
0000
0010
0000
0100
0000
1000
0100
,
0010
0000
0001
0000
0001
0000
0010
0100
,
0010
0000
0001
0000
0100
0000
0010
1000
,
0001
0000
0100
0000
0001
0000
0100
0010
,
1000
0002
0000
1000
,
0000
1000
0000
1003
,
0001
0000
0100
0000
0010
1000
0001
0000
,
0010
0000
0100
0000
1000
0010
0100
0000
,
0001
0000
0100
0000
0010
1000
0001
0000
,
0010
0000
0100
0000
1000
0100
0001
0000
,
0100
0000
1000
0000
0001
0100
0010
0000
,
1000
0000
0001
0000
0100
0010
0200
0000
,
0000
0001
0000
0001
,
0000
0000
0301
1000
0002
0000
0000
0000
,
1000
0000
0000
0000
1003
0000
0010
0100
,
0001
0000
0010
0000
0100
0000
1000
0010
,
1000
0000
0001
0000
0010
0000
0100
1000
,
0010
0100
0001
1001
,
1000
0100
1000
0100
0010
0001
0010
0001
,
1000
0010
1000
0010
0100
0001
0100
0001
,
1000
0001
2000
0000
0000
0000
0001
0000
,
0000
0000
3001
0100
0001
0100
0010
1000
,
0010
1000
0001
0010
0001
0010
0100
1000
,
0100
1000
0001
1000
0001
1000
0010
0100
,
0010
0100
0001
0010
0001
0010
0100
0010
,
0100
1000
0100
1000
0001
1000
0001
1000
,
0001
0010
0100
1000
0010
0100
0001
0100
,
0010
1000
0100
0001
0100
1000
0010
0100
,
0001
0010
0100
1000
0001
0100
0010
1000
,
0001
0100
0001
0100
0010
1000
0010
1000
,
0001
0100
0010
1000
0100
1000
0010
0100
,
0001
0010
0100
1000
0100
0010
0001
0100
,
0010
1000
0100
1000
0100
0010
0001
0010
,
0002
0000
0000
0000
,
0000
0000
0000
0000
,
0000
0000
0000
0000
,
0000
0000
0000
0000
0000
0000
0000
0000
1003
0000
0000
0010
0000
0000
0100
0000
,
0001
1000
0000
0020
0000
0000
0000
0000
0000
0130
0000
0001
0000
0010
0000
0100
,
0000
1000
0000
0001
0000
1000
0000
0000
0001
0000
0000
0100
0000
0000
0002
0000
,
1003
0100
0010
0001
0100
0010
1000
0002
,
0000
0000
0000
0000
,
0000
0000
0000
0000
0000
0000
0000
0000
0000
0000
0000
0000
0000
0000
0000
0000
0000
0000
0000
0000
0000
0000
0000
0000
2003
0000
0000
3000
0000
0000
0000
0000
0000
0000
0000
0000
1001
0000
0000
0000
0000
0000
0000
0000
1000
0000
0000
0000
,
0010
0000
0000
0000
0010
0000
0100
0000
0000
0000
0100
0000
0001
0000
0000
0000
0001
0000
1000
0000
0000
0100
0000
0000
,
1000
0000
0000
0010
0000
0000
1000
0000
0000
0001
0000
0000
1000
0000
0000
0010
0000
0000
1000
0000
0000
0000
1000
0000
,
0100
0000
0000
0000
0100
0000
0010
0000
0000
0000
0010
0000
0001
0000
0000
0000
0001
0000
0100
0000
0000
0010
0000
0000
,
0100
0000
0000
0001
0000
0000
0100
0000
0000
1000
0000
0000
0100
0000
0000
0010
0000
0000
0100
0000
0000
0000
0001
0000
,
0100
0000
0000
0000
0010
0000
1000
0000
0000
0000
0001
0000
0010
0000
0000
0000
0100
0000
1000
0000
0000
0010
0000
0000
,
1000
0000
0000
0001
0000
0000
1000
0000
0000
0100
0000
0000
1000
0000
0000
0001
0000
0000
1000
0000
0000
0000
0100
0000
,
0010
0000
0000
0000
0001
0000
0100
0000
0000
0000
1000
0000
0100
0000
0000
0000
0001
0000
0010
0000
0000
0100
0000
0000
,
0010
1000
0010
0001
0010
0001
1000
0MM0
,
1001
0000
0001
0100
0010
0000
1000
0100
,
1000
0000
0010
0100
0001
0000
1000
0100
,
0010
0010
0001
0001
,
0100
0000
0100
0000
0010
0000
0010
1000
,
0200
0000
0010
0000
,
0310
0000
0001
0100
0010
0000
1000
0100
,
1000
0000
0010
0100
0001
0000
0001
0000
,
0100
0100
0010
0010
,
1000
0000
1000
0100
0010
0000
0001
0010
,
0100
0000
1000
0010
0100
0000
0001
0100
,
0010
0000
1000
0001
1000
0000
1000
0000
,
0010
0010
0100
0100
,
0001
0000
0001
0100
0001
0000
1000
0100
,
1000
0000
0001
0010
0001
0000
1000
0010
,
1000
0000
0001
0010
0100
0000
0100
0000
,
1000
1000
0010
0010
,
0100
0000
0100
0010
1000
0000
0001
0010
,
1000
0000
0010
0001
0200
0000
0000
0000
,
0001
0000
0302
0000
,
1000
0000
1003
1000
,
0100
0100
0010
0010
,
0001
0000
0001
0100
0001
0000
0100
0010
,
1000
0000
0001
0010
1000
0000
0010
0001
,
0100
0000
0010
1000
0001
0000
0001
0000
,
0100
0100
0010
0010
,
1000
0000
1000
0100
1000
0000
0001
0100
,
1000
0000
0100
0001
1000
0000
0010
0100
,
1000
0000
0001
1000
0001
0000
0001
0000
,
0100
0100
0010
0010
,
1000
0000
1000
0000
0001
0000
1000
0100
,
0010
0000
0001
0100
0010
0000
1000
0001
,
0100
0000
0001
1000
0002
0000
0000
0000
,
1000
0000
1000
0000
,
1000
0000
1003
1000
,
0001
0000
0001
0000
1000
0000
0001
0100
,
0010
0000
1000
0010
0100
0000
0001
1000
,
0001
0000
1000
0100
0010
0000
0010
0000
,
0001
0001
1000
1000
,
0010
0000
0010
0000
0100
0000
0001
1000
,
0001
0000
0000
0000
1000
0000
0100
0000
0000
0000
0010
0000
0001
0000
0000
0000
1000
0000
0010
0000
0000
0010
0000
0000
,
0100
0100
0001
0001
1000
1000
1001
0000
,
0001
0100
0010
1000
0100
0010
0001
0010
0100
2000
0000
0000
,
0000
0000
0000
0000
0000
3000
0002
0000
,
0103
0010
1000
0100
0010
0001
0010
0100
1000
0002
0000
0000
,
0000
0000
0000
0000
0000
0000
0003
1000
0100
2000
0000
0000
,
3001
0000
0000
0000
0100
0000
0000
0000
0010
0000
0000
0000
2000
0000
0000
0000
0000
0000
3002
0000
0000
0000
0000
0000
0000
0000
0000
1003
0000
0000
0100
0000
0000
0010
0000
0000
0002
0000
0000
0000
0000
0000
0000
0000
0000
0000
0000
0000
,
1003
0100
1000
0001
0100
0001
1000
0100
0010
0002
0000
0000
,
1003
0000
0000
0000
0100
0000
0000
0000
1000
0000
0000
0000
0020
0000
0000
0000
0000
0000
0230
0000
0000
0000
0000
0000
0000
0000
0000
0301
0000
0000
0010
0000
0000
0100
0000
0000
2000
0000
0000
0000
0000
0000
0000
0000
0000
0000
0000
0000
,
0000
0000
0000
3001
0MM2
0000
1000
0000
,
1003
0000
0100
0000
0010
0000
0001
0000
0100
0000
0010
0000
,
1000
0000
0010
0000
0100
0000
0001
0000
0000
0010
0000
0000
,
0100
1000
0010
0100
,
0001
1000
0020
0100
,
0130
0000
0001
0000
0010
0000
0001
0000
0100
0000
0010
0000
,
1000
0000
0100
0000
0010
0000
0001
0000
0000
1000
0000
0000
,
0010
0200
0000
0301
,
2000
0000
0000
0000
3001
0000
1000
0100
,
1000
0100
1000
0100
,
1000
0100
1000
0100
,
0010
0001
0010
0001
,
0010
0001
0010
0001
,
1000
0010
1000
0010
,
1000
0010
1000
0010
,
0100
0001
0100
0001
,
0100
0001
0100
0001
,
1000
0100
0010
0001
,
1000
0010
0100
0001
,
1000
0100
0010
0100
,
1000
0010
0100
0001
,
1000
0100
1000
0010
,
0100
0001
0010
2M02
,
0000
0000
0000
0000
,
0000
0000
0000
0000
,
0000
0000
0000
0000
0000
0000
0000
3003
;

//---------------dance-single - ----------------
#NOTES:
     dance-single:
     :
     Hard:
     9:
     0.690,1.000,0.051,0.250,0.378:
1000
0100
1000
0100
,
0010
0001
0010
0001
,
1000
0010
1000
0010
,
0100
0001
0100
0001
,
1000
0100
0010
0001
,
0100
0010
1000
0001
,
2000
0000
0000
0000
,
3001
0100
0001
0100
,
0010
1000
0010
1000
,
0001
0010
0001
0010
,
0100
1000
0100
1000
,
0010
0100
0001
0010
,
0100
1000
0100
0010
,
0002
0000
0000
0000
,
1003
0010
0100
0001
,
0100
0010
1000
0100
,
1000
0100
0010
0001
,
0010
0100
1000
0010
,
0100
0001
0010
0001
,
0010
0100
1000
0100
,
2000
0000
0000
0000
,
0000
0000
3000
0000
,
1000
0010
0100
0001
,
1000
0010
0100
0001
,
1000
0100
0010
0001
,
1000
0100
0010
0001
,
0100
0010
1000
0001
,
0010
0100
2000
0000
,
0000
0000
3000
0000
,
1001
2002
0000
0000
,
0000
3003
2002
0000
,
0000
0000
0000
0000
,
0000
0000
0000
0000
,
0000
3003
1000
0100
,
0010
0001
0001
0100
,
0010
1000
1000
0100
,
1000
0010
0010
0100
,
0001
0010
0010
0100
,
1000
0001
0001
0100
,
0010
1000
2000
0000
,
0000
0000
3001
0100
,
0100
0010
0100
0001
,
0001
1000
0100
0010
,
0010
0001
0100
0010
,
0010
1000
0100
1000
,
1000
0010
0100
0001
,
0001
0200
0000
0000
,
0000
0000
0000
0310
,
1000
0001
0010
0010
,
0100
1000
0010
0010
,
0100
0001
0100
0100
,
0010
1000
0001
0001
,
0010
0100
1000
1000
,
0010
0100
0001
0002
,
0000
0000
0000
0000
,
0000
1003
2000
0000
,
0000
0000
3010
0100
,
0100
0001
0010
0100
,
0100
1000
0010
1000
,
1000
0001
1000
1001
,
1000
0100
0010
0001
,
1000
0000
0010
0000
0100
0000
0001
0100
,
0001
2000
0000
0000
,
0000
3001
0010
0100
,
1000
0000
0010
0100
0001
0000
0010
0000
,
0100
1000
0010
0100
,
0001
0000
1000
0100
0010
0000
0001
0000
,
0010
0100
1000
0010
,
0100
0000
0001
1000
0001
0000
0010
0000
,
0001
0100
0010
1000
,
0100
0000
0010
0001
0010
0000
0100
0000
,
1000
0010
0100
0001
,
1000
0000
0010
0100
0001
0000
1000
0000
,
0100
0010
0001
0100
,
0010
0000
1000
0100
1000
0000
0010
0000
,
2002
0000
0000
0000
,
0000
0000
0000
0000
,
0000
0000
3003
0000
,
0002
0000
0000
0000
0000
0000
0000
0000
1003
0000
0000
0100
0000
0000
0010
0000
,
0001
2000
0000
0000
0000
0000
0000
0000
0000
3000
0000
0001
0000
0100
0000
0001
,
0000
0100
0000
0001
0000
0100
0000
0000
0001
0000
0000
0010
0000
0000
0100
1000
,
0100
1000
0100
1000
0100
1000
0100
2000
,
0000
0000
0000
0000
,
0000
0000
0000
0000
0000
0000
3001
0000
0000
1000
0000
0001
,
0100
0000
0000
0000
0100
0000
0010
0000
0000
0000
0010
0000
1000
0000
0000
0000
1000
0000
0001
0000
0000
0010
0000
0000
,
0001
0000
0000
0010
0000
0000
0100
0000
0000
1000
0000
0000
0100
0000
0000
1000
0000
0000
0001
0000
0000
0000
0001
0000
,
0010
0000
0000
0000
0010
0000
0100
0000
0000
0000
0100
0000
1000
0000
0000
0000
1000
0000
0001
0000
0000
0100
0000
0000
,
0001
0000
0000
0100
0000
0000
0010
0000
0000
1000
0000
0000
0010
0000
0000
1000
0000
0000
0001
0000
0000
0000
1000
0000
,
0100
0000
0000
0000
0010
0000
0001
0000
0000
0000
0100
0000
0010
0000
0000
0000
1000
0000
0001
0000
0000
0100
0000
0000
,
0010
0000
0000
1000
0000
0000
0001
0000
0000
0010
0000
0000
0100
0000
0000
1000
0000
0000
0001
0000
0000
0000
0100
0000
,
0010
0000
0000
0000
1000
0000
0100
0000
0000
0000
0010
0000
0001
0000
0000
0000
1000
0000
0001
0000
0000
0100
0000
0000
,
1000
0100
0001
0010
1000
0010
0001
0000
,
1000
0000
0000
0000
0001
0000
0100
0000
0000
0000
0010
0000
,
1000
0000
0000
0000
0001
0000
1000
0000
0000
0000
0010
0000
,
0100
0001
0100
0001
,
1000
0010
1000
0010
,
2000
0000
0000
0000
,
3001
0000
0000
0000
0010
0000
0100
0000
0000
0000
1000
0000
,
0001
0000
0000
0000
0100
0000
0010
0000
0000
1000
0000
0000
,
0010
1000
0001
0100
,
0001
0000
0000
0100
0000
0000
0001
0000
0000
0000
1000
0000
,
0001
0000
0000
0000
0010
0000
0100
0000
0000
0000
1000
0000
,
0100
0000
0000
0000
0010
0000
0001
0000
0000
0100
0000
0000
,
0001
0100
0010
1000
,
0010
0000
0000
1000
0000
0000
0001
0000
0000
0000
1000
0000
,
0100
0000
0000
0000
0010
0000
0001
0000
0000
0000
1000
0000
,
0010
0000
0000
0000
0100
0000
0001
0000
0000
0100
0000
0000
,
0001
0100
0010
1000
,
0010
0000
0000
1000
0000
0000
0001
0000
0000
0000
0010
0000
,
0100
0000
0000
0000
1000
0000
0002
0000
0000
0000
0000
0000
,
0000
0000
2003
0000
,
0000
0000
3001
0100
,
0001
0100
0010
1000
,
0010
0000
0000
1000
0000
0000
0001
0000
0000
0000
0010
0000
,
0100
0000
0000
0000
1000
0000
0001
0000
0000
0000
0100
0000
,
0010
0000
0000
0000
1000
0000
0001
0000
0000
0010
0000
0000
,
0100
1000
0001
0100
,
0010
0000
0000
1000
0000
0000
0001
0000
0000
0000
0010
0000
,
0100
0000
0000
0000
1000
0000
0001
0000
0000
0000
1000
0000
,
0100
0000
0000
0000
0010
0000
0001
0000
0000
0010
0000
0000
,
0001
0010
0100
1000
,
0100
0000
0000
1000
0000
0000
0010
0000
0000
0000
0100
0000
,
0001
0000
0000
0000
1000
0000
0001
0000
0000
0000
0100
0000
,
0010
0000
0000
0000
1000
0000
0002
0000
0000
0000
0000
0000
,
0000
0000
0000
0000
,
0000
0000
1003
0010
,
1000
0000
0000
0001
0000
0000
1000
0000
0000
0000
0001
0000
,
0100
0000
0000
0000
0010
0000
1000
0000
0000
0000
0001
0000
,
0010
0000
0000
0000
0100
0000
1000
0000
0000
0001
0000
0000
,
1000
0001
0100
0010
,
0100
0000
0000
0010
0000
0000
0001
0000
0000
0000
1000
0000
,
0001
0000
0000
0000
0001
0000
0100
0000
0000
0000
0100
0000
0010
0000
0000
0000
0010
0000
1000
0000
0000
0100
0000
0000
,
1000
0100
0010
0001
0010
0001
1000
0000
,
0001
0100
0001
0100
0001
0100
0010
1000
0010
2000
0000
0000
,
0000
0000
3000
0002
,
1003
0100
1000
0100
1000
0100
0010
0001
0010
0002
0000
0000
,
0000
0000
0000
0000
0000
0000
0003
1000
0100
1000
0000
0000
,
0001
0000
0000
0000
0100
0000
0000
0000
0001
0000
0000
0000
0100
0000
0000
0000
0000
0000
0001
0000
0000
0000
0000
0000
0000
0000
0000
1000
0000
0000
0001
0000
0000
1000
0000
0000
0002
0000
0000
0000
0000
0000
0000
0000
0000
0000
0000
0000
,
1003
0100
1000
0100
1000
0100
0010
0001
0010
0002
0000
0000
,
1003
0000
0000
0000
0100
0000
0000
0000
1000
0000
0000
0000
0100
0000
0000
0000
0000
0000
0010
0000
0000
0000
0000
0000
0000
0000
0000
0001
0000
0000
0100
0000
0000
0001
0000
0000
0200
0000
0000
0000
0000
0000
0000
0000
0000
0000
0000
0000
,
0000
0000
0300
1001
2000
0000
0000
0000
,
3001
0000
0100
0000
0001
0000
0100
0000
0001
0000
0100
0000
,
0010
0000
1000
0000
0010
0000
1000
0000
0000
0001
0000
0000
,
1000
0001
0100
0010
,
1000
0001
2000
0000
,
3001
0000
0010
0000
0001
0000
0010
0000
0001
0000
0010
0000
,
0100
0000
1000
0000
0100
0000
1000
0000
0000
0010
0000
0000
,
0100
0002
0000
0003
,
2000
0000
3000
0001
,
1000
0000
0100
0000
,
1000
0000
0100
0000
,
1000
0000
0100
0000
,
1000
0000
0100
0000
,
0010
0000
0001
0000
,
0010
0000
0001
0000
,
0010
0000
0001
0000
,
0010
0000
0001
0000
,
1000
0000
0100
0000
,
0010
0000
0001
0000
,
1000
0000
0100
0000
,
0010
0000
0001
0000
,
1000
0000
0010
0000
,
0100
0000
0001
2002
,
0000
0000
0000
0000
,
0000
0000
0000
0000
0000
0000
0000
3003
;

//---------------dance-single - ----------------
#NOTES:
     dance-single:
     :
     Medium:
     7:
     0.493,0.791,0.037,0.213,0.000:
1000
0100
1000
0100
,
1000
0100
1000
0100
,
0010
0001
0010
0001
,
0010
0001
0010
0001
,
1000
0010
1000
0010
,
1000
0010
1000
0010
,
0200
0000
0000
0000
,
0301
1000
0001
1000
,
0001
1000
0001
1000
,
0010
1000
0010
1000
,
0010
1000
0010
1000
,
0010
0100
0010
0100
,
0010
0100
0010
0100
,
0002
0000
0000
0000
,
1003
0010
1000
0010
,
1000
0010
1000
0010
,
0100
0010
0100
0010
,
0100
0010
0100
0010
,
0100
0001
0100
0001
,
0100
0001
0100
0001
,
0200
0000
0000
0000
,
0000
0000
0301
0000
,
1000
0001
1000
0001
,
1000
0001
1000
0001
,
0100
0001
0100
0001
,
0100
0001
0100
0001
,
0100
0010
0100
0010
,
0100
0010
0200
0000
,
0000
0000
0301
0000
,
2002
0000
0000
0000
,
0000
0000
0000
0000
,
0000
0000
0000
0000
,
0000
0000
0000
0000
,
3003
0000
1000
0100
,
0010
0000
0001
0100
,
0010
0000
1000
0100
,
1000
0000
0001
0100
,
0001
0000
0100
0010
,
1000
0000
0001
0010
,
0001
0000
2000
0000
,
0000
0000
3001
0000
,
0100
0010
1000
0000
,
0001
0010
0001
0000
,
1000
0100
1000
0000
,
0001
0010
0100
0000
,
1000
0100
0010
0000
,
0001
0200
0000
0000
,
0000
0000
0000
0310
,
1000
0010
0000
0100
,
0001
0100
0000
0010
,
1000
0001
0000
0010
,
0100
1000
0000
0100
,
0010
0001
0000
0100
,
0010
1000
0000
0002
,
0000
0000
0000
0000
,
0000
0003
2000
0000
,
0000
0000
3001
0000
,
0100
0010
1000
0000
,
0001
0010
0001
0000
,
1000
0100
1000
1100
,
0100
0000
0010
0000
,
0001
0000
0100
0010
,
1000
2000
0000
0001
,
0000
3000
0000
0001
,
0010
0100
1000
0000
,
0001
0000
0100
0000
,
0010
1000
0001
0000
,
1000
0000
0100
0000
,
0010
0001
0010
0000
,
0100
0000
1000
0000
,
0010
0100
0001
0000
,
0100
0000
0010
0000
,
1000
0100
0010
0000
,
0001
0000
0100
0000
,
0010
1000
0001
0000
,
2000
0000
0000
0000
,
0000
0000
0000
0000
,
0000
0000
0000
0000
,
3002
0000
0000
0000
,
0000
0000
0000
0000
,
0000
2003
0000
0000
,
0000
0000
0000
0000
,
0000
0000
0000
0000
,
0000
0000
3001
1000
,
0010
0000
0100
0000
0001
0000
1000
0100
,
1000
0100
0010
0001
0010
0001
1000
0000
,
0010
0000
0100
0000
0001
0000
1000
0100
,
0010
0001
1000
0010
0100
0001
1000
0000
,
0010
0000
0100
0000
0001
0000
1000
0100
,
1000
0100
0010
0001
0010
0001
1000
0000
,
0010
0000
0100
0000
0001
0000
1000
0100
,
1000
0000
0001
0100
0001
0000
1001
0000
,
1000
0000
0100
0000
,
0010
0000
0001
0000
,
0100
0010
0100
0010
,
1000
0001
1000
0001
,
2000
0000
0000
0000
,
3001
0000
0100
0000
,
0010
0000
1000
0100
,
0010
0001
1000
0010
,
0100
0001
1000
0000
,
0100
0000
0010
0000
,
0001
0000
0100
0010
,
0100
0010
1000
0100
,
0010
0001
1000
0000
,
0010
0000
0100
0000
,
0001
0000
1000
0100
,
1000
0010
0100
0001
,
0010
0100
1000
0000
,
0010
0000
0200
0000
,
0000
0000
0001
0000
,
0000
0000
0301
1000
,
0001
1000
0001
0010
,
0100
1000
0001
0000
,
0100
0000
0010
0000
,
1000
0000
0001
0100
,
0001
0100
0010
1000
,
0001
0010
0100
0000
,
1000
0000
0010
0000
,
0100
0000
0001
0010
,
0001
0100
1000
0010
,
0001
0100
0010
0000
,
1000
0000
0001
0000
,
0100
0000
0020
0000
,
0000
0000
0000
0000
,
0000
0000
1030
0100
,
0010
0001
1000
0000
,
0010
0000
0100
0000
,
0001
0000
1000
0100
,
0010
0001
0100
0010
,
1000
0001
1000
0000
,
0001
0000
0100
0000
0010
0000
1000
0100
,
1000
0000
0001
0010
0100
0000
2000
0000
,
3000
0001
0100
0020
,
0000
0000
0030
0200
,
0300
0001
0010
0002
,
0000
0003
1000
0001
,
0100
0010
1000
0000
0001
0010
0001
0000
,
0010
0100
1000
0010
0100
0001
1000
0000
,
0100
0000
0010
0000
0001
1000
0002
0000
,
0000
0000
0000
1003
1000
0000
0000
0000
,
0100
0000
0001
0100
,
0010
1000
0002
0000
,
1000
0000
0100
0000
,
1000
0000
1003
0000
,
0010
0100
0001
1000
,
0001
0100
0010
0000
,
0000
2000
0000
3000
,
0002
0000
0003
1000
,
0001
0000
0000
0000
,
0100
0000
0000
0000
,
0001
0000
0000
0000
,
0100
0000
0000
0000
,
0010
0000
0000
0000
,
1000
0000
0000
0000
,
0010
0000
0000
0000
,
1000
0000
0000
0000
,
0001
0000
0000
0000
,
0010
0000
0000
0000
,
0100
0000
0000
0000
,
1000
0000
0000
0000
,
2002
0000
0000
0000
,
0000
0000
3003
2002
,
0000
0000
0000
0000
,
0000
0000
0000
0000
,
0000
0000
0000
0000
0000
0000
0000
3003
;

//---------------dance-single - ----------------
#NOTES:
     dance-single:
     :
     Easy:
     4:
     0.324,0.538,0.044,0.161,0.000:
1000
0000
0100
0000
,
1000
0000
0100
0000
,
0010
0000
0001
0000
,
0010
0000
0001
0000
,
1000
0000
0010
0000
,
1000
0000
0010
0000
,
0200
0000
0000
0000
,
0301
0000
0010
0000
,
0100
0000
1000
0000
,
0010
0000
0100
0000
,
0001
0000
1000
0000
,
0001
0000
0010
0000
,
0100
0000
1000
0000
,
0002
0000
0000
0000
,
1003
0000
0100
0000
,
0010
0000
0001
0000
,
0100
0000
0010
0000
,
1000
0000
0010
0000
,
0100
0000
0001
0000
,
0010
0000
0100
0000
,
2000
0000
0000
0000
,
0000
0000
3001
0000
,
1001
0000
1000
0000
,
0010
0000
0100
0000
,
0001
0000
0010
0000
,
0100
0000
1000
0000
,
0100
0000
0010
0000
,
0001
0000
2000
0000
,
0000
0000
3000
0000
,
2002
0000
0000
0000
,
0000
0000
0000
0000
,
0000
0000
0000
0000
,
0000
0000
0000
0000
,
3003
0000
1000
0100
,
1000
0000
0010
0000
,
0100
0000
0001
0010
,
0100
0000
1000
0000
,
0100
0000
0010
0001
,
0100
0000
0010
0000
,
1000
0000
0002
0000
,
0000
0000
0003
0000
,
1000
0000
0010
0000
,
0100
0001
1000
0000
,
0001
0000
0010
0000
,
0100
1000
0100
0000
,
0010
0000
0001
0000
,
1000
2000
0000
0000
,
0000
0000
0000
3001
,
0000
0100
0000
0010
,
1000
0010
0000
0100
,
0000
0001
0000
0010
,
0100
1000
0000
0010
,
0000
0100
0000
0001
,
0100
0001
0000
2000
,
0000
0000
0000
0000
,
0000
3000
0002
0000
,
0000
0000
0003
0000
,
1000
0100
1000
0000
,
0010
0000
0100
0000
,
0001
0100
0001
0100
,
0001
0000
0100
0000
,
0010
0000
1000
0000
,
0001
2000
0000
0000
,
0000
3000
0001
0000
,
0100
0000
0010
0000
,
1000
0000
0001
0000
,
0010
0000
0100
0000
,
1000
0000
0010
0000
,
0100
0000
0001
0000
,
0100
0000
0010
0000
,
1000
0000
0001
0000
,
0010
0000
0100
0000
,
1000
0000
0010
0000
,
0100
0000
0001
0000
,
1000
0000
0001
0000
,
2000
0000
0000
0000
,
0000
0000
0000
0000
,
0000
0000
0000
0000
,
3002
0000
0000
0000
,
0000
0000
0000
0000
,
0000
0000
0000
0000
,
0000
0000
0000
0000
,
0000
0000
0000
0000
,
0000
0000
1003
0001
,
0000
0100
0000
0010
,
1000
0010
0100
0001
,
0000
1000
0000
0100
,
0010
0001
0100
0010
,
0000
1000
0000
0001
,
0100
0010
0100
0001
,
0000
0010
0000
0100
,
1000
0010
0100
1001
,
1000
0000
0100
0000
,
0010
0000
0001
0000
,
1000
0000
0100
0000
,
1000
0000
0100
0000
,
0020
0000
0000
0000
,
0030
0000
0001
0000
,
0100
0000
0010
0000
,
0100
0000
0001
0000
,
0010
0000
0100
0000
,
1000
0000
0010
0000
,
0100
0000
0001
0000
,
0010
0000
0001
0000
,
0100
0000
0010
0000
,
1000
0000
0010
0000
,
0100
0000
0001
0000
,
0100
0000
0010
0000
,
0100
0000
0001
0000
,
0010
0000
0200
0000
,
0000
0000
0000
0000
,
0000
0000
0300
0000
,
1000
0000
0010
0000
,
0100
0000
0001
0000
,
0010
0000
0001
0000
,
0010
0000
0100
0000
,
1000
0000
0100
0000
,
1000
0000
0010
0000
,
0100
0000
0001
0000
,
0100
0000
0001
0000
,
1000
0000
0010
0000
,
0100
0000
0010
0000
,
1000
0000
0100
0000
,
0010
0000
0002
0000
,
0000
0000
0000
0000
,
0000
0000
0003
0000
,
1000
0000
0010
0000
,
0100
0000
0001
0000
,
0100
0000
0010
0000
,
1000
0000
0100
0000
,
0010
0000
0001
0000
,
1000
0100
1000
0010
,
0100
0001
0100
0010
,
0000
1000
0001
2000
,
0000
0000
3000
0001
,
0000
0100
0010
2000
,
0000
0000
3000
0001
,
0100
0010
0100
0001
,
0010
0100
1000
0010
,
0100
0001
1000
2002
,
0000
3003
0000
1001
1000
0000
0000
0000
,
0100
0000
0010
0000
,
0001
0000
0200
0000
,
0000
0000
0000
0000
,
0300
0000
0010
0000
,
1000
0000
0001
0000
,
0010
0000
0200
0000
,
0000
0000
0000
0000
,
0000
0000
0300
0000
,
1000
0000
0000
0000
,
0000
0000
0000
0000
,
1000
0000
0000
0000
,
0000
0000
0000
0000
,
0001
0000
0000
0000
,
0000
0000
0000
0000
,
0001
0000
0000
0000
,
0000
0000
0000
0000
,
0100
0000
0000
0000
,
0000
0000
0000
0000
,
0100
0000
0000
0000
,
0000
0000
0000
0000
,
0010
0000
0000
0000
,
0000
0000
0000
1001
;

//---------------dance-single - ----------------
#NOTES:
     dance-single:
     :
     Beginner:
     3:
     0.164,0.418,0.059,0.000,0.000: // measure 1
1000
0000
0000
0000
,  // measure 2
1000
0000
0000
0000
,  // measure 3
0001
0000
0000
0000
,  // measure 4
0001
0000
0000
0000
,  // measure 5
0100
0000
0000
0000
,  // measure 6
0100
0000
0000
0000
,  // measure 7
0010
0000
0000
0000
,  // measure 8
0000
0000
0000
0000
,  // measure 9
0100
0000
0000
0000
,  // measure 10
0100
0000
0000
0000
,  // measure 11
0001
0000
0000
0000
,  // measure 12
0001
0000
0000
0000
,  // measure 13
1000
0000
0000
0000
,  // measure 14
1000
0000
0000
0000
,  // measure 15
0000
0000
0000
0000
,  // measure 16
0001
0000
0000
0000
,  // measure 17
0010
0000
0000
0000
,  // measure 18
0010
0000
0000
0000
,  // measure 19
0100
0000
0000
0000
,  // measure 20
0100
0000
0000
0000
,  // measure 21
1000
0000
0000
0000
,  // measure 22
0000
0000
0000
0000
,  // measure 23
0100
0000
0000
0000
,  // measure 24
0100
0000
0000
0000
,  // measure 25
0010
0000
0000
0000
,  // measure 26
0010
0000
0000
0000
,  // measure 27
0001
0000
0000
0000
,  // measure 28
0001
0000
0000
0000
,  // measure 29
0000
0000
0000
0000
,  // measure 30
1001
0000
0000
0000
,  // measure 31
0000
0000
0000
0000
,  // measure 32
0000
0000
0000
0000
,  // measure 33
0000
0000
0000
0000
,  // measure 34
0000
0000
1000
0000
,  // measure 35
0000
0000
1000
0000
,  // measure 36
0000
0000
0100
0000
,  // measure 37
0000
0000
0100
0000
,  // measure 38
0000
0000
0010
0000
,  // measure 39
0000
0000
0010
0000
,  // measure 40
0000
0000
0001
0000
,  // measure 41
0000
0000
0000
0000
,  // measure 42
0001
0000
0000
0000
,  // measure 43
0100
0000
0000
0000
,  // measure 44
0100
0000
0000
0000
,  // measure 45
0010
0000
0000
0000
,  // measure 46
0010
0000
0000
0000
,  // measure 47
1000
0000
0000
0000
,  // measure 48
0000
0000
0000
0000
,  // measure 49
0000
0000
0000
1000
,  // measure 50
0000
0000
0000
0010
,  // measure 51
0000
0000
0000
0010
,  // measure 52
0000
0000
0000
0100
,  // measure 53
0000
0000
0000
0100
,  // measure 54
0000
0000
0000
0001
,  // measure 55
0000
0000
0000
0000
,  // measure 56
0000
0000
0000
0000
,  // measure 57
0000
0000
0000
0000
,  // measure 58
0001
0000
0000
0000
,  // measure 59
0001
0000
0000
0000
,  // measure 60
0010
0000
0000
0000
,  // measure 61
0010
0000
0000
0000
,  // measure 62
0010
0000
0000
0000
,  // measure 63
0100
0000
0000
0000
,  // measure 64
0000
0000
1000
0000
,  // measure 65
0000
0000
1000
0000
,  // measure 66
0000
0000
0010
0000
,  // measure 67
0000
0000
0010
0000
,  // measure 68
0000
0000
0010
0000
,  // measure 69
0000
0000
0001
0000
,  // measure 70
0000
0000
0001
0000
,  // measure 71
0000
0000
0100
0000
,  // measure 72
0000
0000
0100
0000
,  // measure 73
0000
0000
0010
0000
,  // measure 74
0000
0000
0010
0000
,  // measure 75
0000
0000
1000
0000
,  // measure 76
1000
0000
0000
0000
,  // measure 77
0000
0000
0000
0000
,  // measure 78
0000
0000
0000
0000
,  // measure 79
0001
0000
0000
0000
,  // measure 80
0000
0000
0000
0000
,  // measure 81
0000
0000
0000
0000
,  // measure 82
0000
0000
0000
0000
,  // measure 83
0000
0000
0000
0000
,  // measure 84
0000
0000
1001
1001
,  // measure 85
0000
0001
0000
0100
,  // measure 86
0000
0100
0000
0010
,  // measure 87
0000
0010
0000
1000
,  // measure 88
0000
1000
0000
0001
,  // measure 89
0000
0001
0000
0010
,  // measure 90
0000
0010
0000
0001
,  // measure 91
0000
0001
0000
0100
,  // measure 92
0000
0100
0000
1001
,  // measure 93
1001
0000
0000
0000
,  // measure 94
1000
0000
0000
0000
,  // measure 95
0010
0000
0000
0000
,  // measure 96
0010
0000
0000
0000
,  // measure 97
0100
0000
0000
0000
,  // measure 98
0000
0000
0100
0000
,  // measure 99
0000
0000
0001
0000
,  // measure 100
0000
0000
0001
0000
,  // measure 101
0000
0000
0010
0000
,  // measure 102
0000
0000
0010
0000
,  // measure 103
0000
0000
0100
0000
,  // measure 104
0000
0000
0100
0000
,  // measure 105
0000
0000
1000
0000
,  // measure 106
0000
0000
1000
0000
,  // measure 107
0000
0000
0010
0000
,  // measure 108
0000
0000
0010
0000
,  // measure 109
0000
0000
0100
0000
,  // measure 110
0000
0000
0100
0000
,  // measure 111
0000
0000
0000
0000
,  // measure 112
0000
0000
0000
0000
,  // measure 113
0000
0000
0001
0000
,  // measure 114
0000
0000
0100
0000
,  // measure 115
0000
0000
0100
0000
,  // measure 116
0000
0000
0010
0000
,  // measure 117
0000
0000
0010
0000
,  // measure 118
0000
0000
1000
0000
,  // measure 119
0000
0000
1000
0000
,  // measure 120
0000
0000
0001
0000
,  // measure 121
0000
0000
0001
0000
,  // measure 122
0000
0000
0010
0000
,  // measure 123
0000
0000
0010
0000
,  // measure 124
0000
0000
0100
0000
,  // measure 125
0000
0000
0000
0000
,  // measure 126
0000
0000
0000
0000
,  // measure 127
0000
0000
0100
0000
,  // measure 128
0000
0000
1000
0000
,  // measure 129
0000
0000
1000
0000
,  // measure 130
0000
0000
0001
0000
,  // measure 131
0000
0000
0001
0000
,  // measure 132
0000
0001
0000
0100
,  // measure 133
0000
0100
0000
0001
,  // measure 134
0000
1000
1000
1000
,  // measure 135
0000
0000
0000
0010
,  // measure 136
0000
0100
0100
0100
,  // measure 137
0000
0000
0001
0001
,  // measure 138
0000
0001
0000
0100
,  // measure 139
0000
0100
0000
0010
,  // measure 140
0000
0010
0000
1001
,  // measure 141
0000
0000
1000
0000
,  // measure 142
0000
0000
1000
0000
,  // measure 143
0000
0000
0001
0000
,  // measure 144
0000
0000
0000
0000
,  // measure 145
0000
0000
0001
0000
,  // measure 146
0000
0000
0001
0000
,  // measure 147
0000
0000
0100
0000
,  // measure 148
0000
0000
0000
0000
,  // measure 149
0000
0000
0000
0000
,  // measure 150
1000
0000
0000
0000
,  // measure 151
0000
0000
0000
0000
,  // measure 152
0000
0000
0000
0000
,  // measure 153
0000
0000
0000
0000
,  // measure 154
1000
0000
0000
0000
,  // measure 155
0000
0000
0000
0000
,  // measure 156
0000
0000
0000
0000
,  // measure 157
0000
0000
0000
0000
,  // measure 158
0001
0000
0000
0000
,  // measure 159
0000
0000
0000
0000
,  // measure 160
0000
0000
0000
0000
,  // measure 161
0000
0000
0000
0000
,  // measure 162
1001
0000
0000
0000
,  // measure 163
0000
0000
0000
1001
;
