#TITLE:FUCKING Saturday Night FEVER!!;
#ARTIST:MiNDFuCKeD LOLi;
#FILE:MiNDFuCKeD LOLi - FUCKING Saturday Night FEVER!!.ogg;
#BPM:332.999;
#GAP:4560;
#SAMPLESTART:76.133;
#SAMPLELENGTH:14.700;
#CDTITLE:cdtitlegpop.png;
#FREEZE:464.000=471.000,484.000=90.000,1256.000=68.000,1259.000=68.000,1262.000=45.000,1264.000=23.000,1265.000=45.000,1273.000=45.000,1275.000=45.000,1277.000=45.000,1279.000=45.000,1281.000=45.000,1283.000=45.000,1285.000=285.000,1288.000=70.000,1291.000=75.000,1294.000=20.000,1295.000=20.000,1296.000=45.000,1298.000=45.000,1300.000=45.000,1302.000=45.000,1304.000=45.000,1306.000=45.000,1308.000=45.000,1336.000=5025.000,1468.000=901.000,2246.000=6732.000;
#CHANGEBPM:96.000=665.997,112.000=332.999,208.000=665.997,224.000=332.999,320.000=665.997,344.000=332.999,440.000=665.997,456.000=332.999,464.000=665.998,536.000=332.999,632.000=665.998,648.000=332.999,740.000=665.998,764.000=332.999,860.000=665.998,884.000=332.999,888.000=665.998,904.000=332.999,996.000=665.998,1012.000=332.999,1200.000=665.998,1336.000=166.501,1468.000=333.003,1536.000=666.006,1552.000=333.003,1752.000=666.006,1784.000=333.003,1976.000=666.006,2008.000=333.003,2096.000=166.501,2246.000=333.003,2356.000=666.006,2364.000=333.003,2368.000=666.006,2376.000=333.003,2384.000=666.006,2600.000=333.003;
#SINGLE:SMANIAC:12:
40208060
20402060
80208060
20804060
80204080
20604062
6!60000000
30804020
60204080
20608020
40206020
40802060
80204062
6!60000000
B0208060
80204080
20608040
80602080
40204020
80608062
6!60000000
0000B!4000
B0206020
80402060
20408020
60802040
60208040
20624!4000
0000B!6000
604!400000
00406!6000
00000000
00000000
0000B020
20862080
80424080
20682040
80264080
20686080
20482!2000
60003082
40602084
60802042
80606082
80602084
60206028
406!600040
004000B0
60208460
80204820
60208460
80204260
20406280
4060282!20
00600060
00346!6000
4000B082
60802048
40608024
802060B0
42428686
48482626
464!400060
00B26284
84686824
24646482
82686828
24246464
68248262
84262482
68246284
62628484
62842482
68242862
84242868
6!60000000
00000000
00000000
(00000000B0080020)
(6408!800000A060802)
(040604006002006!60)
B2862846!6
00000000
`000000000000000000000000000000000000000000000000000000000000000000000000000000000000000000000000B!400000000000400000000000000000000000000000000000B00000000000000000000000000000004000000000000000'
[800080200020600060400200]
[400800400600400800400040]
[200020800080600060200800]
[200600200400200800200060]
[200080400060800020400800]
[400600400200400600400020]
[800060200040200060800200]
84868640
B0628042
40826042
80806060
20208084
2!20008000
A0628042
40826060
20208080
40428068
20482062
80464040
80802020
60626042
40686048
40682020
40408080
20284068
40862!2000
60003!6000
4000B040
20208080
60626028
40684086
20846060
20208080
40424062
40264082
40646060
20208080
40406042
80628046
20646!6000
40004000
4000B040
60604062
80482064
60428080
60604040
80802064
[600040200080600040800800]
226644B0
[6020804020806080204!400000]
0000046!60
[3080402080608020406!600000]
[0000000000006040204!400000]
`B000000000000000200000000000000080000000000000004!400000000000000000000000B!600000000000000000000000000000000000B000000000002000000000008000000000006!600000000000000000000000000000000000000000000000'
[B020406020604020806!600000]
`B000000000000000200000000000000040000000000000008!800000000000000000000000A!2000000000000000000000000000000000003000000000008000000000002000000000004!400000000000000000000000000000000000000000000000'
000B6!6040
[B00020008000600020008000]
[400080002000600000800000]
20408020
60408!8020
[A00060008000600020008000]
[400020008000600000400000]
802!200030
4!4000B042
40204020
40204020
80608060
80608060
40804080
40804080
20602060
20602060
40208060
40802060
40208020
40802060
40204080
206080B!B0
00000000
00000000
0000000B
;
#SINGLE:MANIAC:9:
40204020
80608060
40804080
20602060
40208060
20804060
4!40000000
B0206020
80408040
60806080
20402040
80206080
20402080
6!60000000
B0802060
20804020
40208060
80204080
20608060
80204020
4!40000000
00004000
40802060
40802060
40208060
40208060
20804060
80204!4000
00004000
B0B!B00000
00B0B!B000
00000000
00000000
00B04020
80606020
80404020
40808020
60808020
40606020
80404!4000
0000B020
20802060
60402080
80602080
80402040
40802060
602!200000
000000A0
40608080
20408080
20602020
80406060
80204040
8020606!60
00000000
00B04!4000
00007020
20608020
20408040
406040B0
40208060
40802062
604!400000
00B08020
40826080
20408020
60428060
80204080
20646080
60208040
20868020
40802060
40826040
20806020
80424080
B!B0000000
00000000
0000B000
(6!60000000B0020080)
(64!400000004060206)
(0206020060080024)
24242424!4
00000000
[000000000000B00000400060]
[200020800080400040600800]
[600800200400200400600060]
[800080200020400040600200]
[600200800400800400600040]
[200080600020800040600200]
[800400600800200400600020]
[800040200080600040600200]
42684860
[400000006000200000008000]
[400000006000400000008000]
20602060
40804080
4!40000000
[B00000008000200000004000]
[600000002000800000400000]
80406020
[600000200000600000004000]
[600000008000200000004000]
[200000008000600000200000]
60208040
[800000400000600000004000]
[200000008000600000004000]
[800000002000600000200000]
60208040
[800000400000600000008000]
[2000000040006!600000000000]
0000B!4000
0000B020
60208040
[800000400000600000008000]
[200000004000600000002000]
[800000004000600000800000]
20406020
[800000400000600000008000]
[200000004000600000004000]
[200000008000600000800000]
60802040
[200000400000800000002000]
[600000004000600000002000]
[8000000040006!600000000000]
00000000
0000B080
[400000600000400000006000]
[200000008000400000006000]
[800000002000400000600000]
40602080
[200000800000600000004000]
[600060200020800080400200]
42868640
[6020602060208040804!400000]
0000406!60
[B020402040208060806!600000]
[000000000000604020400000]
`6000000000000000200000000000000060000000000000002000000000000000000000006000000000000000000000000000000000004000000000006000000000004000000000006!600000000000000000000000000000000000000000000000'
[B020402040208060806!600000]
`B000000000000000200000000000000040000000000000002000000000000000000000008000000000000000000000000000000000006000000000002000000000006000000000002!200000000000000000000000000000000000000000000000'
002B4!4000
[B00020006000200060002000]
[800040008000400000600000]
40602080
40604!4000
[B00080006000800060008000]
[200040002000400000800000]
206!600060
4!40004060
40002000
40002000
40002000
40002000
80006000
80006000
80006000
80006000
40002000
80006000
40002000
80006000
40008000
200060B!B0
00000000
0000000B
;
#SINGLE:ANOTHER:7:
40204020
40204020
80608060
80608060
40804080
40804080
2!20000000
30406040
60406040
80408040
80408040
80208020
80208020
6!60000000
B0804080
40804080
20802080
20802080
20602060
20602060
2!20000000
00003000
40604060
40604060
20602060
20602060
20802080
20802!2000
00003000
B!B0000000
00000000
00000000
00000000
B0004020
80006020
80004020
40006020
60002080
40006080
60004!4000
0000B000
20804000
60806000
40204000
60802000
40208000
602!200000
000000A0
40800020
60200080
40600080
20400020
80600020
8040006!60
00000000
00604!4000
0000B000
20804000
60806000
40204010
20008000
60002080
404!400060
00400060
80204000
60002000
80406000
40002000
80608000
20004000
80206000
20008000
40208000
60002000
80406000
4!40000000
00000000
00000000
B!60000000
00000000
00B!400000
00000000
00000000
0000B040
80206042
42868640
80206042
86482640
80206042
42868640
80206042
406260B0
40002000
80006000
20802080
40604060
4!40000000
B0002000
80004020
80604080
20604000
20008000
60002080
20804020
80604000
80002000
60004020
40802060
80204000
80002!2000
00006000
00003040
60406080
20406000
20008000
40006020
60208040
60802000
40008000
20006080
60204080
60208000
40006000
20008!8000
00000000
00007020
80604000
80002000
60004020
80602080
40604000
60208042
4068204!40
4060208!80
0000802!20
2060806!60
00604060
28406860
82482640
2080646!60
000B4000
20006020
80406!6000
40002000
4000B000
80206040
60208000
004!400040
6!60006040
60000000
20000000
60000000
20000000
80000000
40000000
80000000
40000000
60000000
80000000
20000000
40000000
B!B0000000
0000B0B!B0
00000000
00000000
0000000B
;
#SINGLE:BASIC:4:
40002000
40002000
80006000
80006000
40008000
40008000
2!20000000
30008000
20004000
80002000
60004000
60008000
20004000
6!60000000
B0002000
80006000
20008000
40008000
20006000
80002000
4!40000000
0000B000
B0004000
80002000
60008000
20004000
20008000
60004!4000
00004000
B!B0000000
00000000
00000000
00000000
B0004020
40008000
20006080
20004000
20008060
20008000
40006!6000
00006000
40008000
20604000
60008000
20402000
80006000
404!400000
000000B0
00200080
40800020
00600080
20400080
00200060
2060004!40
00000000
00406!6000
00006000
40204000
80002000
60206020
60002000
80004000
604!400000
00406000
20008000
40006000
80002000
40008000
20006000
20008000
40006000
80002000
40008000
20006000
40006000
4!40000000
00000000
00000000
B!60000000
00000000
00000000
00000000
00000000
0000B060
00200080
40802060
00400020
80602080
00400060
20802060
00800020
408020B0
40002000
80006000
40002000
40002000
8!80000000
80006000
20008000
20006000
80002000
40008000
20006000
80006000
20008000
40008000
20006000
20008000
20006000
80002!2000
00000000
00002000
40008000
20006000
80006000
80002000
40002000
40008000
20006000
20006000
40008000
20008000
40002000
80006!6000
00000000
00006000
40008000
20006000
20008000
40002000
80006000
40204080
20602080
0040604!40
00004060
0020804!40
00004060
20802060
80204080
206040B!B0
0B0B4000
20008000
60002!2000
00000000
20008000
40006000
80002!2000
00000000
00002000
40000000
00000000
40000000
00000000
60000000
00000000
60000000
00000000
20000000
00000000
20000000
00000000
80000000
000000B0
;
#SINGLE:BEGINNER:3:
40000000
40000000
60000000
60000000
20000000
20000000
80000000
00000000
20000000
20000000
60000000
60000000
40000000
40000000
00000000
60000000
80000000
80000000
20000000
20000000
40000000
00000000
20000000
20000000
80000000
80000000
60000000
60000000
00000000
B0000000
00000000
00000000
00000000
00004000
00004000
00002000
00002000
00008000
00008000
00006000
00000000
60000000
20000000
20000000
80000000
80000000
40000000
00000000
00000040
00000080
00000080
00000020
00000020
00000060
00000000
00000000
00000000
60000000
60000000
80000000
80000000
80000000
20000000
00004000
00004000
00008000
00008000
00008000
00006000
00006000
00002000
00002000
00008000
00008000
00004000
40000000
00000000
00000000
60000000
00000000
00000000
00000000
00000000
0000B0B0
00600020
00200080
00800040
00400060
00600080
00800060
00600020
002000B0
B0000000
40000000
80000000
80000000
20000000
00002000
00006000
00006000
00008000
00008000
00002000
00002000
00004000
00004000
00008000
00008000
00002000
00002000
00000000
00000000
00006000
00002000
00002000
00008000
00008000
00004000
00004000
00006000
00006000
00008000
00008000
00002000
00000000
00000000
00002000
00004000
00004000
00006000
00006000
00600020
00200060
00404040
00000080
00202020
00006060
00600020
00200080
008000B0
00004000
00004000
00006000
00000000
00006000
00006000
00002000
00000000
00000000
40000000
00000000
00000000
00000000
40000000
00000000
00000000
00000000
60000000
00000000
00000000
00000000
B0000000
000000B0
;
