#TITLE:Draw the Line;
#SUBTITLE:;
#ARTIST:SOUND HOLIC feat. 709 sec.;
#TITLETRANSLIT:;
#SUBTITLETRANSLIT:;
#ARTISTTRANSLIT:;
#CREDIT:;
#BANNER:drawline.png;
#BACKGROUND:drawline-bg.png;
#LYRICSPATH:;
#CDTITLE:!hiryuu.png;
#MUSIC:drawline.ogg;
#OFFSET:-0.271;
#SAMPLESTART:13.257;
#SAMPLELENGTH:15.555;
#SELECTABLE:YES;
#BPMS:0.000=185.020;
#STOPS:;
#BGCHANGES:0.000=Draw the Line.avi=1.000=1=1=0,
339.000=drawline-bg.png=1.000=1=0=0,
99999=-nosongbg-=1.000=0=0=0 // don't automatically add -songbackground-
;

//---------------dance-single - MANIAC----------------
#NOTES:
     dance-single:
     MANIAC:
     Hard:
     9:
     0.662,0.632,0.351,0.395,0.004:
0000
0000
0000
0000
,
0000
0000
0000
0000
,
1000
0100
1000
0100
1000
0100
1000
0010
,
1000
0010
1000
0010
0100
0001
0010
0001
,
1000
0010
1000
0010
1000
0010
0100
0010
,
0100
0010
0100
0010
0100
0001
0010
0001
,
1000
0100
0010
0001
0100
0010
1000
0100
,
0010
0001
0100
0010
1000
0100
1000
0100
,
0010
0001
0100
0010
1000
0100
0010
0001
,
0100
0010
1000
0100
0010
0001
1000
0001
,
1000
0100
0010
0002
0000
0103
1000
0200
,
0000
0301
0010
0100
2000
0000
3000
0000
,
0001
0010
0100
2000
0000
3100
0001
0200
,
0000
1300
0100
0010
0002
0000
0003
0000
,
1000
0010
0100
0002
0000
0013
1000
0020
,
0000
0031
0100
0010
1000
0000
0100
0020
,
0000
0000
0030
0000
0000
0001
0100
0020
,
0000
0000
0000
0130
0001
0000
0010
0000
,
0100
1000
0100
0010
0000
0011
0000
0101
,
0000
0010
1000
0200
0000
0000
0000
0000
,
1300
0010
0100
0001
0000
0011
0000
0110
,
0000
0100
1000
0002
0000
0000
0000
0000
,
1003
0100
1000
0100
0000
1100
0000
0110
,
0000
0011
0000
0101
0000
0010
0100
0000
,
0100
0001
0100
0001
0000
0011
0000
0110
,
0000
1100
0000
1010
0000
0010
0100
0000
,
0001
0000
1000
0001
0000
0010
0001
0100
,
0010
0000
1000
0001
0000
0100
0010
0000
,
1000
0000
0100
1000
0000
0100
1000
0001
,
0010
0000
0100
1000
0000
0001
0010
0000
,
0001
0000
0100
0010
0000
1000
0100
0000
,
1100
1001
0110
0011
,
0010
0000
1000
0100
0000
0001
0100
2000
,
0000
0000
0000
3010
0100
0000
1001
0000
,
0001
0000
0010
0001
0000
0100
0010
1000
,
0100
0000
0010
0001
0000
1000
0100
0000
,
1000
0000
0010
0100
0000
0001
0010
0001
,
0100
0000
0010
1000
0000
0001
0100
0000
,
0001
0000
0010
0001
0000
0100
0010
0000
,
1100
1010
0011
0101
,
1100
0000
1000
0100
0000
0001
0020
0200
,
0000
0000
0000
0330
,
0010
0000
0100
1000
0000
1000
0010
0000
,
0100
0000
0001
0010
0000
0010
0100
0000
,
1001
0000
0000
0110
0000
0000
1001
0000
,
0000
1000
0010
1000
0002
0000
0000
0003
,
0010
0000
0001
0100
0000
0100
0010
0000
,
1000
0000
0100
0010
0000
0010
0001
0000
,
1000
0000
0010
0100
0000
0100
0001
0000
,
0110
0000
0000
1001
0000
0000
0110
0000
,
1000
0001
1000
0000
0001
0000
0000
0000
1000
0000
0100
0000
0001
0000
0200
0000
,
0000
1300
0010
0002
0000
0013
1000
0001
,
2000
0000
0000
0000
3001
0010
1000
0020
,
0000
0031
0100
2000
0000
3100
0001
0010
,
0200
0000
0000
0000
1300
0100
0001
0200
,
0000
1300
0010
0002
0000
1003
0010
0100
,
0001
0000
0010
0002
0000
0000
0010
0000
,
0013
0001
0010
0200
0000
0000
0000
0000
,
1300
0000
1100
0000
1000
0010
0100
0002
,
0000
0013
0100
2000
0000
3010
0100
0001
,
2000
0000
0000
0000
3001
0010
0100
2000
,
0000
3010
0100
0002
0000
1003
0100
0010
,
0002
0000
0000
0000
1003
0010
0100
0002
,
0000
0013
0001
0200
0000
0310
1000
0100
,
1000
0000
0100
2000
0000
0000
0100
0000
,
3100
1000
0100
0020
0000
0000
0000
0031
,
1000
0000
1001
0000
1000
0100
1000
0010
,
0100
0001
0010
0001
0100
0010
1000
0100
,
0010
0001
0010
0001
0020
0000
0000
0000
,
0000
0000
0031
0100
0000
0001
0020
0000
,
0000
0000
0032
0000
1003
0100
1000
0010
,
1000
0001
0100
0010
0100
0001
0100
0001
,
0010
0100
1000
0020
0000
0000
0130
0010
,
2000
0000
3001
0020
0000
0031
0100
0010
,
1000
0100
2000
0000
3001
0010
1000
0010
,
0000
0011
0000
0101
0000
0010
0100
0000
,
0001
0010
0100
0000
1000
0100
0001
0100
,
0000
1100
0000
1010
0000
0010
0100
0000
,
0001
0010
0100
0000
0001
1000
0001
1001
,
0000
0110
0000
1001
0000
0001
0010
0000
,
0100
1000
0100
0000
0010
0100
0010
0110
,
0000
1001
0000
0110
0000
1000
0100
0000
,
0010
0001
1000
0000
0001
0010
0100
1000
,
0002
2000
0000
0000
0000
0000
0000
0000
,
0000
0000
0000
3003
;

//---------------dance-single - TRICKY----------------
#NOTES:
     dance-single:
     TRICKY:
     Medium:
     6:
     0.394,0.409,0.070,0.149,0.000:
0000
0000
0000
0000
,
0000
0000
0000
0000
,
1000
0100
1000
0100
,
0010
0001
0010
0010
,
0001
0100
0001
0100
,
0010
1000
0010
0010
,
1000
0100
0010
0001
,
0010
0100
1000
1000
,
0001
0100
0010
1000
,
0010
0100
0001
0001
,
1000
0000
0001
0010
0000
0000
0010
0100
,
0000
0100
1000
0000
,
0010
0000
0100
0001
0000
0000
0001
0010
,
0000
0010
0100
0000
,
1000
0000
0010
0001
0000
0000
0010
1000
,
0000
0000
0001
0000
0010
0000
0100
2000
,
0000
0000
0000
0000
3000
0000
1000
0002
,
0000
0000
1003
0100
,
0010
0001
0100
0001
0000
0010
0000
0100
,
0000
2000
0000
0000
0000
0000
3000
0000
,
0001
1000
0100
1000
0000
0100
0000
0010
,
0000
0002
0000
0000
0000
0000
0003
0000
,
1000
0100
1000
0100
,
0010
0001
0010
0001
,
0100
0010
0100
0010
,
1000
0001
1000
0001
,
1000
0000
0000
0010
0000
0000
1000
0000
,
0001
0000
0000
0100
0000
0000
0001
0000
,
1000
0000
0000
0001
0000
0000
1000
0000
,
0010
0000
0000
0100
0000
0000
0010
0000
,
1000
0000
0000
0100
0000
0000
0010
0000
,
0001
0010
0100
1000
,
0100
0000
0010
0001
0000
0000
0001
0200
,
0000
0000
0310
0000
,
0010
0000
0000
0100
0000
0000
0010
0000
,
1000
0000
0000
0100
0000
0000
1000
0000
,
0001
0000
0000
0010
0000
0000
0100
0000
,
1000
0000
0000
0010
0000
0000
0100
0000
,
0010
0000
0000
1000
0000
0000
0100
0000
,
0010
0001
0100
0010
,
1000
0000
0010
0100
0000
0100
0001
0020
,
0000
0000
0030
0000
,
0001
0000
0000
0001
0000
0000
0001
0000
,
0010
0000
0000
0010
0000
0000
0010
0000
,
0100
0000
0000
1000
0000
0000
2200
0000
,
0000
3300
0000
0000
,
1000
0000
0000
1000
0000
0000
1000
0000
,
0010
0000
0000
0010
0000
0000
0010
0000
,
0100
0000
0000
0100
0000
0000
0100
0000
,
0001
0000
0000
1001
0000
0000
1000
0000
,
0001
0000
1000
0000
0100
0000
0010
0001
,
0000
0000
0001
0010
0000
0000
0100
0000
,
1000
0000
0000
0000
0100
0000
1000
0100
,
0000
0000
0100
0010
0000
0000
0100
0000
,
1000
0000
0000
0000
0001
0000
0100
0010
,
0000
0000
0010
0001
0000
0000
0010
0000
,
1000
0000
0100
0020
0000
0000
0000
0000
,
0030
0000
0001
2000
0000
0000
0000
0000
,
3001
0000
0000
0000
1000
0000
0010
0100
,
0000
0000
0100
0001
0000
0000
0010
0000
,
0100
0000
0110
0000
0100
0000
1000
0010
,
0000
0000
0010
0100
0000
0000
0100
0000
,
0001
0000
1001
0000
1000
0000
0100
0010
,
0000
0000
0010
0001
0000
0000
0001
0000
,
1000
0000
0001
0200
0000
0000
0000
0000
,
0000
0300
0010
0200
0000
0000
0000
0000
,
0310
1000
0100
1000
,
0100
1000
0010
0100
,
0001
0010
0002
0000
,
0000
0013
0001
0100
,
0010
1000
0100
0100
,
0100
1000
1000
1000
,
0010
0000
0100
0020
0000
0000
0130
0000
,
0001
0000
1000
0200
0000
0000
1300
0000
,
0010
0000
0100
0000
0001
0010
0001
0010
,
0000
0001
0000
0011
0000
0000
0001
0000
,
0010
0000
0100
0000
1000
0100
1000
0100
,
0000
1000
0000
1100
0000
0000
0100
0000
,
1000
0000
0010
0000
0100
0010
0100
0010
,
0000
0100
0000
0110
0000
0000
0010
0000
,
1000
0000
0001
0000
1000
0001
1000
0001
,
0000
1000
0000
1001
0000
0000
0001
0000
,
0010
0000
0100
0000
1000
0010
0100
0001
,
0020
0200
0000
0000
0000
0000
0000
0000
,
0000
0000
0000
0330
;

//---------------dance-single - BASIC----------------
#NOTES:
     dance-single:
     BASIC:
     Easy:
     3:
     0.201,0.260,0.097,0.097,0.000:
0000
0000
0000
0000
,
0000
0000
0000
0000
,
0000
0000
0000
0000
,
0000
0000
0000
0000
,
0000
0000
0000
0000
,
0000
0000
0000
0000
,
0000
0000
0000
0000
,
0000
0000
0000
0000
,
0000
0000
0000
0000
,
0000
0000
0000
0000
,
1000
0000
1000
0000
,
1000
0001
1000
0000
,
0001
0000
0001
0000
,
0001
1000
0001
0000
,
0100
0000
0010
0000
,
1000
0001
1000
0000
,
0001
0000
0000
0000
,
1000
0000
0000
0000
,
0010
0000
0010
0000
,
0110
0000
0000
0000
,
1000
0000
1000
0000
,
1001
0000
0000
0000
,
1000
0000
1000
0000
,
0100
0000
0100
0000
,
1000
0000
1000
0000
,
0001
0000
0001
0000
,
0100
0000
0100
0000
,
0010
0000
0010
0000
,
1000
0000
1000
0000
,
0100
0000
0100
0000
,
1000
0000
1000
0000
,
0010
0100
0010
0100
,
0001
0000
0001
0000
,
0002
0000
0000
0000
,
0103
0000
0100
0000
,
1000
0000
1000
0000
,
0010
0000
0010
0000
,
0100
0000
0100
0000
,
0001
0000
0001
0000
,
0010
0100
0010
0100
,
1000
0000
1000
0000
,
2000
0000
0000
0000
,
3010
0000
0000
0000
,
0100
0000
0000
0000
,
0001
0000
0000
1000
0000
0000
1001
0000
,
0000
0000
0000
0000
,
1000
0000
0000
0000
,
0100
0000
0000
0000
,
0010
0000
0000
0000
,
0001
0000
0000
1000
0000
0000
0001
0000
,
0000
0000
1000
0000
,
0001
0000
1000
0001
,
1000
0000
0010
0000
,
0100
0000
0010
0100
,
0010
0000
1000
0000
,
0100
0000
0010
0001
,
0010
0002
0000
0003
,
0000
0002
0000
0000
,
0003
0000
0001
0000
,
0010
0000
0001
0010
,
0100
0000
1000
0000
,
0100
0000
1000
0010
,
0100
0000
0010
0000
,
0100
0000
0010
1000
,
0001
2000
0000
3000
,
0000
2000
0000
0000
,
3001
0001
0002
0000
,
1000
0000
0100
0000
,
1003
0000
2000
0000
,
0001
0000
0010
0000
,
3001
0000
0200
0000
,
0010
0000
0001
0000
,
0310
0000
0020
0000
,
0100
0000
1000
0000
,
0130
0000
0110
0000
,
0000
0000
0110
0000
,
0000
0000
1001
0000
,
0000
0000
1001
0000
,
0000
0000
1100
0000
,
0000
0000
1100
0000
,
0000
0000
0011
0000
,
0000
0000
0011
0000
,
0000
0000
1000
0000
,
0002
0000
0000
0000
,
0000
0000
0000
0003
;

//---------------dance-single - ----------------
#NOTES:
     dance-single:
     :
     Challenge:
     10:
     0.944,1.000,0.658,0.746,0.158: // measure 1
0000
0000
0000
0000
,  // measure 2
0000
0000
0000
0000
,  // measure 3
1000
1000
1000
0010
0010
0010
0100
0100
,  // measure 4
0100
0001
0001
0001
1000
1000
0100
0100
,  // measure 5
0010
0010
0010
0001
0001
0001
0100
0100
,  // measure 6
0100
0010
0010
0010
1000
1000
0001
1001
,  // measure 7
1001
1000
1000
0010
0010
0010
0100
0100
,  // measure 8
0100
0001
0001
0001
0010
0010
0100
0100
,  // measure 9
1000
1000
1000
0010
0010
0010
0100
0100
,  // measure 10
0110
0000
0010
1000
0001
0000
1001
0000
1000
0100
0010
0000
0110
0000
0100
0000
,  // measure 11
1100
1000
0100
0200
0000
1300
0010
0200
,  // measure 12
0000
0301
0100
0010
2000
0000
3001
0100
,  // measure 13
0001
0010
0100
2000
0000
3100
0001
0200
,  // measure 14
0000
1300
0010
0100
0002
0000
1003
0100
,  // measure 15
1100
1000
0010
0200
0000
0301
0100
0020
,  // measure 16
0000
1030
0100
0010
0002
0000
1003
0020
,  // measure 17
0100
0000
0100
0000
0130
0001
0010
0200
,  // measure 18
1000
1000
1300
1100
,  // measure 19
1001
0001
0100
0010
0000
1001
1000
1100
,  // measure 20
0000
0002
0203
0320
1000
1000
1000
0030
,  // measure 21
1010
1000
0010
0100
0000
0101
0000
1001
,  // measure 22
0000
0000
2000
0000
3200
0000
0320
0000
0000
0000
0031
1000
0001
0000
0000
0000
,  // measure 23
1001
0001
0100
0110
0000
1010
1000
1001
,  // measure 24
0000
0011
0010
0110
0000
0010
0100
1000
,  // measure 25
1001
0001
0100
0110
0000
1010
1000
1100
,  // measure 26
0000
0110
0010
0011
0001
0100
0010
1000
,  // measure 27
1001
0001
0100
0020
0000
1030
0100
1000
,  // measure 28
0010
0100
0001
2000
0000
3100
0010
0001
,  // measure 29
1000
1000
0100
0020
0000
0031
0001
0100
,  // measure 30
0010
0010
1000
0002
0000
0103
0020
1000
,  // measure 31
2030
0001
3001
0020
0100
0130
1000
0100
,  // measure 32
1000
0010
1000
0001
1000
0010
1000
0001
,  // measure 33
1001
0001
0100
0110
0010
2000
3002
2003
,  // measure 34
0010
3010
0100
0001
0002
1000
1003
0000
,  // measure 35
1001
0001
0100
0020
0000
1030
0001
0100
,  // measure 36
0100
0010
1000
1000
0010
0100
0100
0001
,  // measure 37
1000
0100
0010
0002
0000
0103
0010
1000
,  // measure 38
2000
0000
3001
0200
0000
0310
1000
0010
,  // measure 39
0200
0001
0302
1000
1003
0010
1000
0100
,  // measure 40
1000
0010
1000
0001
1000
0010
1000
0100
,  // measure 41
1100
0100
0010
0011
0001
0200
0302
2003
,  // measure 42
0001
0000
3001
0000
0100
0000
0010
1000
0010
0000
0100
0000
0001
0000
0001
0000
,  // measure 43
2001
0000
3001
0200
0010
0310
1000
0010
,  // measure 44
0200
0000
0301
2000
0100
3100
0010
0001
,  // measure 45
1001
1000
0100
0110
0010
0001
2002
0000
,  // measure 46
3003
2000
3200
0320
0032
1000
1003
0000
,  // measure 47
1001
0001
0100
0020
1000
0000
1030
1000
,  // measure 48
0100
0010
0001
2000
0001
0000
3001
0001
,  // measure 49
0100
0010
1000
0020
0100
0000
0130
0001
,  // measure 50
1001
1000
0001
1001
0001
1000
1001
0000
,  // measure 51
1000
0100
0010
0001
1000
0000
0000
0000
1001
0000
0001
0000
0100
0000
0020
0000
,  // measure 52
0000
1030
0100
0020
0000
0031
0100
0010
,  // measure 53
2000
0001
3001
0000
0001
0100
0010
2000
,  // measure 54
0000
3100
0010
0002
0000
0013
1000
0010
,  // measure 55
0002
0100
0103
0000
1001
0001
0100
0020
,  // measure 56
0000
1030
0010
0002
0000
0013
1000
0100
,  // measure 57
0010
0001
0010
0000
0011
0000
0002
0000
0100
0000
0100
0000
0100
0000
0103
0000
,  // measure 58
0010
1000
0001
0020
0100
0100
0100
0130
,  // measure 59
2000
0100
3100
0010
0011
0001
0100
0020
,  // measure 60
0000
1030
0010
0200
0000
0301
0010
0100
,  // measure 61
2000
0001
3001
0000
1001
0001
0100
0020
,  // measure 62
0000
1030
0010
0200
0000
0301
0010
1000
,  // measure 63
0020
0001
0031
0000
1001
1000
0100
0002
,  // measure 64
0000
0103
1000
0020
0000
0031
0010
1000
,  // measure 65
0001
1000
0001
0000
1001
0000
2000
0000
0010
0000
0010
0000
3010
0000
0100
0000
,  // measure 66
0001
0010
0100
0200
1000
1000
1000
1300
,  // measure 67
1001
0000
0001
1000
0001
0000
1001
0000
1000
0100
0010
0001
0100
0010
1000
0010
,  // measure 68
0100
0001
0010
0100
1000
0100
1000
0100
0010
0001
0010
0100
0010
0001
0100
0010
,  // measure 69
1000
0100
1000
0010
0200
0000
0302
0000
1000
0000
0000
0000
1000
0000
0000
0000
,  // measure 70
1000
2003
3200
2300
0000
3200
0320
0001
,  // measure 71
0000
0000
0031
0000
1000
0100
1000
0000
0001
0100
0001
0100
0010
1000
0010
1000
,  // measure 72
0001
0100
0001
0100
0010
0100
0010
0100
0001
1000
0001
1000
0001
0000
0100
0000
,  // measure 73
0010
1000
0010
2010
0000
3010
0110
0001
,  // measure 74
0020
0000
0000
0000
0000
0000
0130
0000
0000
2000
0000
0000
0000
0000
0000
3001
0000
0000
0100
0000
0010
0000
1000
0000
,  // measure 75
0001
0100
0002
0000
1003
0100
0010
0011
,  // measure 76
0000
1001
0000
1100
0000
1000
1100
0000
,  // measure 77
0100
0010
0011
0000
0101
0100
0010
1010
,  // measure 78
0000
1001
0000
0101
0000
0100
0110
0000
,  // measure 79
0010
1000
1001
0000
0101
0100
0010
1010
,  // measure 80
0000
1001
0000
0101
0000
0001
1001
0000
,  // measure 81
1000
0100
0110
0000
0011
0001
1000
1001
,  // measure 82
0000
0110
0000
2001
0000
0001
0001
0000
,  // measure 83
0001
0001
3001
0000
1001
0001
0100
0110
,  // measure 84
0000
2002
0000
0000
0000
0000
0000
0000
,  // measure 85
0000
0000
0000
3003
;

//---------------dance-single - ----------------
#NOTES:
     dance-single:
     :
     Beginner:
     1:
     0.127,0.182,0.035,0.000,0.000:
0000
0000
0000
0000
,
0000
0000
0000
0000
,
1000
0000
0000
0000
,
0000
0000
0000
0000
,
0001
0000
0000
0000
,
0000
0000
0000
0000
,
0100
0000
0000
0000
,
0000
0000
0000
0000
,
0010
0000
0000
0000
,
1000
0000
0000
0000
,
0001
0000
0001
0000
,
0001
0000
0000
0000
,
0100
0000
0100
0000
,
0100
0000
0000
0000
,
0010
0000
0010
0000
,
0010
0000
0000
0000
,
1000
0000
0000
0000
,
1000
0000
0000
0000
,
0001
0000
0001
0000
,
0001
0000
0000
0000
,
0100
0000
0100
0000
,
0100
0000
0000
0000
,
0010
0000
0000
0000
,
1000
0000
0000
0000
,
0100
0000
0000
0000
,
0010
0000
0000
0000
,
0001
0000
0000
0000
,
0100
0000
0000
0000
,
0010
0000
0000
0000
,
1000
0000
0000
0000
,
0010
0000
0000
0000
,
0100
0000
0000
0000
,
0001
0000
0000
0000
,
0010
0000
0010
0000
,
0100
0000
0000
0000
,
1000
0000
0000
0000
,
0010
0000
0000
0000
,
0100
0000
0000
0000
,
0001
0000
0000
0000
,
0010
0000
0000
0000
,
0100
0000
1000
0000
,
0001
0000
0000
0000
,
1001
0000
0000
0000
,
0000
0000
0000
0000
,
1000
0000
1000
0000
,
1000
0000
0000
0000
,
0010
0000
0000
0000
,
0010
0000
0000
0000
,
0100
0000
0000
0000
,
0001
0000
0001
0000
,
0001
0000
1001
0000
,
0000
0000
1000
0000
,
1000
0000
0010
0000
,
0000
0000
0100
0000
,
0100
0000
0001
0000
,
0000
0000
0010
0000
,
0010
0000
0100
0000
,
0000
0000
1000
0000
,
1000
0000
0001
0000
,
0000
0000
0100
0000
,
0100
0000
0010
0000
,
0000
0000
1000
0000
,
0100
0000
1000
0000
,
0000
0000
0010
0000
,
0010
0000
0100
0000
,
0000
0000
0001
0000
,
1000
1000
1000
0000
,
0000
0000
0010
0000
,
0000
0000
0100
0000
,
0000
0000
0001
0000
,
0000
0000
1000
0000
,
1000
0000
0100
0000
,
0100
0000
0010
0000
,
0000
0000
0001
0000
,
1000
1000
1000
0000
,
0000
0000
0000
0000
,
0000
0000
0001
0000
,
0000
0000
0000
0000
,
0000
0000
0100
0000
,
0000
0000
0000
0000
,
0000
0000
0010
0000
,
0000
0000
0000
0000
,
0000
0000
1001
0000
,
1001
0000
0000
0000
;
